<?xml version="1.0" standalone="no"?>
<!DOCTYPE svg PUBLIC "-//W3C//DTD SVG 1.1//EN" "http://www.w3.org/Graphics/SVG/1.1/DTD/svg11.dtd" >
<svg xmlns="http://www.w3.org/2000/svg">
<metadata>
This is a custom SVG webfont generated by Font Squirrel.
Copyright   : Copyright c 20112012 Brownfox wwwbrownfoxorg gayanehbgmailcom with Reserved Font Name Simonetta
Designer    : Gayaneh Bagdasaryan
Foundry     : Brownfox
Foundry URL : httpwwwbrownfoxorg
</metadata>
<defs>
<font id="SimonettaRegular" horiz-adv-x="1565" >
<font-face units-per-em="2048" ascent="1638" descent="-410" />
<missing-glyph horiz-adv-x="444" />
<glyph unicode=" "  horiz-adv-x="444" />
<glyph unicode="&#x09;" horiz-adv-x="444" />
<glyph unicode="&#xa0;" horiz-adv-x="444" />
<glyph unicode="!" horiz-adv-x="487" d="M125 86q0 23 7 44t20.5 36.5t33 25t43.5 9.5q41 0 69 -27t28 -80q0 -23 -7 -43.5t-20 -36.5t-32 -25t-44 -9q-42 0 -70 26t-28 80zM176 1391q19 -2 44.5 -3.5t51.5 -1.5t51.5 1.5t45.5 3.5q-12 -83 -23 -169t-20.5 -170.5t-17.5 -165t-15 -152.5q-16 -168 -27 -328h-57 q-1 160 -5 328q-2 72 -4 152.5t-5.5 165t-8 170.5t-10.5 169z" />
<glyph unicode="&#x22;" horiz-adv-x="721" d="M102 1391h195l-57 -447h-80zM463 1391h194l-57 -447h-80z" />
<glyph unicode="#" horiz-adv-x="1473" d="M63 369l5 102h316l82 459q-89 -3 -167 -7.5t-139 -9.5l4 103h317l66 375h133l-66 -375h362l66 375h134l-67 -375h308l-2 -70h-90q-43 0 -101 -0.5t-127 -1.5l-84 -473h308l-2 -70h-90q-43 0 -101.5 -0.5t-127.5 -1.5l-70 -399h-133l70 397q-88 -1 -179.5 -3t-184.5 -4 l-69 -390h-133l68 386q-89 -4 -167 -8t-139 -9zM517 471h363l83 471q-88 -1 -180 -3l-184 -4z" />
<glyph unicode="$" horiz-adv-x="977" d="M63 27l25 317h62v-35q0 -42 10 -89t40 -87t86.5 -66t149.5 -26h19l21 603q-11 8 -22 16.5t-22 17.5q-44 34 -97 74.5t-99.5 89.5t-77.5 108t-31 131q0 54 16.5 113t59 108.5t115 82t185.5 34.5l5 135h74l-5 -137q81 -5 153 -18.5t128 -30.5l-22 -301h-58v27 q0 35 -6.5 75.5t-28 77.5t-62 64.5t-107.5 36.5l-19 -539q66 -47 126 -94.5t105.5 -100t73 -112t27.5 -131.5q0 -73 -29 -137.5t-78.5 -116t-115.5 -87t-139 -49.5l-7 -202h-72l6 193q-5 -1 -10 -1h-10q-105 0 -201 17t-168 39zM289 1141q0 -51 16.5 -91t43.5 -73.5t62 -62 t72 -54.5l17 491q-48 -3 -86.5 -18.5t-66.5 -43t-43 -65t-15 -83.5zM528 53q43 12 79 36t62.5 57.5t41 76.5t14.5 94q0 43 -14.5 80.5t-39.5 71t-57 63.5t-67 57z" />
<glyph unicode="%" horiz-adv-x="1397" d="M86 922q0 47 10 97t30 97.5t49 90t68 74.5t86.5 50.5t104.5 18.5q47 0 84 -10.5t66 -28.5q18 -10 71.5 -24.5t145.5 -14.5q61 0 112.5 7t93 17t73 21.5t53.5 21.5l55 76l57 -39l-1003 -1392l-58 47l895 1235q-49 -25 -127 -44.5t-194 -19.5h-44q-21 0 -44 2 q14 -34 20 -71.5t6 -79.5q0 -52 -11 -105.5t-31.5 -102.5t-50.5 -92t-68.5 -74.5t-85 -50t-99.5 -18.5q-74 0 -124.5 25.5t-81.5 68.5t-44.5 99.5t-13.5 118.5zM205 965q0 -53 10 -104t32 -91t55.5 -64t80.5 -24q56 0 93.5 30t60.5 76t33 100.5t10 102.5t-10.5 99.5t-32 94 t-55.5 70t-81 27.5q-55 0 -92.5 -32t-60.5 -79.5t-33 -103t-10 -102.5zM709 311q0 46 10 95.5t29.5 97t49 90t68 75t86.5 51.5t105 19q71 0 121 -23.5t81.5 -63.5t45.5 -94.5t14 -115.5q0 -78 -24 -157t-69 -142.5t-109 -103t-144 -39.5q-75 0 -125.5 25t-81 68t-44 99.5 t-13.5 118.5zM827 354q0 -53 10.5 -103.5t32 -90.5t55.5 -64t81 -24q54 0 91.5 29t61 74t33.5 100t10 106q0 48 -10 99.5t-32 94t-55.5 70t-80.5 27.5q-53 0 -90.5 -30.5t-61 -77.5t-34.5 -103t-11 -107z" />
<glyph unicode="&#x26;" horiz-adv-x="1587" d="M84 315q0 36 5.5 73.5t21 76.5t44 79t74.5 79q21 18 42 33.5t42.5 30t43.5 29.5t44 32q-20 30 -36 64.5t-27 71t-17 73t-6 69.5q0 90 37 171t109 146q52 45 106 60.5t113 15.5q48 0 88.5 -16t70.5 -45.5t47 -70t17 -89.5t-17 -98.5t-71 -106.5q-31 -32 -62.5 -59.5 t-63.5 -52.5t-64.5 -49.5t-65.5 -51.5q71 -115 154.5 -223.5t179.5 -196.5l176 308q58 100 107 158.5t89.5 88.5t73 38t58.5 8q25 0 42.5 -7.5t28 -19.5t15 -26t4.5 -27q0 -17 -4 -36.5t-17 -37.5q-21 8 -41.5 11t-40.5 3q-69 0 -125 -42.5t-104 -116.5l-215 -338 q32 -32 81.5 -71.5t106.5 -74t116.5 -58.5t111.5 -24q42 0 80 9t82 40l26 -36q-26 -26 -57 -49.5t-65.5 -41t-71 -28t-72.5 -10.5q-59 0 -117 20t-113 51t-105.5 69.5t-94.5 74.5q-45 -59 -95 -99.5t-101.5 -66.5t-103 -37.5t-99.5 -11.5q-78 0 -144.5 23.5t-115.5 67 t-77 105.5t-28 139zM229 367q0 -59 21.5 -110.5t61.5 -89.5t95 -60.5t123 -22.5q63 0 134.5 35t142.5 117q-50 52 -99.5 104.5t-97 107.5t-92 114.5t-84.5 125.5q-60 -39 -99.5 -76.5t-63 -76t-33 -80t-9.5 -88.5zM430 1092q0 -33 8 -65.5t21.5 -64.5t31.5 -63.5t37 -62.5 q51 34 94 71.5t74.5 78t49.5 84t18 91.5q0 36 -8.5 69.5t-27 59t-47 41t-67.5 15.5q-48 0 -82.5 -21.5t-57 -57t-33.5 -81.5t-11 -94z" />
<glyph unicode="'" horiz-adv-x="360" d="M102 1391h195l-57 -447h-80z" />
<glyph unicode="(" horiz-adv-x="684" d="M59 498q0 156 43 302.5t124.5 276t198.5 238t265 186.5l25 -45q-117 -84 -212 -189.5t-162 -228t-103.5 -258.5t-36.5 -282q0 -128 28.5 -243t85 -222t141 -207t195.5 -197l-28 -45q-134 82 -239 179t-177 210t-110 244t-38 281z" />
<glyph unicode=")" horiz-adv-x="682" d="M-35 -371q117 85 211.5 190.5t162 228t104 258.5t36.5 282q0 127 -28.5 242.5t-85 222t-141 206.5t-195.5 197l28 45q134 -82 239 -179t177 -210t110 -243.5t38 -280.5q0 -156 -43 -303t-124.5 -276.5t-198.5 -238t-265 -186.5z" />
<glyph unicode="*" horiz-adv-x="944" d="M96 874l326 142l-316 141q26 35 43 64t31 55l275 -205l-27 348q16 -2 33.5 -3t34.5 -1t36 0.5t37 3.5l-51 -352l293 207q19 -40 33.5 -68.5t29.5 -54.5l-321 -133l309 -150q-8 -11 -17.5 -26t-20 -31t-20.5 -31.5t-18 -27.5l-272 213l23 -355q-11 0 -22 1q-10 0 -22 0.5 t-24 0.5h-29q-21 0 -41 -2l56 353l-293 -209q-7 13 -15.5 28.5t-17 32t-17 32t-16.5 27.5z" />
<glyph unicode="+" horiz-adv-x="1085" d="M74 598v98h422v422h98v-422h422v-98h-422v-422h-98v422h-422z" />
<glyph unicode="," horiz-adv-x="432" d="M61 -270q26 18 51 40t44.5 47.5t31 54t11.5 60.5q0 33 -10.5 59t-27.5 45.5t-38.5 33.5t-42.5 22q0 18 6.5 36.5t20 34.5t34.5 26t49 10q24 0 47 -9t41.5 -28.5t29.5 -50.5t11 -74q0 -37 -10.5 -80.5t-36.5 -89.5t-69.5 -92t-110.5 -88z" />
<glyph unicode="-" horiz-adv-x="844" d="M133 430l4 115h565l-4 -115h-565z" />
<glyph unicode="." horiz-adv-x="406" d="M86 86q0 23 7 44t20.5 36.5t33 25t43.5 9.5q41 0 69 -27t28 -80q0 -23 -7 -43.5t-20 -36.5t-32 -25t-44 -9q-42 0 -70 26t-28 80z" />
<glyph unicode="/" horiz-adv-x="1018" d="M12 -356l881 1829h111l-881 -1829h-111z" />
<glyph unicode="0" horiz-adv-x="1157" d="M102 662q0 89 12 179t38 174.5t66.5 158t97 128t130 86t166.5 31.5q76 0 139.5 -25t114 -69t88 -104t62 -129t37 -144.5t12.5 -150.5q0 -77 -11 -168.5t-35 -183.5t-62 -177.5t-92 -151.5t-125.5 -105.5t-161.5 -39.5q-85 0 -154 27t-121.5 75t-90.5 113.5t-62.5 142 t-36 161.5t-11.5 172zM248 729q0 -65 6.5 -141.5t21.5 -152.5t40.5 -146.5t63 -124.5t89 -86.5t119.5 -32.5q73 0 125 35.5t88.5 94t58.5 134t33.5 155.5t15.5 159t4 145q0 137 -19.5 233.5t-49.5 160.5t-67.5 101t-73 55.5t-66 23t-47.5 4.5q-74 0 -128.5 -30.5t-92.5 -81 t-61.5 -115.5t-37 -133.5t-18 -135.5t-4.5 -121z" />
<glyph unicode="1" horiz-adv-x="676" d="M51 1163q50 23 95.5 48t90.5 55t91 67.5t96 85.5h59q-5 -158 -10 -305t-9.5 -276.5t-8.5 -238.5t-7 -191t-4.5 -133.5t-1.5 -65.5q0 -44 6.5 -71t19 -42.5t31.5 -22.5t44 -10l43 -6v-57q-22 3 -53 7q-26 2 -64 4.5t-88 2.5q-51 0 -112.5 -3t-135.5 -11v57q26 2 46 4 t36.5 4t32.5 3t35 2l41 1169q-32 -20 -72 -42q-34 -19 -79 -41.5t-97 -43.5z" />
<glyph unicode="2" horiz-adv-x="1014" d="M47 39q71 78 149.5 156.5t154 159.5t144 164t121 170t83 177.5t30.5 186.5q0 132 -70.5 201t-193.5 69q-111 0 -166 -56t-55 -151q0 -25 3 -51.5t11 -54.5q-17 -17 -37.5 -26t-40.5 -9q-32 0 -57 23t-25 71q0 39 19 80.5t51.5 80.5t76.5 73.5t94.5 60t105 40.5t108.5 15 q80 0 143 -24.5t107 -68.5t67 -105.5t23 -135.5q0 -82 -34.5 -173t-112.5 -204.5t-205.5 -256t-313.5 -328.5l463 16q34 1 60.5 4.5t47.5 19t39.5 48.5t36.5 94l58 -8q-13 -47 -23 -85.5t-17.5 -73t-13 -68t-10.5 -70.5h-802z" />
<glyph unicode="3" horiz-adv-x="983" d="M45 82q0 29 17.5 57.5t41.5 48.5q54 -57 117.5 -85.5t120.5 -28.5q78 0 150 24t127 72.5t87.5 122t32.5 172.5q0 125 -72.5 191.5t-203.5 66.5q-16 0 -35.5 -1.5t-40 -4.5t-40 -8t-36.5 -11l-16 60l51 16q48 15 103.5 43.5t103 72t78.5 104t31 141.5q0 38 -13 72.5 t-38.5 60.5t-64 41.5t-89.5 15.5q-48 0 -88 -12.5t-75.5 -33t-68 -46t-63.5 -51.5l-39 45q36 35 77 69.5t90.5 61.5t109.5 44t135 17q69 0 121.5 -17.5t87.5 -48.5t53 -74.5t18 -94.5q0 -62 -26 -118.5t-64 -104.5t-81.5 -84t-78.5 -56q84 1 146 -23t103 -65.5t61 -97 t20 -117.5q0 -85 -28.5 -159t-77 -135t-113 -108t-136 -79t-146 -49t-142.5 -17q-31 0 -67 5t-67 17.5t-52 34t-21 54.5z" />
<glyph unicode="4" horiz-adv-x="1016" d="M14 455l2 61l707 903l59 -33l-29 -830l88 6q40 2 69 4q33 3 61 5l-47 -116h-174q-4 -100 -5.5 -165t-1.5 -81q0 -44 6 -70.5t18 -42t30.5 -22.5t44.5 -11l43 -6v-57q-21 3 -50 7q-25 2 -62.5 4.5t-86.5 2.5t-110 -3t-136 -11v57q26 2 46 4t37 4t33 3t34 2l14 385h-590z M121 532q58 0 119.5 1t124 3.5t124 5t118.5 5.5l24 637z" />
<glyph unicode="5" horiz-adv-x="950" d="M39 88q0 18 7 34.5t16.5 29.5t19.5 23t16 15q47 -51 111 -82.5t141 -31.5q72 0 137 25t114.5 72.5t78.5 115.5t29 155q0 143 -79 211t-235 68q-25 0 -54.5 -2t-58 -5t-55 -7t-45.5 -9l-18 19l84 672h440q39 0 65 9.5t44.5 25t30.5 34.5t22 37l53 -22q-16 -34 -27.5 -57.5 t-22 -47t-21 -50.5t-25.5 -69h-494l-55 -434q37 9 84.5 16t106.5 7q79 0 153 -18.5t131.5 -59.5t92 -106t34.5 -158q0 -82 -28 -153t-75.5 -129.5t-109.5 -104t-131 -76.5t-139.5 -47.5t-134.5 -16.5q-29 0 -64.5 5t-66.5 17.5t-51.5 35.5t-20.5 59z" />
<glyph unicode="6" horiz-adv-x="1042" d="M84 463q0 114 28.5 218t80.5 196.5t125 173.5t162 149t191 123t212 96l26 -51q-102 -48 -200 -112.5t-182 -145t-149.5 -176.5t-101.5 -207q75 53 155 77.5t179 24.5q66 0 130.5 -21.5t116 -66.5t83 -116t31.5 -170q0 -116 -41.5 -206.5t-108.5 -152t-150 -93.5t-167 -32 q-93 0 -170.5 34t-133 97.5t-86 155t-30.5 205.5zM238 483q0 -116 25.5 -199t67 -136t95 -78t109.5 -25q48 0 99 18.5t93 62t69 115.5t27 179q0 71 -20.5 127.5t-59.5 95.5t-95 59.5t-126 20.5q-78 0 -141.5 -19t-122.5 -51q-11 -42 -15.5 -82.5t-4.5 -87.5z" />
<glyph unicode="7" horiz-adv-x="883" d="M55 1069q26 94 41.5 171t26.5 151h768l24 -33q-187 -392 -341 -742t-287 -645l-152 80q77 137 163.5 289t173 309.5t169.5 314t152 302.5l-469 -17q-46 -2 -77 -7.5t-53.5 -25t-41.5 -58t-41 -105.5z" />
<glyph unicode="8" horiz-adv-x="1012" d="M80 291q0 74 28 139.5t73 123.5t102 109.5t116 96.5q-49 38 -91 75.5t-72.5 77t-48 83.5t-17.5 96q0 73 33.5 133.5t88 103.5t124.5 66.5t143 23.5q66 0 126.5 -17.5t107 -52.5t74.5 -88t28 -124q0 -59 -20.5 -113t-54 -102.5t-77 -92t-88.5 -81.5q49 -38 95 -78 t81 -85.5t56.5 -98t21.5 -113.5q0 -91 -38 -165t-101.5 -126.5t-147 -81.5t-173.5 -29q-75 0 -142 21t-117.5 62t-80 100.5t-29.5 136.5zM219 340q0 -65 19.5 -119t55.5 -93t87 -61t113 -22q51 0 99 19t85 53.5t59.5 82.5t22.5 107q0 70 -27 127t-67.5 103.5t-86.5 83 t-83 65.5l-43 33q-45 -33 -87 -72.5t-74.5 -86.5t-52.5 -101.5t-20 -118.5zM309 1155q0 -56 28.5 -107.5t70.5 -96.5t89 -82t83 -64l24 -19q32 27 61.5 59t52 68t35.5 76.5t13 85.5q0 56 -19 105.5t-52 86t-78.5 58t-98.5 21.5q-41 0 -78.5 -12.5t-66.5 -36.5t-46.5 -59.5 t-17.5 -82.5z" />
<glyph unicode="9" horiz-adv-x="1038" d="M82 956q0 116 40 203t105.5 144.5t147.5 86.5t166 29q93 0 170 -34t132.5 -97.5t86.5 -154.5t31 -205q0 -171 -63 -319t-171.5 -269.5t-254 -214.5t-310.5 -154l-27 52q105 48 205 115t185.5 150.5t150 183.5t98.5 214q-74 -54 -155.5 -79t-180.5 -25q-65 0 -129 21.5 t-114.5 66.5t-81.5 116t-31 170zM229 991q0 -71 20.5 -127.5t59 -95.5t93.5 -59.5t124 -20.5q82 0 145 19t122 53q8 37 11 72t3 75q0 116 -25.5 199t-67 136.5t-95 78.5t-109.5 25q-48 0 -98 -18.5t-90.5 -60t-66.5 -109.5t-26 -167z" />
<glyph unicode=":" horiz-adv-x="451" d="M106 86q0 23 7 44t20.5 36.5t33 25t44.5 9.5q40 0 68 -27t28 -80q0 -23 -7 -43.5t-20 -36.5t-32 -25t-43 -9q-42 0 -70.5 26t-28.5 80zM133 782q0 23 7 44t20.5 36.5t33 25t44.5 9.5q40 0 68 -27t28 -79q0 -23 -7 -44t-20 -37t-32 -25t-44 -9q-42 0 -70 26t-28 80z" />
<glyph unicode=";" horiz-adv-x="485" d="M92 -270q26 18 51 40t44 47.5t30.5 54t11.5 60.5q0 33 -10.5 59t-27 45.5t-38 33.5t-42.5 22q0 18 6.5 36.5t20 34.5t34 26t49.5 10q24 0 47 -9t41.5 -28.5t29.5 -50.5t11 -74q0 -37 -10.5 -80.5t-36.5 -89.5t-69.5 -92t-110.5 -88zM141 782q0 23 7 44t20.5 36.5t33 25 t44.5 9.5q40 0 68 -27t28 -79q0 -23 -7 -44t-20 -37t-32 -25t-43 -9q-42 0 -70.5 26t-28.5 80z" />
<glyph unicode="&#x3c;" horiz-adv-x="1120" d="M70 610v84l876 445l45 -88l-784 -400l784 -397l-45 -88z" />
<glyph unicode="=" horiz-adv-x="1290" d="M176 455v98h942v-98h-942zM176 743v99h942v-99h-942z" />
<glyph unicode="&#x3e;" horiz-adv-x="1122" d="M135 254l785 397l-785 400l45 88l877 -445v-84l-877 -444z" />
<glyph unicode="?" horiz-adv-x="756" d="M102 1190q0 51 25.5 91.5t67 69.5t93.5 44.5t105 15.5q72 0 127.5 -23.5t93 -63.5t57 -92t19.5 -110q0 -59 -18 -106.5t-48 -85.5t-67.5 -69t-77.5 -58t-77.5 -51.5t-67.5 -49.5t-48 -53t-18 -61q0 -47 30.5 -67.5t80.5 -20.5q22 0 47 5.5t51 20.5l10 -12 q-5 -24 -14.5 -48.5t-25.5 -44t-38.5 -32t-52.5 -12.5q-63 0 -103 47t-40 137q0 61 19 112t53.5 97t82 90.5t105.5 93.5q26 22 50 44.5t42.5 48.5t29.5 57t11 70q0 33 -10 64.5t-32 56.5t-56.5 40t-83.5 15t-85.5 -17.5t-61 -46.5t-36.5 -67t-12 -78q0 -11 1 -21.5t3 -21.5 q-3 -1 -6 -1q-4 -1 -14 -1q-14 0 -33 3.5t-36.5 13.5t-29.5 28.5t-12 48.5zM227 86q0 23 7 44t20.5 36.5t33 25t44.5 9.5q40 0 68 -27t28 -80q0 -23 -7 -43.5t-20 -36.5t-32 -25t-43 -9q-42 0 -70.5 26t-28.5 80z" />
<glyph unicode="@" horiz-adv-x="1536" d="M86 369q0 111 27 211.5t77 187t120.5 156t158 119t189 76t214.5 26.5q135 0 244 -39t186.5 -110.5t119.5 -173t42 -226.5q0 -108 -40 -206.5t-108.5 -174.5t-160.5 -121t-197 -45l-30 31q3 21 7.5 61.5t9 89t8 99.5t5.5 92l-14 4q-34 -68 -79.5 -130.5t-97.5 -113 t-107.5 -85.5t-108.5 -48l-90 31q-2 22 -3 42t-1 42q0 90 17.5 175t49 159.5t74 136t92.5 106t105.5 69t111.5 24.5q28 0 51 -1.5t45 -5t43.5 -8t45.5 -10.5q-9 -89 -14.5 -171.5t-8.5 -164t-4.5 -163.5t-1.5 -169q64 13 122.5 53t102.5 100t70 137t26 165q0 110 -36 198 t-102 149.5t-158.5 94.5t-206.5 33q-96 0 -183 -23.5t-161.5 -67t-135 -104.5t-103.5 -136.5t-66 -163.5t-23 -185q0 -141 44.5 -257t126 -198t196.5 -127t255 -45q58 0 113.5 7.5t110 23t111 39.5t118.5 57l25 -59q-144 -77 -273 -114t-256 -37q-148 0 -275 50.5t-220 142 t-146 217.5t-53 278zM594 218q0 -23 2 -48q24 3 59 20t73.5 47.5t77.5 73t71 96t53.5 116.5t25.5 134l2 52q-24 8 -55 14t-59 6q-63 0 -110 -34t-78 -95.5t-46.5 -147t-15.5 -188.5v-46z" />
<glyph unicode="A" horiz-adv-x="1266" d="M-55 0l2 57q29 3 55 6l46 4q23 2 38 3q41 86 85.5 188t91 214t93 232t91.5 241t86.5 241t78.5 233l80 23l338 -1094q37 -122 81 -196.5t110 -85.5l55 -9l-2 -57q-51 6 -110.5 9t-121.5 3q-66 0 -129 -3t-120 -9l2 57l141 13l-115 415h-39q-27 0 -71 -0.5t-99.5 -2.5 t-119.5 -6t-132 -11l-55 -154q-18 -48 -31.5 -91t-13.5 -75t17 -52.5t59 -26.5l59 -9l-2 -57q-54 6 -103.5 10t-103.5 4t-112 -4t-129 -10zM393 555h408l-168 614h-29z" />
<glyph unicode="B" horiz-adv-x="1128" d="M59 0l2 57q26 2 46 4t37 4t33 3t34 2q10 303 18 543q3 102 6.5 201t6.5 177t4.5 128t1.5 55q0 46 -6 74.5t-19 44.5t-32 23t-44 11l-43 6l2 58q24 -4 54 -8q26 -3 60 -5t75 -2q43 0 75.5 4t65.5 8.5t72 8.5t96 4q92 0 157 -25t105.5 -66t59 -94t18.5 -110q0 -62 -19 -115 t-49.5 -97.5t-68.5 -80t-76 -60.5q83 -22 143 -57t99 -81t57.5 -101.5t18.5 -118.5q0 -77 -27.5 -150t-83 -130t-138 -92t-192.5 -35q-40 0 -80 3.5t-80 8t-81 8.5t-82 4q-48 0 -102.5 -3t-123.5 -9zM371 209q0 -42 9 -72.5t31.5 -51t61 -30.5t98.5 -10q16 0 46 3t65 13.5 t71 31.5t65.5 57t48 89.5t18.5 129.5q0 74 -22.5 138t-70 111t-121 74t-175.5 27q-54 0 -108 -6q-4 -132 -9 -238q-2 -45 -3 -90t-2.5 -81.5t-2 -62t-0.5 -32.5zM389 784h57q51 0 96.5 -3.5t87.5 -8.5q34 24 62.5 55t49.5 67.5t32.5 78.5t11.5 88q0 66 -18 117t-50 86 t-75 53t-94 18q-29 0 -59 -0.5t-70 -5.5q-3 -29 -6.5 -72.5t-7.5 -94.5t-7 -105.5t-4 -104.5z" />
<glyph unicode="C" horiz-adv-x="1411" d="M92 666q0 110 27 208.5t77.5 182t123 151t163 114.5t197 72t225.5 25q151 0 263 -17.5t198 -39.5l-29 -334h-61v16q0 51 -12.5 104.5t-50.5 97.5t-108.5 72t-186.5 28q-125 0 -240.5 -41t-204 -120.5t-141.5 -196t-53 -267.5q0 -113 28 -206t76 -167t112.5 -129 t138 -91.5t152 -54.5t154.5 -18q48 0 88 3t80.5 10.5t84.5 20t99 30.5l19 -58q-53 -26 -113.5 -43t-119.5 -27.5t-113.5 -15t-96.5 -4.5q-109 0 -209 23.5t-186 66.5t-156.5 105t-120.5 139.5t-77 168t-27 192.5z" />
<glyph unicode="D" horiz-adv-x="1567" d="M63 0v57q26 2 46 4t37 4t33 3t34 2q10 293 18 530q3 101 6.5 199t6.5 178t4.5 133.5t1.5 65.5q0 46 -6 74t-18 43.5t-30.5 22.5t-43.5 11l-43 6v58q29 -4 63 -8q29 -3 67.5 -5t82.5 -2q55 0 110.5 4t113.5 8.5t118.5 8.5t126.5 4q153 0 280 -50t217.5 -142t140.5 -221 t50 -286q0 -72 -15.5 -152.5t-51 -160t-94 -152t-143.5 -128t-200 -88.5t-264 -33q-46 0 -93.5 3.5t-96 8t-98.5 8.5t-101 4q-48 0 -112.5 -1.5t-146.5 -10.5zM375 221q0 -48 10 -80.5t39 -52t81.5 -27.5t137.5 -8q51 0 118.5 8t140 31t142.5 65.5t125 112.5t89 170.5 t34 239.5q0 74 -11.5 150.5t-39.5 148.5t-75.5 135.5t-119 110.5t-169.5 74.5t-228 27.5q-34 0 -68 -0.5t-65 -2t-58 -3.5t-46 -4q-11 -293 -19 -529q-3 -101 -6 -198.5t-6 -176t-4.5 -131t-1.5 -61.5z" />
<glyph unicode="E" horiz-adv-x="1061" d="M61 0l2 57q26 2 46 4t37 4t33 3t34 2q10 293 18 530q3 101 6.5 199.5t6.5 178.5t4.5 134t1.5 66q0 45 -5.5 72.5t-17.5 43t-31 22.5t-46 11l-41 6v58q28 -4 71 -8q37 -3 93 -5t137 -2h241q40 0 78 0.5t77 2t81 4.5t90 8l-31 -338h-61q1 20 1.5 31.5t0.5 17.5v10v4 q0 33 -8.5 63t-33 53.5t-68 39t-113.5 20.5l-246 17q-8 -82 -12.5 -166.5t-6.5 -155.5l-7 -225l425 22l-10 -127q-60 8 -121.5 14t-117.5 10t-102.5 6.5t-76.5 4.5q-4 -120 -8 -219q-2 -42 -3 -84t-2.5 -77.5t-2 -60.5t-0.5 -34q0 -52 14 -83t42.5 -47t70.5 -21t98 -5 q80 0 136.5 10t96 37t64.5 74.5t41 122.5h63q-4 -27 -12 -68t-19.5 -86.5t-27 -90.5t-33.5 -80q-106 3 -202.5 8.5t-176 10.5t-138.5 9t-89 4q-51 0 -108 -2t-132 -10z" />
<glyph unicode="F" horiz-adv-x="991" d="M63 0v57q26 2 46 4t37 4t33 3t34 2q7 203 12 358t9 270t7 195t4.5 132.5t2.5 82t2 44.5v20v6q0 45 -5.5 72.5t-17.5 43t-31 22.5t-46 11l-41 6v58q28 -4 71 -8q37 -3 93 -5t137 -2h241q40 0 78 0.5t77 2t81 4.5t90 8l-31 -338h-61q2 19 2 31v26q0 33 -7 63.5t-30 55 t-67 41.5t-117 22l-248 17q-8 -82 -12 -166.5t-7 -155.5l-8 -244l428 23l-10 -127q-60 7 -122 13.5t-118.5 11t-103.5 7t-76 3.5q-4 -106 -7 -197q-2 -39 -3 -78t-2 -73t-1.5 -60.5t-0.5 -40.5q0 -49 7 -79t20.5 -47t34 -24.5t46.5 -11.5l43 -6v-57q-25 3 -58 7 q-28 2 -67.5 4.5t-89.5 2.5q-51 0 -112 -3t-136 -11z" />
<glyph unicode="G" horiz-adv-x="1536" d="M94 684q0 169 61.5 305t169.5 231.5t256 147t322 51.5q63 0 126 -5t121.5 -13t111.5 -18t96 -21l-29 -334h-61v16q0 48 -13 101t-51 97.5t-109 74t-186 29.5q-138 0 -253.5 -46t-199.5 -131.5t-130.5 -208t-46.5 -276.5q0 -143 49 -259.5t134.5 -199t199.5 -127.5 t245 -45q82 0 145 13.5t117 42.5q4 97 6.5 157t4 95t2 50t0.5 21q0 46 -6 74t-18 44t-31 23t-44 11l-43 6v57q22 -4 53 -7q26 -3 63.5 -5t88.5 -2t112.5 3t135.5 11v-57q-26 -2 -46 -4t-36.5 -3.5t-32.5 -2.5t-35 -2l-18 -523q-44 -16 -99.5 -31t-116 -27t-123 -19 t-120.5 -7q-103 0 -200 21.5t-183 63t-157.5 102.5t-123 140t-80 176t-28.5 210z" />
<glyph unicode="H" horiz-adv-x="1636" d="M61 0v57q26 2 46 4t37 4t33 3t34 2q5 133 9.5 263t8.5 249t8 222t7 182t4.5 130t1.5 66q0 43 -6.5 70t-19 42.5t-31.5 22t-43 10.5l-44 6v58q22 -4 53 -8q26 -3 63.5 -5t88.5 -2t112.5 3.5t135.5 11.5v-58q-26 -2 -46 -4t-36.5 -3.5t-32.5 -2.5t-34 -2l-21 -559h868 q3 84 6 155.5t5 126.5t3 90.5t1 47.5q0 43 -6.5 70t-19.5 42.5t-31.5 22t-43.5 10.5l-43 6v58q22 -4 53 -8q26 -3 63.5 -5t88.5 -2t112.5 3.5t135.5 11.5v-58q-26 -2 -46 -4t-36.5 -3.5t-32.5 -2.5t-34 -2q-5 -133 -9.5 -263.5t-9.5 -249t-8 -222t-5.5 -182.5t-4.5 -130 t-2 -65q0 -44 6.5 -71t19 -42.5t31 -22.5t43.5 -10l43 -6v-57q-22 3 -53 7q-26 2 -64 4.5t-88 2.5q-51 0 -112 -3t-136 -11v57q26 2 46 4t37 4t33 3t34 2q5 165 10.5 324t11.5 298q-5 0 -46 -0.5t-108 -1.5t-154 -3t-182 -5.5t-193 -9t-187 -13.5q-4 -90 -6.5 -167.5 t-4 -136.5t-2.5 -96.5t-1 -49.5q0 -44 6.5 -71t19 -42.5t31.5 -22.5t43 -10l43 -6v-57q-22 3 -53 7q-26 2 -64 4.5t-88 2.5q-51 0 -112 -3t-136 -11z" />
<glyph unicode="I" horiz-adv-x="614" d="M61 0v57q26 2 46 4t37 4t33 3t34 2q5 133 9.5 263t8.5 249t8 222t7 182t4.5 130t1.5 66q0 43 -6.5 70t-19 42.5t-31.5 22t-43 10.5l-44 6v58q22 -4 53 -8q26 -3 63.5 -5t88.5 -2t112.5 3.5t135.5 11.5v-58q-26 -2 -46 -4t-36.5 -3.5t-32.5 -2.5t-34 -2 q-5 -133 -9.5 -263.5t-9 -249t-8 -222t-6.5 -182.5t-4.5 -130t-1.5 -65q0 -44 6.5 -71t19 -42.5t31.5 -22.5t43 -10l43 -6v-57q-22 3 -53 7q-26 2 -64 4.5t-88 2.5q-51 0 -112 -3t-136 -11z" />
<glyph unicode="J" horiz-adv-x="592" d="M-78 -440q45 28 82.5 54.5t67.5 59.5t53.5 76t40 103.5t27 141.5t14.5 191q4 104 8 214t7.5 216t7 202t5.5 172t3.5 126.5t1.5 65.5q0 43 -6 70t-18 42.5t-31 22t-44 10.5l-43 6v58q22 -4 53 -8q26 -3 63.5 -5t88.5 -2t112.5 3.5t135.5 11.5v-58q-26 -2 -46 -4 t-36.5 -3.5t-32.5 -2.5t-35 -2l-41 -1135q-5 -135 -29 -246t-73 -197.5t-125 -148t-184 -96.5z" />
<glyph unicode="K" horiz-adv-x="1341" d="M61 0v57q26 2 46 4t37 4t33 3t34 2q5 133 9.5 263t8.5 249t8 222t7 182t4.5 130t1.5 66q0 43 -6.5 70t-19 42.5t-31.5 22t-43 10.5l-44 6v58q22 -4 53 -8q26 -3 63.5 -5t88.5 -2t112.5 3.5t135.5 11.5v-58q-26 -2 -46 -4t-36.5 -3.5t-32.5 -2.5t-34 -2 q-5 -133 -9.5 -263.5t-9 -249t-8 -222t-6.5 -182.5t-4.5 -130t-1.5 -65q0 -44 6.5 -71t19 -42.5t31.5 -22.5t43 -10l43 -6v-57q-22 3 -53 7q-26 2 -64 4.5t-88 2.5q-51 0 -112 -3t-136 -11zM432 733q84 82 161 157t145.5 146.5t128 140.5t110.5 138q-17 2 -37 5t-37 6 q-20 4 -41 7v58q44 -7 97 -11t112 -4q53 0 109.5 3.5t113.5 11.5v-58l-32 -4q-39 -5 -75.5 -21t-76.5 -44.5t-85 -68.5t-101 -91l-340 -313q21 -29 53.5 -75.5t74.5 -103.5t90.5 -120.5t100.5 -125.5t106 -118.5t106.5 -99t102 -68t91.5 -25.5q24 0 41 6v-45 q-28 -17 -56.5 -22.5t-56.5 -5.5q-61 0 -122.5 23.5t-121.5 63.5t-117.5 93t-111 113t-102.5 123.5t-91.5 123t-77.5 112.5t-61 93z" />
<glyph unicode="L" horiz-adv-x="1038" d="M61 0l2 57q26 2 46 4t37 4t33 3t34 2q5 133 9.5 263t9 249t7.5 222t5.5 182t4 130t1.5 66q0 43 -6 70t-18 42.5t-30.5 22t-43.5 10.5l-43 6v58q22 -4 52 -8q26 -3 63.5 -5t88.5 -2t112.5 3.5t135.5 11.5v-58q-26 -2 -45.5 -4t-36.5 -3.5t-33 -2.5t-34 -2 q-5 -133 -9.5 -263.5t-9 -249t-8 -222t-6.5 -182.5t-4.5 -130t-1.5 -65q0 -48 17 -77t49 -44.5t77 -21t102 -5.5q80 0 136.5 13t96 43t64.5 80t41 125h64q-4 -27 -12 -70.5t-19.5 -92t-27 -96.5t-33.5 -83q-106 3 -206 8.5t-183.5 10.5t-145.5 9t-92 4q-51 0 -108 -2 t-132 -10z" />
<glyph unicode="M" horiz-adv-x="1769" d="M16 0v57q26 2 46 4t37 4t33 3t34 2l145 1316l95 33l483 -1116h14l527 1094l100 20l29 -1165q1 -59 7 -94t18 -55t30.5 -28t46.5 -12l43 -6v-57q-22 3 -53 7q-26 2 -64 4.5t-88 2.5q-51 0 -112 -3t-136 -11v57q26 2 46 4t37 4t33 3t34 2l-4 1026h-19l-510 -1041h-47 l-448 1045h-17l-61 -770q-2 -15 -3 -34.5t-2.5 -39t-2 -36.5t-0.5 -27q0 -39 7 -62.5t19.5 -37.5t31 -20.5t42.5 -9.5l43 -6v-57q-16 3 -42 7q-22 2 -55 4.5t-79 2.5t-104.5 -3t-133.5 -11z" />
<glyph unicode="N" horiz-adv-x="1616" d="M51 0v57q26 2 46 4t37 4t33 3t34 2l26 772q3 71 3.5 135t0.5 123q0 94 -2.5 167.5t-5.5 123.5l82 30l981 -1178q3 87 6.5 187t6.5 199.5t6 192.5t5 168.5t3.5 126t1.5 65.5q0 43 -6 70t-18.5 42.5t-31 22t-42.5 10.5l-43 6v58q14 -4 38 -8q20 -3 51 -5t76 -2t102.5 3.5 t131.5 11.5v-58q-26 -2 -46 -4t-36.5 -3.5t-32.5 -2.5t-35 -2l-22 -643q-1 -27 -2 -72t-2.5 -94.5t-2.5 -98.5t-1 -83v-84q0 -40 0.5 -79t2 -79.5t3.5 -87.5l-86 -29l-981 1164q-2 -85 -4.5 -182.5t-5 -196t-5 -191t-4.5 -167t-3 -125t-1 -64.5q0 -44 6 -70.5t18 -42 t30.5 -22.5t44.5 -11l43 -6v-57q-15 3 -39 7q-20 2 -51 4.5t-76 2.5t-102 -3t-132 -11z" />
<glyph unicode="O" d="M92 690q0 157 54 291t152 231t235.5 152t304.5 55q102 0 189 -27.5t158 -76t126 -114.5t92.5 -142.5t56.5 -161.5t19 -170q0 -167 -54 -305.5t-147 -239t-216 -156t-261 -55.5q-119 0 -217.5 28.5t-177.5 79t-138 119t-98 148.5t-58.5 167.5t-19.5 176.5zM276 711 q0 -130 35.5 -250t103 -212.5t165.5 -148t223 -55.5q120 0 211.5 48t152.5 131.5t92 195t31 239.5q0 144 -36.5 269.5t-102.5 218.5t-157.5 146t-200.5 53q-57 0 -117 -12.5t-117.5 -42t-109 -77.5t-90 -118.5t-61 -165.5t-22.5 -219z" />
<glyph unicode="P" horiz-adv-x="1090" d="M66 0v57q26 2 45.5 4t36.5 4t33 3t34 2q3 133 7.5 263t8.5 249t8 222t6.5 182t4.5 130t2 66q0 43 -6 70t-18 42.5t-30.5 22t-43.5 10.5l-43 6v58q28 -4 60 -8q27 -3 61.5 -5t70.5 -2q34 0 65.5 4t66.5 8.5t76 8.5t95 4q114 0 197 -31.5t136.5 -84.5t79 -123t25.5 -148 q0 -91 -35.5 -169t-96 -135.5t-142 -90.5t-172.5 -33q-31 0 -55.5 2.5t-42.5 7.5l2 63q33 -6 67 -6q70 0 128 25.5t100 71t65 108.5t23 137q0 160 -89.5 250t-269.5 90q-34 0 -61 -2.5t-53 -7.5q-4 -134 -8 -265t-8.5 -250.5t-8 -222.5t-6.5 -182.5t-4.5 -130.5t-2.5 -65 q0 -44 7 -70.5t19.5 -42t31.5 -22.5t43 -11l43 -6v-57q-22 3 -53 7q-26 2 -64 4.5t-88 2.5q-51 0 -112 -3t-135 -11z" />
<glyph unicode="Q" d="M92 690q0 157 54 291t152 231t235.5 152t304.5 55q102 0 189 -27.5t158 -76t126 -114.5t92.5 -142.5t56.5 -161.5t19 -170q0 -167 -54 -305.5t-147 -239t-216 -156t-261 -55.5q-119 0 -217.5 28.5t-177.5 79t-138 119t-98 148.5t-58.5 167.5t-19.5 176.5zM276 711 q0 -130 35.5 -250t103 -212.5t165.5 -148t223 -55.5q120 0 211.5 48t152.5 131.5t92 195t31 239.5q0 144 -36.5 269.5t-102.5 218.5t-157.5 146t-200.5 53q-57 0 -117 -12.5t-117.5 -42t-109 -77.5t-90 -118.5t-61 -165.5t-22.5 -219zM342 -96q32 17 66.5 28t74.5 11 q27 0 61.5 -4.5t76.5 -16t91.5 -32t106.5 -52.5q103 -57 169 -98.5t111 -67.5t77.5 -38.5t70.5 -12.5q21 0 39.5 2t38 11t40 26t46.5 47l39 -33q-18 -25 -39.5 -48.5t-52 -42t-71.5 -29.5t-97 -11q-58 0 -109.5 11t-97 28.5t-84.5 38t-70 39.5q-71 44 -122 84.5t-91.5 71 t-75 49t-71.5 18.5q-56 0 -109 -26z" />
<glyph unicode="R" horiz-adv-x="1239" d="M61 0v57q26 2 46 4t37 4t33 3t34 2q5 133 9.5 263t8.5 249t8 222t7 182t4.5 130t1.5 66q0 43 -6 70t-18.5 42.5t-31.5 22t-44 10.5l-44 6v58q28 -4 60 -8q27 -3 61.5 -5t71.5 -2q34 0 65 4t64 8.5t70 8.5t82 4q120 0 205 -29.5t139 -79t79 -113t25 -130.5 q0 -92 -33.5 -158t-82 -111.5t-103 -73t-96.5 -40.5q76 -137 155 -258t155.5 -212t148 -143.5t133.5 -52.5l-2 -35q-38 -6 -74 -6q-82 2 -157.5 39.5t-143.5 96.5t-127.5 133.5t-109 149.5t-87.5 143t-63 116q-26 -2 -54.5 -3t-60.5 -1h-41q-1 -30 -2.5 -69.5t-3 -81.5 t-3 -85t-2.5 -80t-2 -65.5t-1 -42.5q0 -43 6 -69.5t18 -42.5t31 -23t45 -11l43 -6v-57q-22 3 -53 7q-26 2 -64 4.5t-88 2.5q-51 0 -112 -3t-136 -11zM387 702h57q125 0 207 29.5t130 77.5t67.5 110t19.5 128q0 32 -6.5 65.5t-22 65.5t-41 60.5t-62 50t-86 34t-113.5 12.5 q-36 0 -65 -2t-64 -8z" />
<glyph unicode="S" horiz-adv-x="1008" d="M80 27l24 317h62v-35q0 -42 10 -88.5t40.5 -85.5t87 -64.5t149.5 -25.5q60 0 112.5 18.5t91.5 53.5t61.5 85.5t22.5 114.5q0 61 -28.5 111.5t-72 93.5t-94.5 81t-97 75q-44 34 -97 74.5t-99.5 89.5t-78 108t-31.5 131q0 36 7 75.5t24.5 77t46 71t71.5 59t101 40.5t135 15 q98 0 189 -15.5t157 -35.5l-22 -301h-57v27q0 38 -8 82.5t-35 82t-78.5 62.5t-138.5 25q-52 0 -94.5 -14.5t-72.5 -41t-46.5 -64.5t-16.5 -85q0 -62 24.5 -109.5t63 -85.5t85.5 -70.5t91 -64.5q66 -48 126.5 -95.5t106.5 -100t73.5 -112.5t27.5 -132q0 -84 -38 -157 t-101.5 -127t-145.5 -85t-169 -31q-106 0 -202 17t-167 39z" />
<glyph unicode="T" horiz-adv-x="1202" d="M35 1067l41 336q114 -9 195.5 -10.5t144.5 -1.5q136 0 259.5 0.5t226.5 2t182.5 4t127.5 7.5l-30 -338h-62q0 11 1 28.5t1 28.5q0 33 -7 64t-30 55.5t-66.5 41t-117.5 20.5l-196 10q-5 -132 -9.5 -261t-8 -247t-7 -221t-5.5 -182t-3.5 -130t-1.5 -65q0 -44 6.5 -71 t19 -42.5t30.5 -22.5t42 -10l43 -6v-57q-22 3 -53 7q-26 2 -64 4.5t-88 2.5q-51 0 -112 -3t-136 -11v57q26 2 46 4t37 4t33 3t34 2l43 1251q-57 2 -103.5 3t-74.5 1q-56 0 -99 -8.5t-76.5 -35.5t-58.5 -78t-45 -136h-59z" />
<glyph unicode="U" horiz-adv-x="1501" d="M78 1333v58q22 -4 53 -8q26 -3 63.5 -5t88.5 -2t112 3.5t135 11.5v-58q-26 -2 -45.5 -4t-36.5 -3.5t-33 -2.5t-34 -2q-7 -177 -12 -305.5t-8 -219t-5 -148.5t-2.5 -93.5t-1 -54t-0.5 -29.5q0 -206 98.5 -310t309.5 -104q205 0 313 118t117 360q11 282 16.5 442.5 t5.5 204.5q0 43 -6 70t-18 42.5t-30.5 22t-43.5 10.5l-43 6v58q19 -4 47 -8q24 -3 59.5 -5t84.5 -2q48 0 107.5 3.5t133.5 11.5v-58q-26 -2 -45.5 -4t-36.5 -3.5t-33 -2.5t-34 -2l-68 -801q-12 -133 -50 -235.5t-104.5 -172t-163 -105.5t-223.5 -36q-125 0 -227 26 t-174 79.5t-111.5 134t-39.5 190.5q0 21 1 63.5t3 98t4.5 120t5.5 129.5t5.5 127t4.5 112.5t3 85t1 45.5q0 43 -6.5 70t-19 42.5t-31.5 22t-43 10.5z" />
<glyph unicode="V" horiz-adv-x="1350" d="M-12 1333v58q26 -4 60 -8q29 -3 71 -5t96 -2t118 3.5t138 11.5v-58q-26 -2 -46 -4t-36.5 -3.5t-32.5 -2.5t-34 -2l370 -1135h13l356 953q20 51 29.5 84t9.5 55q0 25 -14.5 34.5t-43.5 14.5l-43 6v58q16 -4 41 -8q21 -3 54 -5t80 -2q46 0 104.5 3.5t132.5 11.5v-58 q-26 -2 -46 -4t-36.5 -3.5t-32.5 -2.5t-34 -2l-566 -1335l-80 -17l-409 1170q-21 59 -40.5 94.5t-40.5 55t-44.5 27t-50.5 11.5z" />
<glyph unicode="W" horiz-adv-x="1905" d="M-2 1333v58q26 -4 60 -8q29 -3 71 -5t96 -2t118 3.5t138 11.5v-58q-26 -2 -45.5 -4t-36.5 -3.5t-33 -2.5t-34 -2l289 -1065h12l340 963l59 18l285 -981h12l283 881q15 49 22.5 82t7.5 55q0 26 -14 37t-45 16l-43 6v58q16 -4 41 -8q21 -3 53.5 -5t79.5 -2t105 3.5 t133 11.5v-58q-26 -2 -46 -4t-37 -3.5t-33 -2.5t-34 -2l-483 -1335l-80 -17l-278 963l-336 -946l-80 -17l-328 1170q-17 60 -39.5 95t-48 54.5t-53.5 27t-56 11.5z" />
<glyph unicode="X" horiz-adv-x="1186" d="M-33 0v57q26 2 46 4t37 4t33 3t34 2l412 630l-236 445q-29 55 -53.5 89t-47.5 53.5t-46.5 27.5t-51.5 12l-43 6v58q23 -4 56 -8q28 -3 68 -5t93 -2t115.5 3.5t136.5 11.5v-58q-26 -2 -45.5 -4t-36.5 -3.5t-33 -2.5t-34 -2l256 -473l190 291q28 43 39.5 74t11.5 53 q0 29 -18.5 42.5t-50.5 18.5l-43 6v58q18 -4 45 -8q23 -3 58 -5t83 -2t107.5 3.5t134.5 11.5v-58q-26 -2 -46 -4t-37 -3.5t-33 -2.5t-34 -2l-363 -554l294 -542q25 -48 46 -78t41 -47.5t41.5 -25.5t47.5 -11l43 -6v-57q-23 3 -56 7q-28 2 -68.5 4.5t-92.5 2.5 q-53 0 -115.5 -3t-136.5 -11v57q26 2 45.5 4t36.5 4t33 3t34 2l-291 547l-239 -365q-28 -43 -39.5 -74t-11.5 -53q0 -29 18.5 -43t50.5 -19l43 -6v-57q-18 3 -45 7q-23 2 -58 4.5t-83 2.5t-107.5 -3t-134.5 -11z" />
<glyph unicode="Y" horiz-adv-x="1255" d="M-16 1331v58q25 -4 58 -8q29 -3 69.5 -5t93.5 -2q52 0 114.5 3.5t137.5 11.5v-58q-26 -2 -46 -4t-37 -3.5t-33 -2.5t-34 -2l352 -623h17l256 441q49 88 49 129q0 28 -18.5 41t-49.5 18l-43 6v58q19 -4 47 -8q24 -3 59.5 -5t84.5 -2q48 0 108.5 3.5t135.5 11.5v-58 q-26 -2 -46 -4t-37 -3.5t-33 -2.5t-34 -2l-446 -729q-5 -157 -8 -245.5t-3 -119.5q0 -49 5.5 -79t17.5 -47t31 -24.5t45 -11.5l43 -6v-57q-22 3 -53 7q-26 2 -64 4.5t-88 2.5q-51 0 -112.5 -3t-135.5 -11v57q26 2 46 4t36.5 4t32.5 3t35 2l12 536l-307 531q-31 54 -58 88.5 t-53 55.5t-51.5 30.5t-52.5 13.5z" />
<glyph unicode="Z" horiz-adv-x="1290" d="M47 0l2 61l965 1272l-576 -39q-63 -5 -103 -16t-68.5 -34.5t-50.5 -62.5t-50 -100h-64l68 310h1024l-2 -66l-944 -1268l545 27q63 3 117.5 18t100 47t82 83.5t64.5 127.5h68l-78 -360h-1100z" />
<glyph unicode="[" horiz-adv-x="541" d="M131 -356l64 1829h350l-2 -70h-228l-59 -1690h227l-2 -69h-350z" />
<glyph unicode="\" horiz-adv-x="1135" d="M70 1473h110l881 -1829h-111z" />
<glyph unicode="]" horiz-adv-x="541" d="M-6 -356l2 69h227l60 1690h-228l2 70h351l-64 -1829h-350z" />
<glyph unicode="^" horiz-adv-x="745" d="M70 868l301 471h71l303 -471h-114l-223 351l-224 -351h-114z" />
<glyph unicode="_" horiz-adv-x="1638" d="M190 -401l5 98h1187l-4 -98h-1188z" />
<glyph unicode="`" horiz-adv-x="682" d="M266 1444q34 25 63.5 49.5t55.5 50.5l270 -373l-49 -38z" />
<glyph unicode="a" horiz-adv-x="924" d="M55 156q0 59 30.5 102t79 74t108.5 51t120 32t113.5 17.5t87.5 7.5q5 45 6.5 87t1.5 79q0 47 -7 90t-27 76t-55.5 52.5t-92.5 19.5q-40 0 -74 -15t-58.5 -40.5t-38 -60t-13.5 -73.5q0 -15 2.5 -30.5t7.5 -32.5q-11 -13 -30.5 -20t-39.5 -7q-15 0 -29 4.5t-25 14.5 t-17.5 26t-6.5 39q0 56 38.5 102t97 78.5t127.5 50t131 17.5q118 0 184.5 -54t66.5 -179q0 -54 -4.5 -118.5t-10.5 -127.5t-10.5 -119.5t-4.5 -93.5q0 -63 15.5 -98t47.5 -35q19 0 38 11.5t36 27t30 32t21 25.5l37 -31q-35 -49 -65 -79.5t-57 -48t-52 -23.5t-49 -6 q-37 0 -64 14.5t-44.5 38.5t-27 55t-10.5 64q-20 -33 -47 -64t-63 -55t-82 -38.5t-103 -14.5q-68 0 -111 17.5t-67 44t-32.5 57.5t-8.5 57zM203 176q0 -38 12.5 -61.5t31.5 -37.5t40 -19t39 -5q64 0 109.5 28.5t76 75.5t49 107.5t27.5 124.5q-34 -3 -76 -7t-84.5 -12.5 t-83 -23t-72 -37.5t-50.5 -55.5t-19 -77.5z" />
<glyph unicode="b" horiz-adv-x="1016" d="M-6 1454v47q44 2 82 5.5t77.5 9.5t83 15t99.5 23q-3 -28 -7.5 -77.5t-10 -114t-11.5 -141t-11.5 -159t-10.5 -169t-9 -170.5q58 48 108 81t94.5 53.5t82.5 30t72 9.5q76 0 133 -29.5t94.5 -81.5t56.5 -123t19 -153q0 -121 -43.5 -219t-113.5 -167t-157.5 -106.5 t-175.5 -37.5q-42 0 -89.5 7t-93 19.5t-86 30t-68.5 39.5q7 91 15 192t15.5 206t14 211t11.5 207.5t8 195.5t3 176q0 59 -5.5 96t-21.5 58t-44.5 28.5t-73.5 7.5h-37zM258 133q45 -37 110.5 -61.5t143.5 -24.5q55 0 105 29t87.5 83t59.5 130.5t22 171.5q0 159 -57 246.5 t-170 87.5q-38 0 -80 -15t-80.5 -37t-71.5 -47.5t-53 -46.5q-4 -62 -7 -135t-5 -144t-3 -133.5t-1 -103.5z" />
<glyph unicode="c" horiz-adv-x="918" d="M70 381q0 103 35.5 197t101.5 164.5t160 112.5t211 42q61 0 111 -13t86 -34t55.5 -49t19.5 -58q0 -22 -9.5 -40t-25.5 -30.5t-37.5 -20.5t-44.5 -9q-3 31 -16.5 65t-41 62t-70 46t-103.5 18q-53 0 -105.5 -22.5t-94.5 -69t-68.5 -117.5t-26.5 -168q0 -89 23 -156 t65.5 -113t101.5 -69t131 -23q27 0 59 3.5t68 14.5t76 31t84 54l29 -39q-109 -94 -212 -137t-200 -43q-88 0 -155.5 31.5t-113.5 85.5t-69.5 127t-23.5 157z" />
<glyph unicode="d" horiz-adv-x="1063" d="M70 365q0 81 20.5 151.5t56 130t83 106t101.5 78.5t112 49t114 17q60 0 108.5 -8.5t98.5 -22.5q2 50 4.5 103t4 105t2.5 100.5t1 89.5q0 59 -5.5 96t-21.5 58t-44.5 28.5t-73.5 7.5h-37v47q48 2 90.5 6.5t83.5 11t82.5 15.5t87.5 20q-7 -56 -15.5 -147.5t-16.5 -204 t-15.5 -238.5t-13.5 -249.5t-9.5 -238t-3.5 -204.5q0 -54 4 -95.5t20 -70.5t48 -44t88 -15h23v-47q-59 -2 -106 -4t-86 -5t-72 -8.5t-64 -15.5q4 18 8.5 44t9 54.5t8 56t5.5 48.5q-101 -88 -192 -139t-175 -51q-68 0 -125 24.5t-99 73t-65.5 120.5t-23.5 167zM219 412 q0 -91 21.5 -153t55.5 -100.5t77 -55.5t86 -17q36 0 70.5 11t67.5 29.5t64.5 42.5t61.5 50q9 119 18 254t17 293q-23 16 -47 30t-50.5 24t-57.5 16t-68 6q-65 0 -122.5 -30t-100.5 -86t-68 -135.5t-25 -178.5z" />
<glyph unicode="e" horiz-adv-x="928" d="M70 391q0 107 36.5 199.5t99 160.5t144.5 107t172 39q91 0 151.5 -30.5t97 -78.5t52 -105.5t15.5 -111.5v-20q0 -9 -2 -19q-87 -6 -168 -6q-107 0 -216 8t-227 19q-6 -47 -6 -90q1 -110 28 -181t71.5 -112.5t101.5 -57.5t119 -16q39 0 74.5 5.5t71.5 17.5t73.5 31.5 t79.5 48.5l26 -39q-100 -85 -198.5 -132.5t-210.5 -47.5q-90 0 -161.5 33.5t-121 90t-76 131t-26.5 156.5zM236 600q71 -2 119.5 -3t82.5 -1h99q35 0 71 1t84 3v10q0 54 -15 96.5t-42 71.5t-65 44.5t-83 15.5q-51 0 -91.5 -19t-72 -51.5t-53 -76t-34.5 -91.5z" />
<glyph unicode="f" horiz-adv-x="614" d="M35 829l4 48h168v23q0 18 0.5 42.5t1 52t1.5 52.5q2 47 17 103t41 112t61.5 109t78 93.5t91 65t99.5 24.5q37 0 56.5 -18t19.5 -49q0 -23 -9 -47t-20 -35q-31 8 -61.5 13t-59.5 5q-47 0 -79.5 -18t-54.5 -71t-35 -149t-22 -253l-3 -55q68 0 141.5 2.5t151.5 13.5l-43 -92 h-66h-94q-46 0 -92 2l-11 -190q-6 -102 -7 -196t-1 -159t3 -106t15.5 -64t39 -32t73.5 -9h43v-47q-48 -2 -90 -3t-82 -4t-81 -8.5t-87 -17.5q17 177 31.5 339t20.5 310l8 195q-42 3 -83.5 7.5t-84.5 10.5z" />
<glyph unicode="g" horiz-adv-x="976" d="M-18 -328q0 28 7 59.5t29 66t63 71t109 73.5l25 -39q-45 -29 -67.5 -76t-22.5 -106q0 -51 22 -86t58 -57.5t82.5 -32.5t95.5 -10q54 0 112 17.5t106 51t78.5 82t30.5 109.5q0 34 -9.5 58t-31.5 40.5t-57.5 28.5t-87.5 22l-239 46q-52 10 -86 34.5t-34 71.5q0 22 12.5 49 t31 54.5t40 53t39.5 46.5q-40 9 -76.5 29.5t-64.5 52.5t-44.5 75t-16.5 99q0 80 30.5 143.5t83.5 107.5t123.5 67.5t151.5 23.5q101 0 171 -31.5t111 -90.5q68 65 118.5 89.5t87.5 24.5q43 0 61.5 -21.5t18.5 -46.5q0 -21 -8 -42t-26 -40q-25 16 -47 25.5t-62 9.5 q-29 0 -60.5 -13t-62.5 -31q6 -20 10.5 -47t4.5 -48q0 -72 -29 -136.5t-79 -113t-117 -77t-144 -28.5q-19 0 -36 0.5t-32 2.5q-19 -21 -34 -41q-13 -17 -23.5 -37t-10.5 -34q0 -16 9.5 -26.5t31 -19t56.5 -15.5t85 -15q88 -15 156.5 -30t116 -39.5t72 -64t24.5 -102.5 q0 -50 -21 -99.5t-58 -94.5t-88 -83.5t-111 -66.5t-127 -44t-136 -16q-91 0 -151.5 18t-97 48.5t-51.5 69.5t-15 81zM236 594q0 -46 11.5 -91.5t36 -81.5t62 -58t90.5 -22q93 0 145 65t52 176q0 42 -11.5 87.5t-36 83.5t-62 62.5t-89.5 24.5q-48 0 -85 -20.5t-62 -55 t-38 -78.5t-13 -92z" />
<glyph unicode="h" horiz-adv-x="1069" d="M2 1454v47q44 2 82 5.5t77.5 9.5t83.5 15t99 23q-4 -38 -9 -95t-10.5 -126t-11.5 -147t-11 -157.5t-9.5 -158t-7.5 -147.5q55 45 103.5 77.5t94 54t90.5 32t93 10.5q31 0 70.5 -9.5t74.5 -38.5t59.5 -81.5t24.5 -138.5q0 -56 -4.5 -117t-10 -120.5t-10 -115t-4.5 -100.5 q0 -39 6.5 -63.5t21 -39t37.5 -19.5t56 -5h55v-49q-52 -2 -97 -3.5t-86 -4.5t-79.5 -8.5t-77.5 -16.5q9 58 19 131t18.5 147.5t13.5 145.5t5 125q0 52 -4.5 102t-23 89.5t-56.5 63.5t-105 24q-38 0 -78.5 -14t-78.5 -35t-71.5 -47t-57.5 -50q-3 -48 -5.5 -100.5t-3.5 -104 t-1.5 -100t-0.5 -90.5q0 -65 3.5 -105t16 -63t37.5 -31t68 -8h49v-47q-54 0 -100 -1.5t-87.5 -5.5t-79 -10.5t-73.5 -15.5q14 139 25.5 275.5t20.5 264t15 243t10 213.5t5.5 174.5t1.5 126.5q0 59 -5.5 96t-21.5 58t-44.5 28.5t-73.5 7.5h-37z" />
<glyph unicode="i" horiz-adv-x="522" d="M20 797v47q101 3 184 18t158 35q-12 -79 -21 -161t-15.5 -163.5t-9.5 -161t-3 -153.5q0 -68 4 -109.5t17 -64t38.5 -30t69.5 -7.5h45v-47h-16q-94 0 -169.5 -7t-147.5 -26q24 162 36.5 323t12.5 316q0 48 -5.5 83.5t-22.5 59.5t-49 36t-85 12h-21zM188 1237q0 23 7 43.5 t20.5 36t32.5 24.5t43 9q38 0 66 -27t28 -78q0 -22 -7 -42.5t-19.5 -36t-31 -24.5t-42.5 -9q-41 0 -69 25.5t-28 78.5z" />
<glyph unicode="j" horiz-adv-x="487" d="M-118 -457q0 25 6.5 47.5t17.5 40.5q26 -8 51.5 -13t54.5 -5q51 0 82.5 12t49.5 40t24.5 74.5t8.5 114.5q3 120 5.5 213.5t5.5 166t5 127t4 95.5t3 72.5t1 57.5q0 48 -5.5 87t-23 66.5t-50.5 42.5t-87 15h-17v47q101 3 190 18t165 35q-34 -209 -43 -414l-22 -520 q-2 -49 -17 -105t-39.5 -112.5t-57 -109t-69 -93t-75 -64.5t-75.5 -24q-45 0 -69 25.5t-24 62.5zM186 1237q0 23 7 43.5t20.5 36t32.5 24.5t43 9q38 0 66 -27t28 -78q0 -22 -7 -42.5t-19.5 -36t-31 -24.5t-42.5 -9q-41 0 -69 25.5t-28 78.5z" />
<glyph unicode="k" horiz-adv-x="1010" d="M2 1454v47q48 2 90.5 6.5t83 11t81.5 15.5t87 20q-14 -143 -25 -283.5t-19 -272.5t-14 -251.5t-8.5 -219t-4 -176t-1.5 -122.5q0 -65 6.5 -101.5t22 -54.5t41 -22t64.5 -4v-47q-49 -2 -84.5 -3t-68 -4t-67 -8.5t-80.5 -17.5q14 136 25 271.5t20 263t15 244t10 215t6 176 t2 127.5q0 59 -5.5 96t-21.5 58t-44.5 28.5t-73.5 7.5h-37zM328 492q49 62 107 133t119.5 131.5t124.5 100.5t122 40q42 0 65 -23.5t23 -58.5q0 -17 -6 -36.5t-19 -39.5q-21 13 -42.5 18t-49.5 5q-39 0 -83.5 -18.5t-88.5 -48.5t-84.5 -68t-71.5 -78q13 -24 41.5 -69.5 t66.5 -99.5t83 -111t91 -103t89.5 -75.5t79.5 -29.5q12 0 28 5t33 28l35 -33q-28 -34 -69 -57.5t-103 -23.5q-52 0 -103.5 27.5t-99.5 72t-91.5 101t-81 113t-67 109t-48.5 89.5z" />
<glyph unicode="l" horiz-adv-x="483" d="M14 1454v47q48 2 90.5 6.5t83 11t81.5 15.5t87 20q-12 -127 -22 -262t-18 -267t-14 -255.5t-9.5 -228t-5.5 -185.5t-2 -127q0 -57 4.5 -93t18.5 -55.5t40 -26.5t68 -7h43v-47q-48 -2 -90 -3t-82 -4t-81 -8.5t-87 -17.5q12 124 22.5 254.5t19.5 258t15.5 247.5t11 222.5 t7 183.5t2.5 131q0 59 -6 96t-22 58t-44.5 28.5t-73.5 7.5h-37z" />
<glyph unicode="m" horiz-adv-x="1612" d="M23 795v49q45 2 82.5 4.5t75 8t78.5 15t93 25.5q-9 -45 -18.5 -95.5t-14.5 -92.5q51 47 95.5 82t87 58.5t85.5 35.5t91 12q27 0 58 -7t60 -25.5t52 -52t35 -87.5q48 43 90 75.5t82.5 54t81.5 32t88 10.5q31 0 68 -9.5t69 -38.5t54 -81.5t22 -138.5q0 -56 -4.5 -117 t-10 -120.5t-10 -115t-4.5 -100.5q0 -39 6.5 -64t21 -39.5t37.5 -20t56 -5.5h55v-47q-52 -2 -97 -3.5t-86 -4.5t-79.5 -8.5t-77.5 -16.5q9 58 19 131t18 147.5t13 145.5t5 125q0 52 -7 102t-25 89.5t-50 63.5t-83 24q-34 0 -67 -13t-64 -32.5t-59 -44t-52 -46.5v-30 q0 -56 -4.5 -117t-10 -120.5t-10 -115t-4.5 -100.5q0 -39 6.5 -64t21 -39.5t37.5 -20t56 -5.5h55v-47q-52 -2 -97 -3.5t-86 -4.5t-79.5 -8.5t-77.5 -16.5q9 58 19 131t18.5 147.5t13.5 145.5t5 125q0 52 -6.5 102t-25 89.5t-51 63.5t-83.5 24q-35 0 -69.5 -14t-66 -35.5 t-60.5 -47t-54 -47.5q-4 -48 -7 -100.5t-5.5 -104.5t-4 -101t-1.5 -91q0 -65 3 -105t15 -63t36.5 -31t67.5 -8h52v-47h-19q-94 0 -171.5 -7t-149.5 -26q23 146 36 300.5t13 316.5q0 39 -3.5 77t-19.5 67.5t-49 48t-92 18.5h-18z" />
<glyph unicode="n" horiz-adv-x="1114" d="M20 797v47q45 2 83 4.5t75.5 8t78.5 15t93 25.5q-9 -45 -18.5 -95.5t-14.5 -92.5q111 94 205 141t191 47q31 0 70.5 -9.5t74.5 -38.5t59.5 -81.5t24.5 -138.5q0 -56 -4.5 -117t-10 -120.5t-10 -115t-4.5 -100.5q0 -40 6.5 -65t21 -39.5t38 -19.5t57.5 -5h54v-47 q-53 -2 -98 -3.5t-85.5 -4.5t-79 -8.5t-77.5 -16.5q9 58 18.5 131t18 147.5t13.5 145.5t5 125q0 52 -4.5 102t-23 89.5t-56.5 63.5t-105 24q-38 0 -77 -13.5t-75.5 -34t-69 -45.5t-56.5 -47q-3 -48 -6.5 -101.5t-6 -106t-4.5 -102t-2 -91.5q0 -65 3.5 -105t16 -63t37.5 -31 t68 -8h50v-47q-108 0 -188 -7t-152 -26q23 146 36 300.5t13 316.5q0 39 -3 77t-19 68.5t-49 49t-93 18.5h-19z" />
<glyph unicode="o" horiz-adv-x="1055" d="M70 391q0 95 34 186t98 162t156 114.5t209 43.5q111 0 189 -31t127 -84.5t71.5 -124.5t22.5 -151q0 -108 -38 -204t-105 -167.5t-157 -113t-194 -41.5q-120 0 -199.5 34.5t-127 91.5t-67 131t-19.5 154zM217 444q0 -73 18 -145t55.5 -129.5t96 -93t139.5 -35.5 q72 0 128 27t95 77t59.5 122t20.5 161q0 66 -18 138.5t-55.5 133.5t-95.5 100.5t-138 39.5q-74 0 -131 -33t-95.5 -88t-58.5 -126.5t-20 -148.5z" />
<glyph unicode="p" horiz-adv-x="1073" d="M16 797v47q55 1 106.5 6.5t94.5 13.5t76 16.5t53 16.5q-9 -45 -17.5 -92t-15.5 -98q117 100 208.5 145t166.5 45q149 0 227 -96t78 -277q0 -117 -42.5 -217t-118.5 -172.5t-181 -113.5t-229 -41q-48 0 -76 2t-45 4q-6 -120 -6 -219q0 -67 3.5 -111.5t17.5 -71.5t42.5 -38 t79.5 -11h31v-49q-48 0 -90 -0.5t-82 -3.5t-81 -9t-87 -18q3 21 7.5 49.5t9.5 67.5t10 89t10 114q7 92 13 199t10.5 216.5t7 216t2.5 197.5q0 103 -39.5 148t-124.5 45h-19zM309 75q32 -13 80.5 -23t97.5 -10q81 0 146.5 33t112.5 92t72.5 140.5t25.5 179.5q0 81 -20 139 t-52 95.5t-73.5 55.5t-84.5 18q-38 0 -78 -14t-77 -35t-69 -46t-56 -47z" />
<glyph unicode="q" horiz-adv-x="1024" d="M68 348q0 81 21.5 153t59.5 133t89.5 110t111 83t124.5 52t130 18q84 0 158.5 -14.5t136.5 -46.5q-6 -51 -12.5 -134.5t-12.5 -183.5t-11 -209t-9 -211t-6 -188.5t-2 -142.5q0 -60 2 -104t15 -72.5t41.5 -42t80.5 -13.5h35v-49h-33q-37 0 -70.5 -0.5t-69.5 -3.5t-76.5 -9 t-90.5 -18q7 28 13 81t11.5 119t10 138t7.5 139t5 123t2 88q-62 -49 -113 -80.5t-93.5 -50t-79 -25.5t-70.5 -7q-71 0 -127.5 26.5t-96 75t-60.5 116.5t-21 150zM217 391q0 -152 63 -228.5t181 -76.5q36 0 74 12.5t73.5 32t66.5 42.5t54 44l25 582q-22 10 -41.5 18.5 t-40 13.5t-43 8t-49.5 3q-72 0 -137.5 -35.5t-115.5 -96.5t-80 -143t-30 -176z" />
<glyph unicode="r" horiz-adv-x="739" d="M23 797v47q48 4 85 6.5t73.5 7t77 13.5t94.5 26q-4 -19 -8.5 -43.5t-9 -50.5t-8.5 -51.5t-7 -46.5q52 53 101 89.5t91 59.5t75.5 33t56.5 10q28 0 46 -7.5t28.5 -19t15 -25.5t4.5 -26q0 -29 -15.5 -56t-35.5 -48q-25 29 -55 41t-64 12q-29 0 -59.5 -8.5t-60.5 -23.5 t-59.5 -35.5t-54.5 -45.5q-6 -101 -13.5 -197t-7.5 -200q0 -68 4 -109.5t17 -64t38.5 -30t69.5 -7.5h45v-47h-19q-94 0 -168 -7t-146 -26q24 161 38 322.5t14 316.5q0 48 -5.5 83.5t-22.5 59.5t-49 36t-84 12h-22z" />
<glyph unicode="s" horiz-adv-x="774" d="M61 129q0 54 36 85.5t91 33.5v-19q0 -91 50.5 -143.5t134.5 -52.5q31 0 61 10t54 30t38.5 51.5t14.5 74.5t-22 75t-55.5 56t-72.5 42.5t-73 35.5l-35 18q-39 20 -70.5 40t-53.5 44.5t-34 57t-12 77.5q0 52 15.5 90.5t41.5 66.5t60 46.5t70 29t72 15t66 4.5 q46 0 89.5 -8.5t77.5 -26.5t54.5 -47t20.5 -70q0 -22 -9 -42.5t-26.5 -36.5t-44.5 -25.5t-63 -9.5q3 17 5.5 33.5t2.5 31.5q0 65 -33.5 104.5t-105.5 39.5q-40 0 -72 -11.5t-54.5 -31t-34.5 -46t-12 -55.5q0 -44 20.5 -73.5t52.5 -51.5t71 -40t77 -38q37 -20 75.5 -42.5 t70 -52.5t51 -69t19.5 -91q0 -47 -19 -93t-61 -83t-109 -59.5t-162 -22.5q-57 0 -104.5 10t-81.5 29t-53 47t-19 63z" />
<glyph unicode="t" horiz-adv-x="666" d="M25 829l4 48h173q2 66 4.5 136.5t2.5 147.5l149 33q-9 -65 -15.5 -146.5t-12.5 -170.5q99 0 168.5 6t115.5 14l-45 -96h-65h-91q-43 0 -90 2q-5 -67 -9 -132.5t-7 -126t-4.5 -113.5t-1.5 -93q0 -65 6.5 -110t21.5 -73t40 -40.5t63 -12.5q43 0 92 25.5t86 73.5l33 -37 q-33 -39 -68 -72.5t-72.5 -58t-76.5 -39t-80 -14.5q-54 0 -88.5 19.5t-54.5 53.5t-27.5 80t-7.5 100q0 104 11 246.5t21 329.5q-42 3 -84 7.5t-91 12.5z" />
<glyph unicode="u" horiz-adv-x="1116" d="M18 797v47q90 3 177 17t165 36q-21 -133 -41 -270t-20 -281q0 -56 7.5 -104t29 -83.5t60.5 -56t102 -20.5q34 0 72 14t75 35.5t70 46.5t57 47q6 93 11 187t5 194q0 47 -4.5 82.5t-21.5 59.5t-49.5 36.5t-89.5 12.5h-15v47q107 5 190 18t158 35q-5 -23 -10.5 -64t-11 -94 t-10.5 -114t-9 -124.5t-6 -125.5t-2 -117q0 -46 4.5 -85t21 -67t48.5 -43.5t88 -15.5h21v-47q-59 -2 -106 -4t-86 -5t-72 -8.5t-64 -15.5q4 22 9 48.5t9 53.5t7.5 52.5t5.5 46.5q-116 -103 -214.5 -145.5t-179.5 -42.5q-53 0 -95.5 16.5t-72.5 51t-46.5 87t-16.5 125.5 q0 49 3.5 104.5t7.5 110t7.5 104.5t3.5 89q0 69 -33.5 99t-119.5 30h-19z" />
<glyph unicode="v" horiz-adv-x="899" d="M2 797v47q44 1 76.5 5.5t61.5 11.5t59.5 16t70.5 20q10 -72 25 -135.5t37 -134.5l143 -465h21q30 50 65 115.5t65 138.5t50 148.5t20 144.5q0 45 -10 85t-33 74q19 11 43.5 20t48.5 9q54 0 77.5 -32.5t23.5 -88.5q0 -51 -19.5 -112.5t-51 -128.5t-71.5 -137t-81 -138.5 t-80 -132.5t-68 -119l-72 -28l-231 684q-11 33 -22.5 58t-28.5 41.5t-42 25t-63 8.5h-14z" />
<glyph unicode="w" horiz-adv-x="1376" d="M6 797v47q44 1 76 5.5t60.5 11.5t57.5 16t67 20q7 -36 20 -91t34 -139t51 -201.5t72 -279.5h16l245 691h73l205 -697h16q25 44 56 104.5t57 128.5t44 140t18 139q0 51 -13 96t-41 80q16 13 40 21t48 8q54 0 83.5 -33t29.5 -98q0 -51 -17.5 -111.5t-46 -126.5t-65.5 -135 t-75.5 -136.5t-75.5 -130.5t-66 -118l-68 -28l-196 675h-17l-233 -647l-92 -28l-193 684q-9 34 -20.5 59t-29 41.5t-43 24.5t-63.5 8h-14z" />
<glyph unicode="x" horiz-adv-x="889" d="M47 836q44 5 71 10.5t49.5 12t47.5 16t64 22.5l201 -375l18 15q24 19 47.5 45t42.5 56t31 63t12 67q0 25 -8 50.5t-25 49.5q15 11 38 20t52 9q35 0 62.5 -22t27.5 -68q0 -39 -20 -79.5t-54 -80.5t-77.5 -80.5t-91.5 -79.5l-25 -20l84 -156q28 -52 53.5 -93.5t54 -70 t62 -44t78.5 -15.5h16l2 -47q-44 -6 -72 -11.5t-52 -12.5q-22 -7 -48 -15l-65 -22l-221 398l-42 -34q-25 -21 -51.5 -48t-48 -59t-35.5 -67.5t-14 -71.5q0 -23 6.5 -45.5t22.5 -44.5q-14 -11 -37.5 -19.5t-50.5 -8.5q-17 0 -33.5 5t-29.5 16t-20.5 28t-7.5 41q0 39 23 79.5 t60.5 82t84.5 82t95 79.5l48 39l-132 238q-16 29 -30.5 51t-32.5 37t-42 22.5t-59 7.5h-27z" />
<glyph unicode="y" horiz-adv-x="901" d="M-50 -437q0 19 3 34t10 32q15 -6 35.5 -11t43.5 -5q50 0 96.5 28.5t90.5 77.5t85.5 114t82.5 138l-223 691q-12 38 -25.5 64t-31.5 41.5t-41.5 22.5t-55.5 7h-16v47q44 1 76.5 5.5t61.5 11.5t59.5 16t70.5 20q5 -36 11 -68t13 -63t16 -63t20 -68l145 -473h21 q30 55 65.5 121t65.5 137t50.5 143.5t20.5 141.5q0 45 -10 85.5t-35 77.5q20 16 45 22.5t50 6.5q49 0 73.5 -30.5t24.5 -84.5q0 -50 -17 -107.5t-43.5 -116.5t-57.5 -116t-58 -106l-189 -336q-28 -51 -61.5 -111t-69.5 -120.5t-73.5 -117t-75.5 -100t-75 -70t-71 -26.5 q-57 0 -82 31t-25 77z" />
<glyph unicode="z" horiz-adv-x="852" d="M31 31l565 786l-186 -6q-60 -2 -101 -12.5t-67.5 -30t-41.5 -47t-24 -62.5q-26 8 -43 20t-27 26.5t-14 31t-4 33.5q0 57 45 87t117 30q37 0 75.5 -2.5t74.5 -5t57.5 -4t70.5 -1.5q54 0 116 4t118 19l20 -39l-574 -798q99 4 168.5 10t119.5 11.5t84.5 17.5t59 28.5t41 35 t32.5 40.5q71 -32 71 -107q0 -53 -40 -81.5t-103 -28.5q-54 0 -98.5 1.5t-100 4.5t-120 5.5t-125.5 2.5q-23 0 -67.5 -3t-80.5 -9z" />
<glyph unicode="{" horiz-adv-x="567" d="M33 512l2 61q47 7 81 29.5t56.5 55t35.5 71.5t19.5 78t8.5 74t2 61v150q0 37 2.5 78t13 82.5t30 81t54 72.5t85.5 58t124 37l6 -51q-74 -17 -119 -79.5t-45 -162.5q0 -43 2 -86.5t2 -87.5q0 -88 -9.5 -160.5t-37.5 -132t-77.5 -108.5t-129.5 -90q73 -36 116.5 -79.5 t67 -92.5t30.5 -102.5t7 -110.5q0 -39 -3 -77t-6 -77t-6 -80.5t-3 -89.5t14 -83t35.5 -58.5t47.5 -37.5t50 -20l-10 -51q-92 15 -147.5 50.5t-85.5 82.5t-39.5 101t-9.5 106q0 66 7 131.5t7 137.5q0 42 -5.5 94t-23.5 99t-53.5 82t-95.5 44z" />
<glyph unicode="|" horiz-adv-x="432" d="M166 -401v1955h98v-1955h-98z" />
<glyph unicode="}" horiz-adv-x="567" d="M10 -365q75 17 119.5 79.5t44.5 162.5q0 43 -2 87t-2 87q0 88 9.5 160.5t37.5 132.5t77.5 108.5t129.5 90.5q-73 36 -116.5 79.5t-67 92t-30.5 102.5t-7 111q0 39 3 76.5t6 76.5t6 80.5t3 89.5t-14 83t-35.5 59t-47.5 37.5t-50 19.5l10 51q92 -15 148 -50.5t86 -82.5 t39.5 -101t9.5 -106q0 -66 -7.5 -131.5t-7.5 -136.5q0 -42 5.5 -94.5t24 -99.5t53.5 -82t95 -44l-2 -61q-47 -7 -80.5 -29.5t-56 -55t-35.5 -71.5t-19.5 -77.5t-8.5 -74t-2 -61.5v-149q0 -37 -3 -78.5t-13 -83t-30 -81t-54.5 -72.5t-85.5 -58t-124 -37z" />
<glyph unicode="~" horiz-adv-x="934" d="M96 467q10 39 28.5 83t47.5 81.5t69.5 62.5t96.5 25q49 0 94 -27t94 -65q26 -21 45 -36.5t34 -25.5t28.5 -15t28.5 -5q25 0 45.5 18.5t37 45.5t28.5 57t20 53l55 -21q-10 -39 -28.5 -83.5t-47.5 -82t-70 -62t-96 -24.5q-49 0 -94 27t-94 66q-26 21 -44.5 36t-33.5 25.5 t-28.5 15.5t-28.5 5q-26 0 -46.5 -18.5t-37 -45.5t-28.5 -57.5t-19 -53.5z" />
<glyph unicode="&#xa1;" horiz-adv-x="424" d="M76 -514q12 82 22.5 168t20 170.5t17.5 165.5t15 153q16 168 27 328h58q1 -160 5 -328q1 -72 3.5 -153t6 -165.5t7.5 -170.5t10 -168q-20 2 -45 2h-51h-52q-26 0 -44 -2zM119 782q0 23 7 44t20.5 36.5t33 25t43.5 9.5q40 0 68 -27t28 -79q0 -23 -6.5 -44t-19.5 -37 t-32 -25t-44 -9q-42 0 -70 26t-28 80z" />
<glyph unicode="&#xa2;" horiz-adv-x="944" d="M82 381q0 89 27 171.5t77 149.5t122.5 114.5t162.5 67.5l8 216h70l-8 -206q25 3 51 3q61 0 111.5 -13t86 -34t55 -49t19.5 -58q0 -22 -9.5 -40t-25.5 -30.5t-37 -20.5t-44 -9q-3 30 -16 62.5t-37.5 60t-63 46.5t-92.5 23l-26 -736q8 -1 15 -1h15q27 0 58.5 3t67.5 13.5 t76 30.5t84 54l29 -39q-91 -79 -178 -121.5t-171 -53.5l-7 -206h-68l7 201q-87 1 -154 32.5t-112.5 85.5t-69 127t-23.5 156zM221 457q0 -146 60.5 -233.5t163.5 -114.5l24 722q-47 -9 -91.5 -35.5t-79.5 -72.5t-56 -112.5t-21 -153.5z" />
<glyph unicode="&#xa3;" horiz-adv-x="999" d="M47 20q66 61 111.5 110t73.5 101.5t40.5 116.5t12.5 156q0 15 -1 30.5t-1 32.5l-7 88l-172 19l-2 43q41 0 84 -1t86 -1q-8 83 -15 156t-7 116q0 41 11.5 78.5t31.5 72t48 65t60 57.5q41 33 79.5 62t79 50.5t84.5 34t95 12.5q28 0 56 -7t50.5 -23t37 -40.5t14.5 -58.5 q0 -31 -10.5 -55t-29 -40.5t-43 -25t-52.5 -8.5q-2 51 -16.5 83t-34.5 50t-43.5 24.5t-44.5 6.5q-54 0 -93 -23t-63.5 -65t-36.5 -102t-12 -134q0 -20 1 -41t3 -42l14 -203q58 0 111.5 1t99.5 3t82 5t59 7l-40 -92q-56 -6 -121 -6q-44 0 -90.5 1.5t-94.5 6.5v-27 q0 -68 -13 -133.5t-37 -126t-57 -113t-73 -94.5q23 7 53.5 17t75.5 10q50 0 98 -12t92 -26t83 -26t71 -12q43 0 75.5 15t68.5 53l34 -43q-31 -32 -58.5 -60t-56 -48.5t-60 -32t-68.5 -11.5q-45 0 -95.5 20.5t-102 45t-102.5 45t-96 20.5q-14 0 -27 -1.5t-24 -6.5l-133 -123z " />
<glyph unicode="&#xa4;" horiz-adv-x="1493" d="M109 133l198 199q-60 75 -94.5 168t-34.5 196q0 107 36 203.5t101 173.5l-206 207l69 70l207 -207q74 63 165.5 100t194.5 37q107 0 202.5 -37t170.5 -100l207 207l70 -70l-209 -209q65 -77 102 -172.5t37 -202.5q0 -102 -34.5 -194.5t-96.5 -167.5l201 -201l-70 -70 l-199 199q-77 -68 -174 -105.5t-207 -37.5q-106 0 -200.5 37.5t-169.5 103.5l-197 -197zM276 705q0 -99 37.5 -187.5t102 -155t150.5 -105t184 -38.5q99 0 186 38.5t151.5 105t102 155t37.5 187.5q0 100 -37.5 189t-102 156t-151.5 105.5t-186 38.5q-98 0 -184 -38.5 t-150.5 -105.5t-102 -156t-37.5 -189z" />
<glyph unicode="&#xa5;" horiz-adv-x="1436" d="M82 1331v58q25 -4 58 -8q29 -3 69.5 -5t93.5 -2t115.5 3.5t136.5 11.5v-58q-26 -2 -46 -4t-36.5 -3.5t-32.5 -2.5t-34 -2l352 -623h16l256 441q49 88 49 129q0 28 -18 41t-49 18l-43 6v58q20 -4 47 -8q23 -3 58.5 -5t84.5 -2q48 0 109 3.5t135 11.5v-58q-26 -2 -46 -4 t-36.5 -3.5t-32.5 -2.5t-35 -2l-292 -479h253l-2 -70q-39 -1 -86 -1q-41 -1 -94.5 -1t-116.5 -2l-88 -143h381l-4 -70q-54 0 -117 -1q-54 -1 -126.5 -2t-155.5 -3q-3 -128 -5.5 -208t-2.5 -114q0 -49 5.5 -79t17.5 -47t30.5 -24.5t44.5 -11.5l43 -6v-57q-22 3 -53 7 q-26 2 -64 4.5t-88 2.5q-51 0 -112 -3t-136 -11v57q26 2 46 4t37 4t33 3t34 2l10 473q-105 -5 -207 -10t-190 -13l4 103h385l-78 133q-80 -3 -157.5 -8t-145.5 -11l4 103h252l-172 297q-31 54 -58 88.5t-52.5 55.5t-51 30.5t-53.5 13.5z" />
<glyph unicode="&#xa6;" horiz-adv-x="449" d="M176 295h98v-696h-98v696zM176 858v696h98v-696h-98z" />
<glyph unicode="&#xa7;" horiz-adv-x="940" d="M82 797q0 65 14 136t41.5 140t68.5 131.5t94 110.5t118 76t141 28q103 0 152 -35.5t49 -89.5q0 -18 -6 -37t-19.5 -35.5t-35.5 -28.5t-54 -15q-5 43 -20 72.5t-36 48.5t-47 27.5t-53 8.5q-24 0 -46 -9t-39.5 -26t-28 -42t-10.5 -56q0 -38 8.5 -71.5t28 -70.5t50.5 -79.5 t76 -97.5q66 -80 125.5 -160.5t104 -165.5t70.5 -176t26 -191q0 -70 -16.5 -148.5t-47.5 -154.5t-77 -145.5t-104.5 -122.5t-130 -84t-154.5 -31q-104 0 -153.5 36t-49.5 89q0 18 6.5 38t20.5 37.5t37.5 30t58.5 15.5q5 -45 21 -76t37.5 -50t47 -27.5t49.5 -8.5q62 0 102 40 t40 114q0 49 -13.5 95t-39 94.5t-62 101.5t-82.5 117q-62 87 -110.5 161t-82 149t-51.5 156t-18 181zM176 860q0 -71 17 -136t44.5 -125.5t61.5 -115.5t68 -106q51 -77 100.5 -145t88 -130.5t62 -121t23.5 -115.5q0 -28 -2 -53.5t-10 -59.5l20 -6q47 74 71.5 159t24.5 187 q0 90 -16 162.5t-44.5 136.5t-69 123.5t-89.5 124.5q-41 54 -84.5 106t-79.5 107.5t-59.5 118t-23.5 137.5v31q0 17 2 32l-21 7q-40 -63 -62 -142t-22 -176z" />
<glyph unicode="&#xa8;" horiz-adv-x="913" d="M307 1235q0 23 7 44t20.5 36.5t32.5 25t43 9.5q38 0 66 -27t28 -80q0 -23 -7 -44t-19.5 -36.5t-31.5 -25t-43 -9.5q-40 0 -68 26.5t-28 80.5zM678 1235q0 23 7 44t20.5 36.5t32 25t42.5 9.5q38 0 66 -27t28 -80q0 -23 -6.5 -44t-19.5 -36.5t-31.5 -25t-42.5 -9.5 q-40 0 -68 26.5t-28 80.5z" />
<glyph unicode="&#xa9;" horiz-adv-x="1645" d="M92 696q0 101 26 195t74 175.5t115 148.5t148 115t175 74t195 26t195 -26t175.5 -74t148.5 -115t115 -148.5t74 -175.5t26 -195t-26 -195t-74 -175t-115 -148t-148.5 -115t-175.5 -74t-195 -26q-152 0 -285.5 57.5t-233 157t-157 233t-57.5 285.5zM162 696 q0 -91 24 -175.5t67 -158t104 -134.5t134.5 -104t158 -67t175.5 -24t176 24t158.5 67t134.5 104t104 134.5t67 158t24 175.5t-24 176t-67 158.5t-104 134.5t-134.5 104t-158.5 67t-176 24t-175.5 -24t-158 -67t-134.5 -104t-104 -134.5t-67 -158.5t-24 -176zM393 686 q0 100 38 182.5t103.5 141.5t154 91t190.5 32q88 0 154.5 -10.5t117.5 -24.5l-16 -197h-62v8q0 28 -7 56t-28 50.5t-59.5 37t-101.5 14.5q-70 0 -134.5 -22t-113.5 -65.5t-78 -107t-29 -147.5q0 -96 33.5 -166t87 -115.5t120.5 -67.5t134 -22q27 0 50.5 1t46.5 4t48.5 9 t57.5 15l18 -57q-32 -15 -67.5 -25.5t-71 -17t-68 -9t-57.5 -2.5q-97 0 -181 30.5t-146.5 85.5t-98 131t-35.5 167z" />
<glyph unicode="&#xaa;" horiz-adv-x="844" d="M94 918q0 49 23.5 86t61 63t84.5 43t94.5 27t90.5 15t72 7q6 61 6 125q0 38 -6 69t-21 53.5t-41.5 35t-68.5 12.5q-32 0 -58 -9.5t-45 -27t-29.5 -41.5t-10.5 -53q0 -12 1.5 -25.5t6.5 -27.5q-9 -11 -24.5 -18t-32.5 -7q-25 0 -46.5 16.5t-21.5 53.5q0 45 31 82.5 t77.5 63.5t102 40.5t104.5 14.5q95 0 149 -44t54 -145q0 -43 -4 -95.5t-8.5 -104.5t-8 -96.5t-3.5 -71.5q0 -47 12.5 -73t38.5 -26q15 0 30 8.5t28.5 19.5t24.5 23t17 19l31 -27q-29 -40 -53 -64.5t-45.5 -38.5t-41.5 -19t-40 -5q-30 0 -52 11.5t-36 31t-21 45t-8 52.5 q-16 -27 -37.5 -52.5t-49 -45t-63 -31t-79.5 -11.5q-48 0 -82.5 12t-57.5 31.5t-34 45t-11 53.5zM225 948q0 -27 9 -45.5t23 -29t30.5 -15t31.5 -4.5q42 0 74 18.5t56 52t40 80t25 101.5q-42 -3 -92 -10t-94 -23.5t-73.5 -46.5t-29.5 -78z" />
<glyph unicode="&#xab;" horiz-adv-x="944" d="M49 522l522 459l33 -31l-334 -428l303 -405l-32 -31zM436 522l395 379l23 -27l-209 -352l184 -354l-24 -23z" />
<glyph unicode="&#xac;" horiz-adv-x="1184" d="M152 598v98h880v-352h-98v254h-782z" />
<glyph unicode="&#xad;" horiz-adv-x="844" d="M133 430l4 117h565l-4 -117h-565z" />
<glyph unicode="&#xae;" horiz-adv-x="1114" d="M98 958q0 98 37 184t101 150t149.5 101t183.5 37q97 0 183 -37t150 -101t101 -150t37 -184t-37 -183.5t-101 -149.5t-150 -101t-183 -37q-98 0 -183.5 37t-149.5 101t-101 149.5t-37 183.5zM154 956q0 -85 32.5 -160t89 -131.5t131.5 -89t160 -32.5t160.5 32.5t132 89 t89 131.5t32.5 160t-32.5 160.5t-89 132t-132 89t-160.5 32.5t-160 -32.5t-131.5 -89t-89 -132t-32.5 -160.5zM348 694v45l55 4q2 53 4.5 100t4.5 85q5 94 6.5 149t1.5 78q0 29 -7 38t-20 11q-6 0 -13.5 1t-12.5 1v43q10 -1 23 -1q11 -1 26 -1h35q24 0 52 3t68 3 q43 0 74.5 -12t52.5 -32.5t31 -47t10 -55.5q0 -66 -31.5 -105.5t-86.5 -64.5q66 -102 120 -160.5t99 -58.5v-33q-14 -3 -21.5 -3.5t-15.5 -0.5q-45 1 -84.5 25.5t-72 61t-58 78t-43.5 75.5q-10 -2 -25 -2h-28q-2 -45 -3.5 -79t-1.5 -48q0 -29 7 -38.5t22 -11.5q5 0 13.5 -1 t11.5 -1v-45q-12 2 -26 4q-12 2 -28 3t-34 1q-16 0 -42 -1.5t-63 -6.5zM492 958h10q34 0 62.5 8t49 24.5t32 41.5t11.5 60q0 20 -5 40.5t-18.5 37.5t-36 27.5t-56.5 10.5h-20q-9 0 -21 -2z" />
<glyph unicode="&#xaf;" horiz-adv-x="1182" d="M264 1180l4 116h566l-5 -116h-565z" />
<glyph unicode="&#xb0;" horiz-adv-x="586" d="M96 1217q0 46 16.5 85.5t46 68.5t69 46t85.5 17t85.5 -17t69 -46t46 -68.5t16.5 -85.5t-16.5 -86t-46 -69t-69 -46t-85.5 -17t-85.5 17t-69 46t-46 69t-16.5 86zM174 1217q0 -30 10.5 -55.5t29 -44.5t44 -29.5t55.5 -10.5t55.5 10.5t44.5 29.5t29 44.5t10 55.5t-10 55 t-29 44t-44.5 29.5t-55.5 10.5t-55.5 -10.5t-44 -29.5t-29 -44t-10.5 -55z" />
<glyph unicode="&#xb1;" horiz-adv-x="1200" d="M127 156v98h942v-98h-942zM127 682v98h422v422h98v-422h422v-98h-422v-328h-98v328h-422z" />
<glyph unicode="&#xb2;" horiz-adv-x="633" d="M98 852q56 60 114.5 121.5t106.5 125t78.5 130t30.5 137.5q0 63 -30 100t-83 37q-48 0 -71 -31.5t-23 -82.5q0 -16 1.5 -32.5t6.5 -33.5q-22 -16 -45 -16t-40 16t-17 51q0 30 21.5 62t56 58t77.5 43t85 17q83 0 128.5 -47t45.5 -125q0 -42 -13.5 -84.5t-48.5 -96 t-96 -122.5t-156 -164l207 7q17 1 29.5 4.5t22.5 13.5t18.5 27.5t17.5 46.5l37 -8q-12 -48 -22.5 -96t-16.5 -85h-411z" />
<glyph unicode="&#xb3;" horiz-adv-x="571" d="M78 881q0 26 13.5 42t29.5 25q26 -28 58 -46.5t69 -18.5q32 0 62 10.5t52.5 32t36 55t13.5 78.5q0 60 -33 95.5t-98 35.5q-30 0 -64 -12l-14 43l26 8q28 10 54 25.5t46 37t32 49t12 62.5q0 37 -22 60.5t-68 23.5q-42 0 -74.5 -19t-63.5 -45l-28 33q17 18 38 35.5 t46.5 31.5t56.5 22.5t68 8.5q68 0 109.5 -33t41.5 -96q0 -34 -13 -61.5t-32.5 -49.5t-41.5 -38t-40 -27q39 -2 70.5 -15.5t53.5 -36t34 -51.5t12 -61q0 -43 -15.5 -79.5t-41 -66.5t-60 -53t-72 -39t-76 -24t-73.5 -8q-18 0 -36.5 4t-33.5 12t-24.5 20.5t-9.5 29.5z" />
<glyph unicode="&#xb4;" horiz-adv-x="664" d="M451 1165l251 379q28 -28 60.5 -50t64.5 -38l-329 -323z" />
<glyph unicode="&#xb5;" horiz-adv-x="1167" d="M131 -227q0 76 8.5 181t19 222t19 236t8.5 223v59q0 28 -0.5 56t-1.5 58.5t-2 68.5q47 3 89.5 6t88.5 14q-13 -66 -24 -139t-19.5 -145.5t-13 -141t-4.5 -125.5q0 -56 7.5 -104t29 -83.5t60.5 -56t102 -20.5q34 0 72 13t75 33.5t70 44.5t57 46q5 78 14 207.5t9 306.5v70 q0 36 -2 74q23 1 42.5 2.5t39 3.5t39 5.5t42.5 8.5q-5 -23 -10.5 -61.5t-11 -87.5t-10.5 -105.5t-9 -116t-6 -119t-2 -114.5q0 -47 4 -91t20.5 -78.5t50 -55.5t91.5 -21h17v-47q-59 -2 -106 -4t-86 -5t-72 -8.5t-64 -15.5q3 22 7.5 49.5t9 55.5t8.5 54.5t6 47.5 q-57 -51 -107 -88t-95.5 -60.5t-87 -34.5t-81.5 -11q-71 0 -126 37.5t-77 105.5q-3 -25 -5.5 -54.5t-2.5 -60.5q0 -54 7 -110t24 -103t45 -79t69 -38q-5 -13 -14 -27t-23 -26t-32.5 -20t-42.5 -8q-21 0 -41.5 8t-36 28t-25.5 54t-10 86z" />
<glyph unicode="&#x3bc;" horiz-adv-x="1167" d="M131 -227q0 76 8.5 181t19 222t19 236t8.5 223v59q0 28 -0.5 56t-1.5 58.5t-2 68.5q47 3 89.5 6t88.5 14q-13 -66 -24 -139t-19.5 -145.5t-13 -141t-4.5 -125.5q0 -56 7.5 -104t29 -83.5t60.5 -56t102 -20.5q34 0 72 13t75 33.5t70 44.5t57 46q5 78 14 207.5t9 306.5v70 q0 36 -2 74q23 1 42.5 2.5t39 3.5t39 5.5t42.5 8.5q-5 -23 -10.5 -61.5t-11 -87.5t-10.5 -105.5t-9 -116t-6 -119t-2 -114.5q0 -47 4 -91t20.5 -78.5t50 -55.5t91.5 -21h17v-47q-59 -2 -106 -4t-86 -5t-72 -8.5t-64 -15.5q3 22 7.5 49.5t9 55.5t8.5 54.5t6 47.5 q-57 -51 -107 -88t-95.5 -60.5t-87 -34.5t-81.5 -11q-71 0 -126 37.5t-77 105.5q-3 -25 -5.5 -54.5t-2.5 -60.5q0 -54 7 -110t24 -103t45 -79t69 -38q-5 -13 -14 -27t-23 -26t-32.5 -20t-42.5 -8q-21 0 -41.5 8t-36 28t-25.5 54t-10 86z" />
<glyph unicode="&#xb6;" horiz-adv-x="953" d="M75 1123q0 58 22.5 107.5t62 85t93.5 55.5t117 20q45 0 117 -4.5t178 -4.5q53 0 114 2t134 7v-58q-23 -2 -42.5 -3.5t-37.5 -3t-35 -3t-35 -2.5l-64 -1865h-97l63 1832h-172l-65 -1832h-96l48 1418h-28q-76 0 -128.5 21.5t-85.5 57t-48 80t-15 90.5z" />
<glyph unicode="&#xb7;" horiz-adv-x="414" d="M111 707q0 23 7 43.5t20.5 36.5t33 25t43.5 9q40 0 68 -27t28 -79q0 -23 -7 -44t-20 -37t-32 -25t-43 -9q-42 0 -70 26.5t-28 80.5z" />
<glyph unicode="&#xb8;" horiz-adv-x="639" d="M303 -362q0 30 23 53q8 -6 24.5 -15t37.5 -17.5t44.5 -14.5t44.5 -6q18 0 36 5.5t31.5 16t22 25.5t8.5 34q0 37 -15.5 60.5t-43 37t-65.5 18.5t-84 5q8 17 19 42t22 51t19.5 49t12.5 36h62l-31 -84q81 -14 124.5 -59t43.5 -108q0 -39 -18 -76.5t-49.5 -66.5t-76 -46.5 t-96.5 -17.5q-49 0 -72.5 24.5t-23.5 53.5z" />
<glyph unicode="&#xb9;" horiz-adv-x="489" d="M82 1395q31 15 59 30.5t54.5 34t53.5 41.5t56 53h41q-5 -136 -8 -238t-5.5 -173.5t-3.5 -114t-1 -57.5q0 -32 4 -51t12 -30t20.5 -15.5t30.5 -6.5l29 -4v-39q-16 2 -36 4q-18 2 -43.5 3.5t-59.5 1.5q-69 0 -166 -9v39q34 3 54.5 4.5t45.5 3.5l19 562q-20 -13 -42 -26 q-20 -11 -44.5 -24t-53.5 -24z" />
<glyph unicode="&#xba;" horiz-adv-x="760" d="M90 1088q0 45 10 94.5t30 97t49 90.5t68 75.5t86.5 51.5t104.5 19q72 0 121.5 -23.5t81 -63.5t45.5 -94.5t14 -115.5q0 -52 -11 -105.5t-31.5 -102.5t-50.5 -92t-68.5 -74.5t-85 -50t-99.5 -18.5q-74 0 -124.5 25.5t-81.5 68.5t-44.5 99.5t-13.5 118.5zM209 1131 q0 -53 10 -104t32 -91t55.5 -64t80.5 -24q54 0 92 29t61 74t33.5 100t10.5 106q0 48 -10.5 99.5t-32 94t-55.5 70t-80 27.5q-53 0 -90.5 -30.5t-61 -77.5t-34.5 -102.5t-11 -106.5z" />
<glyph unicode="&#xbb;" horiz-adv-x="944" d="M86 168l209 354l-184 352l26 27l367 -379l-393 -377zM338 117l332 405l-301 428l32 31l490 -459l-520 -436z" />
<glyph unicode="&#xbc;" horiz-adv-x="1223" d="M94 1191q31 15 59 30.5t54.5 34t53.5 41.5t56 53h41q-5 -136 -8 -238t-5.5 -173.5t-3.5 -114t-1 -57.5q0 -32 4 -51t12 -30t20.5 -15.5t30.5 -6.5l29 -4v-39q-16 2 -36 4q-18 2 -43.5 3.5t-59.5 1.5q-69 0 -166 -9v39q34 3 54.5 4.5t45.5 3.5l19 562q-20 -13 -42 -26 q-20 -11 -44.5 -24t-53.5 -24zM98 31l1004 1384l57 -39l-1004 -1392zM630 233l2 37l366 460l37 -16q-3 -80 -5 -144t-4 -115t-3 -90.5t-2 -69.5q25 2 45.5 3t35.5 2q18 1 31 2l-26 -69h-88q-1 -28 -1.5 -44t-0.5 -24v-11v-3q0 -37 5 -57.5t13.5 -30.5t20.5 -13.5t26 -5.5 l31 -4v-39q-31 5 -66 8t-77 3q-36 0 -76 -3t-86 -8v39q35 3 54 4l46 4l6 185h-284zM705 284q51 0 105.5 1.5t105.5 3.5l10 273z" />
<glyph unicode="&#xbd;" horiz-adv-x="1288" d="M94 1191q31 15 59 30.5t54.5 34t53.5 41.5t56 53h41q-5 -136 -8 -238t-5.5 -173.5t-3.5 -114t-1 -57.5q0 -32 4 -51t12 -30t20.5 -15.5t30.5 -6.5l29 -4v-39q-16 2 -36 4q-18 2 -43.5 3.5t-59.5 1.5q-69 0 -166 -9v39q34 3 54.5 4.5t45.5 3.5l19 562q-20 -13 -42 -26 q-20 -11 -44.5 -24t-53.5 -24zM98 31l1004 1384l57 -39l-1004 -1392zM735 23q56 60 114.5 121.5t106.5 125t78.5 130t30.5 137.5q0 63 -30 100t-83 37q-48 0 -71 -31.5t-23 -82.5q0 -16 1.5 -32.5t6.5 -33.5q-22 -16 -45 -16t-40 16t-17 51q0 30 21.5 62t56 58t77.5 43 t85 17q83 0 128.5 -47t45.5 -125q0 -42 -13.5 -84.5t-48.5 -96t-96 -122.5t-156 -164l207 7q17 1 29.5 4.5t22.5 13.5t18.5 27.5t17.5 46.5l37 -8q-12 -48 -22.5 -96t-16.5 -85h-411z" />
<glyph unicode="&#xbe;" horiz-adv-x="1249" d="M86 677q0 26 13.5 42t29.5 25q26 -28 58 -46.5t69 -18.5q32 0 62 10.5t52.5 32t36 55t13.5 78.5q0 60 -33 95.5t-98 35.5q-30 0 -64 -12l-14 43l26 8q28 10 54 25.5t46 37t32 49t12 62.5q0 37 -22 60.5t-68 23.5q-42 0 -74.5 -19t-63.5 -45l-28 33q17 18 38 35.5 t46.5 31.5t56.5 22.5t68 8.5q68 0 109.5 -33t41.5 -96q0 -34 -13 -61.5t-32.5 -49.5t-41.5 -38t-40 -27q39 -2 70.5 -15.5t53.5 -36t34 -51.5t12 -61q0 -43 -15.5 -79.5t-41 -66.5t-60 -53t-72 -39t-76 -24t-73.5 -8q-18 0 -36.5 4t-33.5 12t-24.5 20.5t-9.5 29.5zM126 31 l1004 1384l57 -39l-1004 -1392zM656 233l2 37l366 460l37 -16q-3 -80 -5 -144t-4 -115t-3 -90.5t-2 -69.5q25 2 45.5 3t35.5 2q18 1 31 2l-26 -69h-88q-1 -28 -1.5 -44t-0.5 -24v-11v-3q0 -37 5 -57.5t13.5 -30.5t20.5 -13.5t26 -5.5l31 -4v-39q-31 5 -66 8t-77 3 q-36 0 -76 -3t-86 -8v39q35 3 54 4l46 4l6 185h-284zM731 284q51 0 105.5 1.5t105.5 3.5l10 273z" />
<glyph unicode="&#xbf;" horiz-adv-x="741" d="M47 -246q0 60 18 107t48 85.5t67.5 69.5t77.5 58t77.5 51.5t67.5 49.5t48 53t18 61q0 46 -30.5 67t-80.5 21q-21 0 -46.5 -5.5t-51.5 -21.5l-10 12q4 25 14 49.5t26 44t38.5 32t52.5 12.5q63 0 103 -47.5t40 -137.5q0 -61 -19 -111.5t-53.5 -97t-82 -91t-105.5 -93.5 q-26 -22 -50 -44.5t-42.5 -48t-29.5 -56.5t-11 -70q0 -33 10 -64.5t32 -56.5t56.5 -40t83.5 -15t85.5 17.5t61 46.5t36.5 66.5t12 78.5q0 11 -1 21.5t-3 21.5q1 0 5 1q2 0 6 0.5t9 0.5q14 0 33 -3.5t36.5 -13.5t29.5 -28.5t12 -48.5q0 -51 -25.5 -92t-67 -70t-93.5 -44.5 t-105 -15.5q-72 0 -127.5 23.5t-93 63.5t-57 92.5t-19.5 109.5zM309 782q0 23 7 44t20 36.5t32 25t44 9.5q42 0 70 -26t28 -80q0 -23 -7 -44t-20.5 -37t-33 -25t-43.5 -9q-41 0 -69 27t-28 79z" />
<glyph unicode="&#xc0;" horiz-adv-x="1266" d="M-55 0l2 57q29 3 55 6l46 4q23 2 38 3q41 86 85.5 188t91 214t93 232t91.5 241t86.5 241t78.5 233l80 23l338 -1094q37 -122 81 -196.5t110 -85.5l55 -9l-2 -57q-51 6 -110.5 9t-121.5 3q-66 0 -129 -3t-120 -9l2 57l141 13l-115 415h-39q-27 0 -71 -0.5t-99.5 -2.5 t-119.5 -6t-132 -11l-55 -154q-18 -48 -31.5 -91t-13.5 -75t17 -52.5t59 -26.5l59 -9l-2 -57q-54 6 -103.5 10t-103.5 4t-112 -4t-129 -10zM393 555h408l-168 614h-29zM277 1759q25 31 46 63t40 64l358 -291l-39 -49z" />
<glyph unicode="&#xc1;" horiz-adv-x="1266" d="M-55 0l2 57q29 3 55 6l46 4q23 2 38 3q41 86 85.5 188t91 214t93 232t91.5 241t86.5 241t78.5 233l80 23l338 -1094q37 -122 81 -196.5t110 -85.5l55 -9l-2 -57q-51 6 -110.5 9t-121.5 3q-66 0 -129 -3t-120 -9l2 57l141 13l-115 415h-39q-27 0 -71 -0.5t-99.5 -2.5 t-119.5 -6t-132 -11l-55 -154q-18 -48 -31.5 -91t-13.5 -75t17 -52.5t59 -26.5l59 -9l-2 -57q-54 6 -103.5 10t-103.5 4t-112 -4t-129 -10zM393 555h408l-168 614h-29zM607 1591l342 301q20 -34 45 -64.5t53 -53.5l-403 -228z" />
<glyph unicode="&#xc2;" horiz-adv-x="1266" d="M-55 0l2 57q29 3 55 6l46 4q23 2 38 3q41 86 85.5 188t91 214t93 232t91.5 241t86.5 241t78.5 233l80 23l338 -1094q37 -122 81 -196.5t110 -85.5l55 -9l-2 -57q-51 6 -110.5 9t-121.5 3q-66 0 -129 -3t-120 -9l2 57l141 13l-115 415h-39q-27 0 -71 -0.5t-99.5 -2.5 t-119.5 -6t-132 -11l-55 -154q-18 -48 -31.5 -91t-13.5 -75t17 -52.5t59 -26.5l59 -9l-2 -57q-54 6 -103.5 10t-103.5 4t-112 -4t-129 -10zM393 555h408l-168 614h-29zM323 1587l350 305l328 -305l-43 -41l-291 178l-305 -178z" />
<glyph unicode="&#xc3;" horiz-adv-x="1266" d="M-55 0l2 57q29 3 55 6l46 4q23 2 38 3q41 86 85.5 188t91 214t93 232t91.5 241t86.5 241t78.5 233l80 23l338 -1094q37 -122 81 -196.5t110 -85.5l55 -9l-2 -57q-51 6 -110.5 9t-121.5 3q-66 0 -129 -3t-120 -9l2 57l141 13l-115 415h-39q-27 0 -71 -0.5t-99.5 -2.5 t-119.5 -6t-132 -11l-55 -154q-18 -48 -31.5 -91t-13.5 -75t17 -52.5t59 -26.5l59 -9l-2 -57q-54 6 -103.5 10t-103.5 4t-112 -4t-129 -10zM393 555h408l-168 614h-29zM307 1567q10 39 28.5 83t47.5 81.5t69.5 62.5t96.5 25q49 0 94 -27t94 -66q26 -21 44.5 -36t33.5 -25 t28.5 -15t28.5 -5q25 0 46 18.5t37.5 45.5t28.5 57t20 53l55 -21q-10 -39 -28.5 -83.5t-47.5 -82t-70 -62t-96 -24.5q-49 0 -94 27t-94 65q-26 21 -44.5 36.5t-33.5 25.5t-28.5 15t-28.5 5q-26 0 -46.5 -18.5t-37 -45.5t-28.5 -57t-20 -53z" />
<glyph unicode="&#xc4;" horiz-adv-x="1266" d="M-55 0l2 57q29 3 55 6l46 4q23 2 38 3q41 86 85.5 188t91 214t93 232t91.5 241t86.5 241t78.5 233l80 23l338 -1094q37 -122 81 -196.5t110 -85.5l55 -9l-2 -57q-51 6 -110.5 9t-121.5 3q-66 0 -129 -3t-120 -9l2 57l141 13l-115 415h-39q-27 0 -71 -0.5t-99.5 -2.5 t-119.5 -6t-132 -11l-55 -154q-18 -48 -31.5 -91t-13.5 -75t17 -52.5t59 -26.5l59 -9l-2 -57q-54 6 -103.5 10t-103.5 4t-112 -4t-129 -10zM393 555h408l-168 614h-29zM387 1661q0 27 8.5 46.5t22.5 31.5t31.5 18t36.5 6q18 0 36 -6t31.5 -18t22 -31.5t8.5 -46.5 q0 -51 -28 -83t-70 -32t-70.5 32t-28.5 83zM756 1661q0 27 8.5 46.5t22 31.5t31.5 18t36 6t36 -6t31.5 -18t22 -31.5t8.5 -46.5q0 -51 -28 -83t-70 -32t-70 32t-28 83z" />
<glyph unicode="&#xc5;" horiz-adv-x="1266" d="M-55 0l2 57q29 3 55 6l46 4q23 2 38 3q41 86 85.5 188t91 214t93 232t91.5 241t86.5 241t78.5 233l80 23l338 -1094q37 -122 81 -196.5t110 -85.5l55 -9l-2 -57q-51 6 -110.5 9t-121.5 3q-66 0 -129 -3t-120 -9l2 57l141 13l-115 415h-39q-27 0 -71 -0.5t-99.5 -2.5 t-119.5 -6t-132 -11l-55 -154q-18 -48 -31.5 -91t-13.5 -75t17 -52.5t59 -26.5l59 -9l-2 -57q-54 6 -103.5 10t-103.5 4t-112 -4t-129 -10zM393 555h408l-168 614h-29zM457 1722q0 40 16 77t45 65.5t71 45.5t93 17q48 0 83.5 -14t58 -37t33.5 -53.5t11 -63.5q0 -45 -18 -84 t-48.5 -67.5t-71 -45t-85.5 -16.5q-52 0 -88 15t-58 40t-32 56.5t-10 64.5zM541 1737q0 -23 7 -46t22 -42t37.5 -31t54.5 -12q55 0 86.5 34.5t31.5 96.5q0 21 -7 44.5t-22 43t-38 32.5t-54 13q-28 0 -50 -11t-37 -29.5t-23 -42.5t-8 -50z" />
<glyph unicode="&#xc6;" horiz-adv-x="1710" d="M-88 2l2 57q29 3 55 6l46 4q23 2 38 3l619 1009q31 50 53.5 97.5t22.5 83.5q0 26 -15.5 43t-50.5 22l-59 8l2 58q53 -7 120 -11t134 -6.5t127.5 -3t99.5 -0.5q26 0 66 0.5t87 1.5t98 2.5t100 3.5t93 5t76 6l-31 -338h-61q1 20 1.5 31.5t0.5 17.5v10v4q0 33 -8.5 63 t-33 53.5t-68 39t-113.5 20.5l-246 17q-8 -82 -12 -166.5t-6 -155.5l-9 -225l426 22l-10 -127q-60 8 -121.5 14t-117.5 10t-102.5 6.5t-76.5 4.5q-4 -120 -8 -219q-2 -42 -3 -84t-2.5 -77.5t-2 -60.5t-0.5 -34q0 -52 14 -83t42.5 -47t70.5 -21t98 -5q80 0 136.5 10t96 37 t64.5 74.5t41 122.5h64q-4 -27 -12 -68t-20 -86.5t-27 -90.5t-34 -80q-106 3 -202.5 8.5t-176 10.5t-138.5 9t-89 4q-51 0 -108 -2t-131 -10l2 57q26 2 45.5 4t36.5 4t33 3t34 2l12 417q-22 0 -70 -0.5t-112 -3t-139 -7t-152 -11.5l-88 -152q-29 -51 -52 -98t-23 -82 q0 -26 15 -43t50 -22l59 -9l-2 -57q-54 6 -103 10t-103 4t-112.5 -4t-129.5 -10zM449 557h428l24 752h-16z" />
<glyph unicode="&#xc7;" horiz-adv-x="1411" d="M92 666q0 110 27 208.5t77.5 182t123 151t163 114.5t197 72t225.5 25q151 0 263 -17.5t198 -39.5l-29 -334h-61v16q0 51 -12.5 104.5t-50.5 97.5t-108.5 72t-186.5 28q-125 0 -240.5 -41t-204 -120.5t-141.5 -196t-53 -267.5q0 -113 28 -206t76 -167t112.5 -129 t138 -91.5t152 -54.5t154.5 -18q48 0 88 3t80.5 10.5t84.5 20t99 30.5l19 -58q-53 -26 -113.5 -43t-119.5 -27.5t-113.5 -15t-96.5 -4.5q-28 0 -55.5 2t-53.5 5l-16 -44q81 -14 124.5 -59t43.5 -108q0 -39 -18 -76.5t-49.5 -66.5t-76 -46.5t-96.5 -17.5q-49 0 -72.5 24.5 t-23.5 53.5q0 30 23 53q8 -6 24.5 -15t37.5 -17.5t44.5 -14.5t44.5 -6q18 0 36 5.5t31.5 16t22 25.5t8.5 34q0 37 -15.5 60.5t-43 37t-65.5 18.5t-84 5q6 13 14.5 31t16.5 38t16.5 40t14.5 37q-132 24 -244 83.5t-193 148t-126.5 202.5t-45.5 246z" />
<glyph unicode="&#xc8;" horiz-adv-x="1061" d="M61 0l2 57q26 2 46 4t37 4t33 3t34 2q10 293 18 530q3 101 6.5 199.5t6.5 178.5t4.5 134t1.5 66q0 45 -5.5 72.5t-17.5 43t-31 22.5t-46 11l-41 6v58q28 -4 71 -8q37 -3 93 -5t137 -2h241q40 0 78 0.5t77 2t81 4.5t90 8l-31 -338h-61q1 20 1.5 31.5t0.5 17.5v10v4 q0 33 -8.5 63t-33 53.5t-68 39t-113.5 20.5l-246 17q-8 -82 -12.5 -166.5t-6.5 -155.5l-7 -225l425 22l-10 -127q-60 8 -121.5 14t-117.5 10t-102.5 6.5t-76.5 4.5q-4 -120 -8 -219q-2 -42 -3 -84t-2.5 -77.5t-2 -60.5t-0.5 -34q0 -52 14 -83t42.5 -47t70.5 -21t98 -5 q80 0 136.5 10t96 37t64.5 74.5t41 122.5h63q-4 -27 -12 -68t-19.5 -86.5t-27 -90.5t-33.5 -80q-106 3 -202.5 8.5t-176 10.5t-138.5 9t-89 4q-51 0 -108 -2t-132 -10zM322 1759q25 31 46 63t40 64l358 -291l-39 -49z" />
<glyph unicode="&#xc9;" horiz-adv-x="1061" d="M61 0l2 57q26 2 46 4t37 4t33 3t34 2q10 293 18 530q3 101 6.5 199.5t6.5 178.5t4.5 134t1.5 66q0 45 -5.5 72.5t-17.5 43t-31 22.5t-46 11l-41 6v58q28 -4 71 -8q37 -3 93 -5t137 -2h241q40 0 78 0.5t77 2t81 4.5t90 8l-31 -338h-61q1 20 1.5 31.5t0.5 17.5v10v4 q0 33 -8.5 63t-33 53.5t-68 39t-113.5 20.5l-246 17q-8 -82 -12.5 -166.5t-6.5 -155.5l-7 -225l425 22l-10 -127q-60 8 -121.5 14t-117.5 10t-102.5 6.5t-76.5 4.5q-4 -120 -8 -219q-2 -42 -3 -84t-2.5 -77.5t-2 -60.5t-0.5 -34q0 -52 14 -83t42.5 -47t70.5 -21t98 -5 q80 0 136.5 10t96 37t64.5 74.5t41 122.5h63q-4 -27 -12 -68t-19.5 -86.5t-27 -90.5t-33.5 -80q-106 3 -202.5 8.5t-176 10.5t-138.5 9t-89 4q-51 0 -108 -2t-132 -10zM395 1591l342 301q20 -34 45 -64.5t53 -53.5l-403 -228z" />
<glyph unicode="&#xca;" horiz-adv-x="1061" d="M61 0l2 57q26 2 46 4t37 4t33 3t34 2q10 293 18 530q3 101 6.5 199.5t6.5 178.5t4.5 134t1.5 66q0 45 -5.5 72.5t-17.5 43t-31 22.5t-46 11l-41 6v58q28 -4 71 -8q37 -3 93 -5t137 -2h241q40 0 78 0.5t77 2t81 4.5t90 8l-31 -338h-61q1 20 1.5 31.5t0.5 17.5v10v4 q0 33 -8.5 63t-33 53.5t-68 39t-113.5 20.5l-246 17q-8 -82 -12.5 -166.5t-6.5 -155.5l-7 -225l425 22l-10 -127q-60 8 -121.5 14t-117.5 10t-102.5 6.5t-76.5 4.5q-4 -120 -8 -219q-2 -42 -3 -84t-2.5 -77.5t-2 -60.5t-0.5 -34q0 -52 14 -83t42.5 -47t70.5 -21t98 -5 q80 0 136.5 10t96 37t64.5 74.5t41 122.5h63q-4 -27 -12 -68t-19.5 -86.5t-27 -90.5t-33.5 -80q-106 3 -202.5 8.5t-176 10.5t-138.5 9t-89 4q-51 0 -108 -2t-132 -10zM257 1587l350 305l328 -305l-43 -41l-291 178l-305 -178z" />
<glyph unicode="&#xcb;" horiz-adv-x="1061" d="M61 0l2 57q26 2 46 4t37 4t33 3t34 2q10 293 18 530q3 101 6.5 199.5t6.5 178.5t4.5 134t1.5 66q0 45 -5.5 72.5t-17.5 43t-31 22.5t-46 11l-41 6v58q28 -4 71 -8q37 -3 93 -5t137 -2h241q40 0 78 0.5t77 2t81 4.5t90 8l-31 -338h-61q1 20 1.5 31.5t0.5 17.5v10v4 q0 33 -8.5 63t-33 53.5t-68 39t-113.5 20.5l-246 17q-8 -82 -12.5 -166.5t-6.5 -155.5l-7 -225l425 22l-10 -127q-60 8 -121.5 14t-117.5 10t-102.5 6.5t-76.5 4.5q-4 -120 -8 -219q-2 -42 -3 -84t-2.5 -77.5t-2 -60.5t-0.5 -34q0 -52 14 -83t42.5 -47t70.5 -21t98 -5 q80 0 136.5 10t96 37t64.5 74.5t41 122.5h63q-4 -27 -12 -68t-19.5 -86.5t-27 -90.5t-33.5 -80q-106 3 -202.5 8.5t-176 10.5t-138.5 9t-89 4q-51 0 -108 -2t-132 -10zM298 1661q0 27 8.5 46.5t22.5 31.5t31.5 18t36.5 6q18 0 36 -6t31.5 -18t22 -31.5t8.5 -46.5 q0 -51 -28 -83t-70 -32t-70.5 32t-28.5 83zM667 1661q0 27 8.5 46.5t22 31.5t31.5 18t36 6t36 -6t31.5 -18t22 -31.5t8.5 -46.5q0 -51 -28 -83t-70 -32t-70 32t-28 83z" />
<glyph unicode="&#xcc;" horiz-adv-x="614" d="M61 0v57q26 2 46 4t37 4t33 3t34 2q5 133 9.5 263t8.5 249t8 222t7 182t4.5 130t1.5 66q0 43 -6.5 70t-19 42.5t-31.5 22t-43 10.5l-44 6v58q22 -4 53 -8q26 -3 63.5 -5t88.5 -2t112.5 3.5t135.5 11.5v-58q-26 -2 -46 -4t-36.5 -3.5t-32.5 -2.5t-34 -2 q-5 -133 -9.5 -263.5t-9 -249t-8 -222t-6.5 -182.5t-4.5 -130t-1.5 -65q0 -44 6.5 -71t19 -42.5t31.5 -22.5t43 -10l43 -6v-57q-22 3 -53 7q-26 2 -64 4.5t-88 2.5q-51 0 -112 -3t-136 -11zM-54 1759q25 31 46 63t40 64l358 -291l-39 -49z" />
<glyph unicode="&#xcd;" horiz-adv-x="614" d="M61 0v57q26 2 46 4t37 4t33 3t34 2q5 133 9.5 263t8.5 249t8 222t7 182t4.5 130t1.5 66q0 43 -6.5 70t-19 42.5t-31.5 22t-43 10.5l-44 6v58q22 -4 53 -8q26 -3 63.5 -5t88.5 -2t112.5 3.5t135.5 11.5v-58q-26 -2 -46 -4t-36.5 -3.5t-32.5 -2.5t-34 -2 q-5 -133 -9.5 -263.5t-9 -249t-8 -222t-6.5 -182.5t-4.5 -130t-1.5 -65q0 -44 6.5 -71t19 -42.5t31.5 -22.5t43 -10l43 -6v-57q-22 3 -53 7q-26 2 -64 4.5t-88 2.5q-51 0 -112 -3t-136 -11zM253 1591l342 301q20 -34 45 -64.5t53 -53.5l-403 -228z" />
<glyph unicode="&#xce;" horiz-adv-x="614" d="M61 0v57q26 2 46 4t37 4t33 3t34 2q5 133 9.5 263t8.5 249t8 222t7 182t4.5 130t1.5 66q0 43 -6.5 70t-19 42.5t-31.5 22t-43 10.5l-44 6v58q22 -4 53 -8q26 -3 63.5 -5t88.5 -2t112.5 3.5t135.5 11.5v-58q-26 -2 -46 -4t-36.5 -3.5t-32.5 -2.5t-34 -2 q-5 -133 -9.5 -263.5t-9 -249t-8 -222t-6.5 -182.5t-4.5 -130t-1.5 -65q0 -44 6.5 -71t19 -42.5t31.5 -22.5t43 -10l43 -6v-57q-22 3 -53 7q-26 2 -64 4.5t-88 2.5q-51 0 -112 -3t-136 -11zM9 1587l350 305l328 -305l-43 -41l-291 178l-305 -178z" />
<glyph unicode="&#xcf;" horiz-adv-x="614" d="M61 0v57q26 2 46 4t37 4t33 3t34 2q5 133 9.5 263t8.5 249t8 222t7 182t4.5 130t1.5 66q0 43 -6.5 70t-19 42.5t-31.5 22t-43 10.5l-44 6v58q22 -4 53 -8q26 -3 63.5 -5t88.5 -2t112.5 3.5t135.5 11.5v-58q-26 -2 -46 -4t-36.5 -3.5t-32.5 -2.5t-34 -2 q-5 -133 -9.5 -263.5t-9 -249t-8 -222t-6.5 -182.5t-4.5 -130t-1.5 -65q0 -44 6.5 -71t19 -42.5t31.5 -22.5t43 -10l43 -6v-57q-22 3 -53 7q-26 2 -64 4.5t-88 2.5q-51 0 -112 -3t-136 -11zM70 1661q0 27 8.5 46.5t22.5 31.5t31.5 18t36.5 6q18 0 36 -6t31.5 -18t22 -31.5 t8.5 -46.5q0 -51 -28 -83t-70 -32t-70.5 32t-28.5 83zM439 1661q0 27 8.5 46.5t22 31.5t31.5 18t36 6t36 -6t31.5 -18t22 -31.5t8.5 -46.5q0 -51 -28 -83t-70 -32t-70 32t-28 83z" />
<glyph unicode="&#xd0;" horiz-adv-x="1640" d="M8 659l4 103h298q1 18 1 37q4 98 7 178t4.5 133.5t1.5 65.5q0 46 -6 74t-18 43.5t-31 22.5t-44 11l-43 6v58q30 -4 64 -8q29 -3 67.5 -5t81.5 -2q55 0 111 4t113.5 8.5t118.5 8.5t126 4q154 0 280.5 -50t217 -142t140.5 -221t50 -286q0 -72 -15.5 -152.5t-51 -160 t-94 -152t-143.5 -128t-200 -88.5t-264 -33q-46 0 -93 3.5t-96 8t-99 8.5t-101 4q-48 0 -112 -1.5t-146 -10.5v57q26 2 46 4t37 4t33 3t34 2q10 293 18 530q1 40 2 79q-74 -4 -147 -8q-79 -5 -152 -12zM449 221q0 -48 10 -80.5t38.5 -52t81 -27.5t138.5 -8q51 0 118.5 8 t140 31t142.5 65.5t125 112.5t89 170.5t34 239.5q0 74 -11.5 150.5t-39.5 148.5t-75.5 135.5t-119 110.5t-169.5 74.5t-228 27.5q-34 0 -68 -0.5t-65.5 -2t-58.5 -3.5t-46 -4q-10 -293 -18 -529q-1 -13 -1 -26h365l-2 -70q-35 0 -89.5 -0.5t-121.5 -2t-144 -4.5h-10l-4 -96 q-3 -97 -5.5 -175.5t-4 -131t-1.5 -61.5z" />
<glyph unicode="&#xd1;" horiz-adv-x="1616" d="M51 0v57q26 2 46 4t37 4t33 3t34 2l26 772q3 71 3.5 135t0.5 123q0 94 -2.5 167.5t-5.5 123.5l82 30l981 -1178q3 87 6.5 187t6.5 199.5t6 192.5t5 168.5t3.5 126t1.5 65.5q0 43 -6 70t-18.5 42.5t-31 22t-42.5 10.5l-43 6v58q14 -4 38 -8q20 -3 51 -5t76 -2t102.5 3.5 t131.5 11.5v-58q-26 -2 -46 -4t-36.5 -3.5t-32.5 -2.5t-35 -2l-22 -643q-1 -27 -2 -72t-2.5 -94.5t-2.5 -98.5t-1 -83v-84q0 -40 0.5 -79t2 -79.5t3.5 -87.5l-86 -29l-981 1164q-2 -85 -4.5 -182.5t-5 -196t-5 -191t-4.5 -167t-3 -125t-1 -64.5q0 -44 6 -70.5t18 -42 t30.5 -22.5t44.5 -11l43 -6v-57q-15 3 -39 7q-20 2 -51 4.5t-76 2.5t-102 -3t-132 -11zM487 1567q10 39 28.5 83t47.5 81.5t69.5 62.5t96.5 25q49 0 94 -27t94 -66q26 -21 44.5 -36t33.5 -25t28.5 -15t28.5 -5q25 0 46 18.5t37.5 45.5t28.5 57t20 53l55 -21 q-10 -39 -28.5 -83.5t-47.5 -82t-70 -62t-96 -24.5q-49 0 -94 27t-94 65q-26 21 -44.5 36.5t-33.5 25.5t-28.5 15t-28.5 5q-26 0 -46.5 -18.5t-37 -45.5t-28.5 -57t-20 -53z" />
<glyph unicode="&#xd2;" d="M92 690q0 157 54 291t152 231t235.5 152t304.5 55q102 0 189 -27.5t158 -76t126 -114.5t92.5 -142.5t56.5 -161.5t19 -170q0 -167 -54 -305.5t-147 -239t-216 -156t-261 -55.5q-119 0 -217.5 28.5t-177.5 79t-138 119t-98 148.5t-58.5 167.5t-19.5 176.5zM276 711 q0 -130 35.5 -250t103 -212.5t165.5 -148t223 -55.5q120 0 211.5 48t152.5 131.5t92 195t31 239.5q0 144 -36.5 269.5t-102.5 218.5t-157.5 146t-200.5 53q-57 0 -117 -12.5t-117.5 -42t-109 -77.5t-90 -118.5t-61 -165.5t-22.5 -219zM502 1759q25 31 46 63t40 64l358 -291 l-39 -49z" />
<glyph unicode="&#xd3;" d="M92 690q0 157 54 291t152 231t235.5 152t304.5 55q102 0 189 -27.5t158 -76t126 -114.5t92.5 -142.5t56.5 -161.5t19 -170q0 -167 -54 -305.5t-147 -239t-216 -156t-261 -55.5q-119 0 -217.5 28.5t-177.5 79t-138 119t-98 148.5t-58.5 167.5t-19.5 176.5zM276 711 q0 -130 35.5 -250t103 -212.5t165.5 -148t223 -55.5q120 0 211.5 48t152.5 131.5t92 195t31 239.5q0 144 -36.5 269.5t-102.5 218.5t-157.5 146t-200.5 53q-57 0 -117 -12.5t-117.5 -42t-109 -77.5t-90 -118.5t-61 -165.5t-22.5 -219zM688 1591l342 301q20 -34 45 -64.5 t53 -53.5l-403 -228z" />
<glyph unicode="&#xd4;" d="M92 690q0 157 54 291t152 231t235.5 152t304.5 55q102 0 189 -27.5t158 -76t126 -114.5t92.5 -142.5t56.5 -161.5t19 -170q0 -167 -54 -305.5t-147 -239t-216 -156t-261 -55.5q-119 0 -217.5 28.5t-177.5 79t-138 119t-98 148.5t-58.5 167.5t-19.5 176.5zM276 711 q0 -130 35.5 -250t103 -212.5t165.5 -148t223 -55.5q120 0 211.5 48t152.5 131.5t92 195t31 239.5q0 144 -36.5 269.5t-102.5 218.5t-157.5 146t-200.5 53q-57 0 -117 -12.5t-117.5 -42t-109 -77.5t-90 -118.5t-61 -165.5t-22.5 -219zM487 1587l350 305l328 -305l-43 -41 l-291 178l-305 -178z" />
<glyph unicode="&#xd5;" d="M92 690q0 157 54 291t152 231t235.5 152t304.5 55q102 0 189 -27.5t158 -76t126 -114.5t92.5 -142.5t56.5 -161.5t19 -170q0 -167 -54 -305.5t-147 -239t-216 -156t-261 -55.5q-119 0 -217.5 28.5t-177.5 79t-138 119t-98 148.5t-58.5 167.5t-19.5 176.5zM276 711 q0 -130 35.5 -250t103 -212.5t165.5 -148t223 -55.5q120 0 211.5 48t152.5 131.5t92 195t31 239.5q0 144 -36.5 269.5t-102.5 218.5t-157.5 146t-200.5 53q-57 0 -117 -12.5t-117.5 -42t-109 -77.5t-90 -118.5t-61 -165.5t-22.5 -219zM452 1567q10 39 28.5 83t47.5 81.5 t69.5 62.5t96.5 25q49 0 94 -27t94 -66q26 -21 44.5 -36t33.5 -25t28.5 -15t28.5 -5q25 0 46 18.5t37.5 45.5t28.5 57t20 53l55 -21q-10 -39 -28.5 -83.5t-47.5 -82t-70 -62t-96 -24.5q-49 0 -94 27t-94 65q-26 21 -44.5 36.5t-33.5 25.5t-28.5 15t-28.5 5 q-26 0 -46.5 -18.5t-37 -45.5t-28.5 -57t-20 -53z" />
<glyph unicode="&#xd6;" d="M92 690q0 157 54 291t152 231t235.5 152t304.5 55q102 0 189 -27.5t158 -76t126 -114.5t92.5 -142.5t56.5 -161.5t19 -170q0 -167 -54 -305.5t-147 -239t-216 -156t-261 -55.5q-119 0 -217.5 28.5t-177.5 79t-138 119t-98 148.5t-58.5 167.5t-19.5 176.5zM276 711 q0 -130 35.5 -250t103 -212.5t165.5 -148t223 -55.5q120 0 211.5 48t152.5 131.5t92 195t31 239.5q0 144 -36.5 269.5t-102.5 218.5t-157.5 146t-200.5 53q-57 0 -117 -12.5t-117.5 -42t-109 -77.5t-90 -118.5t-61 -165.5t-22.5 -219zM538 1661q0 27 8.5 46.5t22.5 31.5 t31.5 18t36.5 6q18 0 36 -6t31.5 -18t22 -31.5t8.5 -46.5q0 -51 -28 -83t-70 -32t-70.5 32t-28.5 83zM907 1661q0 27 8.5 46.5t22 31.5t31.5 18t36 6t36 -6t31.5 -18t22 -31.5t8.5 -46.5q0 -51 -28 -83t-70 -32t-70 32t-28 83z" />
<glyph unicode="&#xd7;" horiz-adv-x="1069" d="M125 305l342 342l-342 342l70 70l342 -342l342 342l69 -70l-342 -342l342 -342l-69 -69l-342 342l-342 -342z" />
<glyph unicode="&#xd8;" d="M92 690q0 157 54 291t152 231t235.5 152t304.5 55q100 0 184 -26t155 -72l121 182l66 -45l-124 -185q58 -50 102.5 -113t75 -133.5t46 -147t15.5 -152.5q0 -167 -54 -305.5t-147 -239t-216 -156t-261 -55.5q-111 0 -203 24t-168 69l-156 -234l-61 41l155 233 q-69 52 -121 118.5t-86.5 143t-51.5 159t-17 165.5zM276 711q0 -144 41.5 -274.5t121.5 -226.5l665 1001q-63 68 -141.5 105.5t-169.5 37.5q-57 0 -117 -12.5t-117.5 -42t-109 -78t-90 -120t-61 -168t-22.5 -222.5zM492 155q62 -56 139.5 -87t171.5 -31q120 0 211.5 49 t152.5 133t92 197.5t31 242.5q0 144 -35.5 268.5t-99.5 218.5z" />
<glyph unicode="&#xd9;" horiz-adv-x="1501" d="M78 1333v58q22 -4 53 -8q26 -3 63.5 -5t88.5 -2t112 3.5t135 11.5v-58q-26 -2 -45.5 -4t-36.5 -3.5t-33 -2.5t-34 -2q-7 -177 -12 -305.5t-8 -219t-5 -148.5t-2.5 -93.5t-1 -54t-0.5 -29.5q0 -206 98.5 -310t309.5 -104q205 0 313 118t117 360q11 282 16.5 442.5 t5.5 204.5q0 43 -6 70t-18 42.5t-30.5 22t-43.5 10.5l-43 6v58q19 -4 47 -8q24 -3 59.5 -5t84.5 -2q48 0 107.5 3.5t133.5 11.5v-58q-26 -2 -45.5 -4t-36.5 -3.5t-33 -2.5t-34 -2l-68 -801q-12 -133 -50 -235.5t-104.5 -172t-163 -105.5t-223.5 -36q-125 0 -227 26 t-174 79.5t-111.5 134t-39.5 190.5q0 21 1 63.5t3 98t4.5 120t5.5 129.5t5.5 127t4.5 112.5t3 85t1 45.5q0 43 -6.5 70t-19 42.5t-31.5 22t-43 10.5zM506 1759q25 31 46 63t40 64l358 -291l-39 -49z" />
<glyph unicode="&#xda;" horiz-adv-x="1501" d="M78 1333v58q22 -4 53 -8q26 -3 63.5 -5t88.5 -2t112 3.5t135 11.5v-58q-26 -2 -45.5 -4t-36.5 -3.5t-33 -2.5t-34 -2q-7 -177 -12 -305.5t-8 -219t-5 -148.5t-2.5 -93.5t-1 -54t-0.5 -29.5q0 -206 98.5 -310t309.5 -104q205 0 313 118t117 360q11 282 16.5 442.5 t5.5 204.5q0 43 -6 70t-18 42.5t-30.5 22t-43.5 10.5l-43 6v58q19 -4 47 -8q24 -3 59.5 -5t84.5 -2q48 0 107.5 3.5t133.5 11.5v-58q-26 -2 -45.5 -4t-36.5 -3.5t-33 -2.5t-34 -2l-68 -801q-12 -133 -50 -235.5t-104.5 -172t-163 -105.5t-223.5 -36q-125 0 -227 26 t-174 79.5t-111.5 134t-39.5 190.5q0 21 1 63.5t3 98t4.5 120t5.5 129.5t5.5 127t4.5 112.5t3 85t1 45.5q0 43 -6.5 70t-19 42.5t-31.5 22t-43 10.5zM672 1591l342 301q20 -34 45 -64.5t53 -53.5l-403 -228z" />
<glyph unicode="&#xdb;" horiz-adv-x="1501" d="M78 1333v58q22 -4 53 -8q26 -3 63.5 -5t88.5 -2t112 3.5t135 11.5v-58q-26 -2 -45.5 -4t-36.5 -3.5t-33 -2.5t-34 -2q-7 -177 -12 -305.5t-8 -219t-5 -148.5t-2.5 -93.5t-1 -54t-0.5 -29.5q0 -206 98.5 -310t309.5 -104q205 0 313 118t117 360q11 282 16.5 442.5 t5.5 204.5q0 43 -6 70t-18 42.5t-30.5 22t-43.5 10.5l-43 6v58q19 -4 47 -8q24 -3 59.5 -5t84.5 -2q48 0 107.5 3.5t133.5 11.5v-58q-26 -2 -45.5 -4t-36.5 -3.5t-33 -2.5t-34 -2l-68 -801q-12 -133 -50 -235.5t-104.5 -172t-163 -105.5t-223.5 -36q-125 0 -227 26 t-174 79.5t-111.5 134t-39.5 190.5q0 21 1 63.5t3 98t4.5 120t5.5 129.5t5.5 127t4.5 112.5t3 85t1 45.5q0 43 -6.5 70t-19 42.5t-31.5 22t-43 10.5zM471 1587l350 305l328 -305l-43 -41l-291 178l-305 -178z" />
<glyph unicode="&#xdc;" horiz-adv-x="1501" d="M78 1333v58q22 -4 53 -8q26 -3 63.5 -5t88.5 -2t112 3.5t135 11.5v-58q-26 -2 -45.5 -4t-36.5 -3.5t-33 -2.5t-34 -2q-7 -177 -12 -305.5t-8 -219t-5 -148.5t-2.5 -93.5t-1 -54t-0.5 -29.5q0 -206 98.5 -310t309.5 -104q205 0 313 118t117 360q11 282 16.5 442.5 t5.5 204.5q0 43 -6 70t-18 42.5t-30.5 22t-43.5 10.5l-43 6v58q19 -4 47 -8q24 -3 59.5 -5t84.5 -2q48 0 107.5 3.5t133.5 11.5v-58q-26 -2 -45.5 -4t-36.5 -3.5t-33 -2.5t-34 -2l-68 -801q-12 -133 -50 -235.5t-104.5 -172t-163 -105.5t-223.5 -36q-125 0 -227 26 t-174 79.5t-111.5 134t-39.5 190.5q0 21 1 63.5t3 98t4.5 120t5.5 129.5t5.5 127t4.5 112.5t3 85t1 45.5q0 43 -6.5 70t-19 42.5t-31.5 22t-43 10.5zM528 1661q0 27 8.5 46.5t22.5 31.5t31.5 18t36.5 6q18 0 36 -6t31.5 -18t22 -31.5t8.5 -46.5q0 -51 -28 -83t-70 -32 t-70.5 32t-28.5 83zM897 1661q0 27 8.5 46.5t22 31.5t31.5 18t36 6t36 -6t31.5 -18t22 -31.5t8.5 -46.5q0 -51 -28 -83t-70 -32t-70 32t-28 83z" />
<glyph unicode="&#xdd;" horiz-adv-x="1255" d="M-16 1331v58q25 -4 58 -8q29 -3 69.5 -5t93.5 -2q52 0 114.5 3.5t137.5 11.5v-58q-26 -2 -46 -4t-37 -3.5t-33 -2.5t-34 -2l352 -623h17l256 441q49 88 49 129q0 28 -18.5 41t-49.5 18l-43 6v58q19 -4 47 -8q24 -3 59.5 -5t84.5 -2q48 0 108.5 3.5t135.5 11.5v-58 q-26 -2 -46 -4t-37 -3.5t-33 -2.5t-34 -2l-446 -729q-5 -157 -8 -245.5t-3 -119.5q0 -49 5.5 -79t17.5 -47t31 -24.5t45 -11.5l43 -6v-57q-22 3 -53 7q-26 2 -64 4.5t-88 2.5q-51 0 -112.5 -3t-135.5 -11v57q26 2 46 4t36.5 4t32.5 3t35 2l12 536l-307 531q-31 54 -58 88.5 t-53 55.5t-51.5 30.5t-52.5 13.5zM510 1591l342 301q20 -34 45 -64.5t53 -53.5l-403 -228z" />
<glyph unicode="&#xde;" horiz-adv-x="1090" d="M61 0v57q26 2 46 4t37 4t33 3t34 2q5 133 9.5 263.5t8.5 249.5t8 222t7 182.5t4.5 130t1.5 64.5q0 43 -6.5 70t-19 42.5t-31.5 22t-43 10.5l-44 6v58q22 -4 53 -8q26 -3 63.5 -5t88.5 -2t112.5 3.5t135.5 11.5v-58q-26 -2 -46 -4t-36.5 -3.5t-32.5 -2.5t-34 -2l-9 -211 q36 3 80.5 6.5t112.5 3.5q114 0 197 -31.5t136.5 -84.5t79 -123t25.5 -148q0 -90 -36 -167.5t-97 -134t-142 -88.5t-171 -32q-60 0 -99 11l2 51q34 -6 68 -6q70 0 128 27.5t99.5 74t64.5 107t23 126.5q0 82 -22 147t-67 111t-112 70.5t-157 24.5q-34 0 -61.5 -3t-53.5 -8 q-2 -63 -4.5 -145.5t-5.5 -170.5t-6 -174t-5 -157.5t-3.5 -121.5t-1.5 -64q0 -44 5.5 -71t17.5 -43t30.5 -23t44.5 -11l43 -6v-57q-22 3 -53 7q-26 2 -64 4.5t-88 2.5q-51 0 -112 -3t-136 -11z" />
<glyph unicode="&#xdf;" horiz-adv-x="1202" d="M31 774l4 103h190q2 46 4 89.5t4 84.5q1 22 11.5 68.5t33.5 102t60 114.5t91 107.5t126.5 79.5t167.5 31q78 0 137 -19t102 -50.5t71.5 -72.5t45.5 -85.5t24 -89.5t7 -84q0 -65 -10.5 -126.5t-38.5 -121.5q-50 31 -95.5 45.5t-101.5 14.5q-31 0 -59 -11.5t-49.5 -32.5 t-34 -49.5t-12.5 -62.5q0 -41 16.5 -74.5t44 -63t63.5 -57t74 -55.5q48 -35 91.5 -69.5t76.5 -73t52.5 -82.5t19.5 -98q0 -47 -19.5 -93t-60.5 -82t-105.5 -58.5t-154.5 -22.5q-59 0 -108 10t-84.5 29t-55.5 47t-20 63q0 54 35.5 85.5t91.5 33.5v-19q0 -45 13.5 -81.5 t37 -62t56 -39t71.5 -13.5q32 0 63.5 9.5t56 29.5t39.5 51t15 74q0 39 -13.5 71.5t-35.5 59.5t-49 50t-54 44q-45 35 -89 66t-78.5 65t-56 76t-21.5 100q0 62 22.5 119t62 100t93 68.5t116.5 25.5q8 0 18.5 -0.5t27.5 -3.5q14 25 23 68.5t9 103.5q0 55 -14.5 106.5 t-47.5 90.5t-86 62.5t-130 23.5q-79 0 -136.5 -26t-97.5 -71t-65.5 -105.5t-40.5 -128.5t-21.5 -141.5t-9.5 -143.5q-4 -92 -7 -184.5t-5.5 -177t-4 -156t-1.5 -121.5q0 -59 4.5 -96.5t19 -58.5t41.5 -28.5t72 -7.5h37v-47q-48 -2 -90 -3t-82 -4t-81 -8.5t-87 -17.5 q11 94 20 197t16.5 208.5t13.5 211t11 204.5q-50 -3 -97.5 -6.5t-92.5 -7.5z" />
<glyph unicode="&#xe0;" horiz-adv-x="924" d="M55 156q0 59 30.5 102t79 74t108.5 51t120 32t113.5 17.5t87.5 7.5q5 45 6.5 87t1.5 79q0 47 -7 90t-27 76t-55.5 52.5t-92.5 19.5q-40 0 -74 -15t-58.5 -40.5t-38 -60t-13.5 -73.5q0 -15 2.5 -30.5t7.5 -32.5q-11 -13 -30.5 -20t-39.5 -7q-15 0 -29 4.5t-25 14.5 t-17.5 26t-6.5 39q0 56 38.5 102t97 78.5t127.5 50t131 17.5q118 0 184.5 -54t66.5 -179q0 -54 -4.5 -118.5t-10.5 -127.5t-10.5 -119.5t-4.5 -93.5q0 -63 15.5 -98t47.5 -35q19 0 38 11.5t36 27t30 32t21 25.5l37 -31q-35 -49 -65 -79.5t-57 -48t-52 -23.5t-49 -6 q-37 0 -64 14.5t-44.5 38.5t-27 55t-10.5 64q-20 -33 -47 -64t-63 -55t-82 -38.5t-103 -14.5q-68 0 -111 17.5t-67 44t-32.5 57.5t-8.5 57zM203 176q0 -38 12.5 -61.5t31.5 -37.5t40 -19t39 -5q64 0 109.5 28.5t76 75.5t49 107.5t27.5 124.5q-34 -3 -76 -7t-84.5 -12.5 t-83 -23t-72 -37.5t-50.5 -55.5t-19 -77.5zM206 1444q34 25 63.5 49.5t55.5 50.5l270 -373l-49 -38z" />
<glyph unicode="&#xe1;" horiz-adv-x="924" d="M55 156q0 59 30.5 102t79 74t108.5 51t120 32t113.5 17.5t87.5 7.5q5 45 6.5 87t1.5 79q0 47 -7 90t-27 76t-55.5 52.5t-92.5 19.5q-40 0 -74 -15t-58.5 -40.5t-38 -60t-13.5 -73.5q0 -15 2.5 -30.5t7.5 -32.5q-11 -13 -30.5 -20t-39.5 -7q-15 0 -29 4.5t-25 14.5 t-17.5 26t-6.5 39q0 56 38.5 102t97 78.5t127.5 50t131 17.5q118 0 184.5 -54t66.5 -179q0 -54 -4.5 -118.5t-10.5 -127.5t-10.5 -119.5t-4.5 -93.5q0 -63 15.5 -98t47.5 -35q19 0 38 11.5t36 27t30 32t21 25.5l37 -31q-35 -49 -65 -79.5t-57 -48t-52 -23.5t-49 -6 q-37 0 -64 14.5t-44.5 38.5t-27 55t-10.5 64q-20 -33 -47 -64t-63 -55t-82 -38.5t-103 -14.5q-68 0 -111 17.5t-67 44t-32.5 57.5t-8.5 57zM203 176q0 -38 12.5 -61.5t31.5 -37.5t40 -19t39 -5q64 0 109.5 28.5t76 75.5t49 107.5t27.5 124.5q-34 -3 -76 -7t-84.5 -12.5 t-83 -23t-72 -37.5t-50.5 -55.5t-19 -77.5zM360 1165l251 379q28 -28 60.5 -50t64.5 -38l-329 -323z" />
<glyph unicode="&#xe2;" horiz-adv-x="924" d="M55 156q0 59 30.5 102t79 74t108.5 51t120 32t113.5 17.5t87.5 7.5q5 45 6.5 87t1.5 79q0 47 -7 90t-27 76t-55.5 52.5t-92.5 19.5q-40 0 -74 -15t-58.5 -40.5t-38 -60t-13.5 -73.5q0 -15 2.5 -30.5t7.5 -32.5q-11 -13 -30.5 -20t-39.5 -7q-15 0 -29 4.5t-25 14.5 t-17.5 26t-6.5 39q0 56 38.5 102t97 78.5t127.5 50t131 17.5q118 0 184.5 -54t66.5 -179q0 -54 -4.5 -118.5t-10.5 -127.5t-10.5 -119.5t-4.5 -93.5q0 -63 15.5 -98t47.5 -35q19 0 38 11.5t36 27t30 32t21 25.5l37 -31q-35 -49 -65 -79.5t-57 -48t-52 -23.5t-49 -6 q-37 0 -64 14.5t-44.5 38.5t-27 55t-10.5 64q-20 -33 -47 -64t-63 -55t-82 -38.5t-103 -14.5q-68 0 -111 17.5t-67 44t-32.5 57.5t-8.5 57zM203 176q0 -38 12.5 -61.5t31.5 -37.5t40 -19t39 -5q64 0 109.5 28.5t76 75.5t49 107.5t27.5 124.5q-34 -3 -76 -7t-84.5 -12.5 t-83 -23t-72 -37.5t-50.5 -55.5t-19 -77.5zM140 1174l352 370l326 -370l-43 -41l-289 243l-307 -243z" />
<glyph unicode="&#xe3;" horiz-adv-x="924" d="M55 156q0 59 30.5 102t79 74t108.5 51t120 32t113.5 17.5t87.5 7.5q5 45 6.5 87t1.5 79q0 47 -7 90t-27 76t-55.5 52.5t-92.5 19.5q-40 0 -74 -15t-58.5 -40.5t-38 -60t-13.5 -73.5q0 -15 2.5 -30.5t7.5 -32.5q-11 -13 -30.5 -20t-39.5 -7q-15 0 -29 4.5t-25 14.5 t-17.5 26t-6.5 39q0 56 38.5 102t97 78.5t127.5 50t131 17.5q118 0 184.5 -54t66.5 -179q0 -54 -4.5 -118.5t-10.5 -127.5t-10.5 -119.5t-4.5 -93.5q0 -63 15.5 -98t47.5 -35q19 0 38 11.5t36 27t30 32t21 25.5l37 -31q-35 -49 -65 -79.5t-57 -48t-52 -23.5t-49 -6 q-37 0 -64 14.5t-44.5 38.5t-27 55t-10.5 64q-20 -33 -47 -64t-63 -55t-82 -38.5t-103 -14.5q-68 0 -111 17.5t-67 44t-32.5 57.5t-8.5 57zM203 176q0 -38 12.5 -61.5t31.5 -37.5t40 -19t39 -5q64 0 109.5 28.5t76 75.5t49 107.5t27.5 124.5q-34 -3 -76 -7t-84.5 -12.5 t-83 -23t-72 -37.5t-50.5 -55.5t-19 -77.5zM111 1153q10 39 28.5 83t47.5 81.5t70 62.5t96 25q50 0 94.5 -27t94.5 -65q26 -21 44.5 -36.5t33.5 -25.5t28.5 -15t28.5 -5q25 0 45.5 18.5t37 45.5t28.5 57t20 53l55 -21q-10 -39 -28.5 -83t-47.5 -81.5t-70 -62t-96 -24.5 q-49 0 -94 27t-94 65q-26 21 -44.5 36t-33.5 25.5t-28.5 15.5t-28.5 5q-26 0 -46.5 -18.5t-37 -45.5t-28.5 -57t-19 -53z" />
<glyph unicode="&#xe4;" horiz-adv-x="924" d="M55 156q0 59 30.5 102t79 74t108.5 51t120 32t113.5 17.5t87.5 7.5q5 45 6.5 87t1.5 79q0 47 -7 90t-27 76t-55.5 52.5t-92.5 19.5q-40 0 -74 -15t-58.5 -40.5t-38 -60t-13.5 -73.5q0 -15 2.5 -30.5t7.5 -32.5q-11 -13 -30.5 -20t-39.5 -7q-15 0 -29 4.5t-25 14.5 t-17.5 26t-6.5 39q0 56 38.5 102t97 78.5t127.5 50t131 17.5q118 0 184.5 -54t66.5 -179q0 -54 -4.5 -118.5t-10.5 -127.5t-10.5 -119.5t-4.5 -93.5q0 -63 15.5 -98t47.5 -35q19 0 38 11.5t36 27t30 32t21 25.5l37 -31q-35 -49 -65 -79.5t-57 -48t-52 -23.5t-49 -6 q-37 0 -64 14.5t-44.5 38.5t-27 55t-10.5 64q-20 -33 -47 -64t-63 -55t-82 -38.5t-103 -14.5q-68 0 -111 17.5t-67 44t-32.5 57.5t-8.5 57zM203 176q0 -38 12.5 -61.5t31.5 -37.5t40 -19t39 -5q64 0 109.5 28.5t76 75.5t49 107.5t27.5 124.5q-34 -3 -76 -7t-84.5 -12.5 t-83 -23t-72 -37.5t-50.5 -55.5t-19 -77.5zM191 1235q0 23 7 44t20.5 36.5t32.5 25t43 9.5q38 0 66 -27t28 -80q0 -23 -7 -44t-19.5 -36.5t-31.5 -25t-43 -9.5q-40 0 -68 26.5t-28 80.5zM562 1235q0 23 7 44t20.5 36.5t32 25t42.5 9.5q38 0 66 -27t28 -80q0 -23 -6.5 -44 t-19.5 -36.5t-31.5 -25t-42.5 -9.5q-40 0 -68 26.5t-28 80.5z" />
<glyph unicode="&#xe5;" horiz-adv-x="924" d="M55 156q0 59 30.5 102t79 74t108.5 51t120 32t113.5 17.5t87.5 7.5q5 45 6.5 87t1.5 79q0 47 -7 90t-27 76t-55.5 52.5t-92.5 19.5q-40 0 -74 -15t-58.5 -40.5t-38 -60t-13.5 -73.5q0 -15 2.5 -30.5t7.5 -32.5q-11 -13 -30.5 -20t-39.5 -7q-15 0 -29 4.5t-25 14.5 t-17.5 26t-6.5 39q0 56 38.5 102t97 78.5t127.5 50t131 17.5q118 0 184.5 -54t66.5 -179q0 -54 -4.5 -118.5t-10.5 -127.5t-10.5 -119.5t-4.5 -93.5q0 -63 15.5 -98t47.5 -35q19 0 38 11.5t36 27t30 32t21 25.5l37 -31q-35 -49 -65 -79.5t-57 -48t-52 -23.5t-49 -6 q-37 0 -64 14.5t-44.5 38.5t-27 55t-10.5 64q-20 -33 -47 -64t-63 -55t-82 -38.5t-103 -14.5q-68 0 -111 17.5t-67 44t-32.5 57.5t-8.5 57zM203 176q0 -38 12.5 -61.5t31.5 -37.5t40 -19t39 -5q64 0 109.5 28.5t76 75.5t49 107.5t27.5 124.5q-34 -3 -76 -7t-84.5 -12.5 t-83 -23t-72 -37.5t-50.5 -55.5t-19 -77.5zM280 1309q0 40 16 76.5t45 65t71 45.5t93 17q48 0 83.5 -13.5t58 -37t33.5 -53.5t11 -63q0 -45 -18 -84t-48.5 -67.5t-71 -45t-85.5 -16.5q-52 0 -88 15t-58 40t-32 56.5t-10 64.5zM364 1323q0 -22 7 -45.5t22 -42.5t37.5 -31 t54.5 -12q55 0 86.5 34.5t31.5 96.5q0 21 -7 44.5t-22 43t-38 32.5t-54 13q-28 0 -50 -11t-37 -29.5t-23 -42.5t-8 -50z" />
<glyph unicode="&#xe6;" horiz-adv-x="1452" d="M55 156q0 58 30.5 100.5t79 73.5t108.5 51t120 32.5t113.5 18t87.5 8.5q5 45 6.5 87t1.5 79q0 47 -7 90t-27 76t-55.5 52.5t-92.5 19.5q-40 0 -74 -15t-58.5 -40.5t-38 -60t-13.5 -73.5q0 -15 2.5 -30.5t7.5 -32.5q-11 -13 -30.5 -20t-39.5 -7q-15 0 -29 4.5t-25 14.5 t-17.5 26t-6.5 39q0 56 38.5 102t97 78.5t127.5 50t131 17.5q94 0 155.5 -34t83.5 -111q63 68 144 106.5t172 38.5q90 0 150.5 -30.5t97 -78.5t52 -105.5t15.5 -111.5v-20q0 -9 -2 -19q-86 -6 -168 -6q-106 0 -215.5 8t-226.5 19q-4 -23 -5.5 -45.5t-1.5 -44.5 q1 -110 28 -181t71.5 -112.5t101.5 -57.5t119 -16q39 0 74.5 5.5t71.5 17.5t73.5 31.5t79.5 48.5l27 -39q-101 -85 -199.5 -132.5t-210.5 -47.5q-64 0 -118.5 17t-99 48t-78 73t-54.5 93q-27 -49 -62 -91.5t-79.5 -73.5t-97.5 -48.5t-116 -17.5q-68 0 -111 17.5t-67 44 t-32.5 57.5t-8.5 57zM203 176q0 -38 12.5 -61.5t31.5 -37.5t40 -19t39 -5q64 0 109.5 28.5t76 75.5t49 107.5t27.5 124.5q-34 -2 -76 -6t-84.5 -12.5t-83 -22.5t-72 -37t-50.5 -56t-19 -79zM760 600q71 -2 120 -3t83 -1h98q35 0 71.5 1t84.5 3v10q0 54 -15 97t-42 73t-65 46 t-83 16q-51 0 -91.5 -19.5t-72 -53t-53.5 -77.5t-35 -92z" />
<glyph unicode="&#xe7;" horiz-adv-x="918" d="M70 381q0 103 35.5 197t101.5 164.5t160 112.5t211 42q61 0 111 -13t86 -34t55.5 -49t19.5 -58q0 -22 -9.5 -40t-25.5 -30.5t-37.5 -20.5t-44.5 -9q-3 31 -16.5 65t-41 62t-70 46t-103.5 18q-53 0 -105.5 -22.5t-94.5 -69t-68.5 -117.5t-26.5 -168q0 -89 23 -156 t65.5 -113t101.5 -69t131 -23q27 0 59 3.5t68 14.5t76 31t84 54l29 -39q-92 -80 -180 -122.5t-173 -53.5l-18 -50q81 -14 124.5 -59t43.5 -108q0 -39 -18 -76.5t-49.5 -66.5t-76 -46.5t-96.5 -17.5q-49 0 -72.5 24.5t-23.5 53.5q0 30 23 53q8 -6 24.5 -15t37.5 -17.5 t44.5 -14.5t44.5 -6q18 0 36 5.5t31.5 16t22 25.5t8.5 34q0 37 -15.5 60.5t-43 37t-65.5 18.5t-84 5q6 13 13.5 30t16 36t16.5 38t14 36q-87 1 -154 32.5t-112.5 85.5t-69 127t-23.5 156z" />
<glyph unicode="&#xe8;" horiz-adv-x="928" d="M70 391q0 107 36.5 199.5t99 160.5t144.5 107t172 39q91 0 151.5 -30.5t97 -78.5t52 -105.5t15.5 -111.5v-20q0 -9 -2 -19q-87 -6 -168 -6q-107 0 -216 8t-227 19q-6 -47 -6 -90q1 -110 28 -181t71.5 -112.5t101.5 -57.5t119 -16q39 0 74.5 5.5t71.5 17.5t73.5 31.5 t79.5 48.5l26 -39q-100 -85 -198.5 -132.5t-210.5 -47.5q-90 0 -161.5 33.5t-121 90t-76 131t-26.5 156.5zM236 600q71 -2 119.5 -3t82.5 -1h99q35 0 71 1t84 3v10q0 54 -15 96.5t-42 71.5t-65 44.5t-83 15.5q-51 0 -91.5 -19t-72 -51.5t-53 -76t-34.5 -91.5zM253 1444 q34 25 63.5 49.5t55.5 50.5l270 -373l-49 -38z" />
<glyph unicode="&#xe9;" horiz-adv-x="928" d="M70 391q0 107 36.5 199.5t99 160.5t144.5 107t172 39q91 0 151.5 -30.5t97 -78.5t52 -105.5t15.5 -111.5v-20q0 -9 -2 -19q-87 -6 -168 -6q-107 0 -216 8t-227 19q-6 -47 -6 -90q1 -110 28 -181t71.5 -112.5t101.5 -57.5t119 -16q39 0 74.5 5.5t71.5 17.5t73.5 31.5 t79.5 48.5l26 -39q-100 -85 -198.5 -132.5t-210.5 -47.5q-90 0 -161.5 33.5t-121 90t-76 131t-26.5 156.5zM236 600q71 -2 119.5 -3t82.5 -1h99q35 0 71 1t84 3v10q0 54 -15 96.5t-42 71.5t-65 44.5t-83 15.5q-51 0 -91.5 -19t-72 -51.5t-53 -76t-34.5 -91.5zM446 1165 l251 379q28 -28 60.5 -50t64.5 -38l-329 -323z" />
<glyph unicode="&#xea;" horiz-adv-x="928" d="M70 391q0 107 36.5 199.5t99 160.5t144.5 107t172 39q91 0 151.5 -30.5t97 -78.5t52 -105.5t15.5 -111.5v-20q0 -9 -2 -19q-87 -6 -168 -6q-107 0 -216 8t-227 19q-6 -47 -6 -90q1 -110 28 -181t71.5 -112.5t101.5 -57.5t119 -16q39 0 74.5 5.5t71.5 17.5t73.5 31.5 t79.5 48.5l26 -39q-100 -85 -198.5 -132.5t-210.5 -47.5q-90 0 -161.5 33.5t-121 90t-76 131t-26.5 156.5zM236 600q71 -2 119.5 -3t82.5 -1h99q35 0 71 1t84 3v10q0 54 -15 96.5t-42 71.5t-65 44.5t-83 15.5q-51 0 -91.5 -19t-72 -51.5t-53 -76t-34.5 -91.5zM202 1174 l352 370l326 -370l-43 -41l-289 243l-307 -243z" />
<glyph unicode="&#xeb;" horiz-adv-x="928" d="M70 391q0 107 36.5 199.5t99 160.5t144.5 107t172 39q91 0 151.5 -30.5t97 -78.5t52 -105.5t15.5 -111.5v-20q0 -9 -2 -19q-87 -6 -168 -6q-107 0 -216 8t-227 19q-6 -47 -6 -90q1 -110 28 -181t71.5 -112.5t101.5 -57.5t119 -16q39 0 74.5 5.5t71.5 17.5t73.5 31.5 t79.5 48.5l26 -39q-100 -85 -198.5 -132.5t-210.5 -47.5q-90 0 -161.5 33.5t-121 90t-76 131t-26.5 156.5zM236 600q71 -2 119.5 -3t82.5 -1h99q35 0 71 1t84 3v10q0 54 -15 96.5t-42 71.5t-65 44.5t-83 15.5q-51 0 -91.5 -19t-72 -51.5t-53 -76t-34.5 -91.5zM238 1235 q0 23 7 44t20.5 36.5t32.5 25t43 9.5q38 0 66 -27t28 -80q0 -23 -7 -44t-19.5 -36.5t-31.5 -25t-43 -9.5q-40 0 -68 26.5t-28 80.5zM609 1235q0 23 7 44t20.5 36.5t32 25t42.5 9.5q38 0 66 -27t28 -80q0 -23 -6.5 -44t-19.5 -36.5t-31.5 -25t-42.5 -9.5q-40 0 -68 26.5 t-28 80.5z" />
<glyph unicode="&#xec;" horiz-adv-x="522" d="M20 797v47q101 3 184 18t158 35q-12 -79 -21 -161t-15.5 -163.5t-9.5 -161t-3 -153.5q0 -68 4 -109.5t17 -64t38.5 -30t69.5 -7.5h45v-47h-16q-94 0 -169.5 -7t-147.5 -26q24 162 36.5 323t12.5 316q0 48 -5.5 83.5t-22.5 59.5t-49 36t-85 12h-21zM-95 1444 q34 25 63.5 49.5t55.5 50.5l270 -373l-49 -38z" />
<glyph unicode="&#xed;" horiz-adv-x="522" d="M20 797v47q101 3 184 18t158 35q-12 -79 -21 -161t-15.5 -163.5t-9.5 -161t-3 -153.5q0 -68 4 -109.5t17 -64t38.5 -30t69.5 -7.5h45v-47h-16q-94 0 -169.5 -7t-147.5 -26q24 162 36.5 323t12.5 316q0 48 -5.5 83.5t-22.5 59.5t-49 36t-85 12h-21zM223 1165l251 379 q28 -28 60.5 -50t64.5 -38l-329 -323z" />
<glyph unicode="&#xee;" horiz-adv-x="522" d="M20 797v47q101 3 184 18t158 35q-12 -79 -21 -161t-15.5 -163.5t-9.5 -161t-3 -153.5q0 -68 4 -109.5t17 -64t38.5 -30t69.5 -7.5h45v-47h-16q-94 0 -169.5 -7t-147.5 -26q24 162 36.5 323t12.5 316q0 48 -5.5 83.5t-22.5 59.5t-49 36t-85 12h-21zM-48 1174l352 370 l326 -370l-43 -41l-289 243l-307 -243z" />
<glyph unicode="&#xef;" horiz-adv-x="522" d="M20 797v47q101 3 184 18t158 35q-12 -79 -21 -161t-15.5 -163.5t-9.5 -161t-3 -153.5q0 -68 4 -109.5t17 -64t38.5 -30t69.5 -7.5h45v-47h-16q-94 0 -169.5 -7t-147.5 -26q24 162 36.5 323t12.5 316q0 48 -5.5 83.5t-22.5 59.5t-49 36t-85 12h-21zM11 1235q0 23 7 44 t20.5 36.5t32.5 25t43 9.5q38 0 66 -27t28 -80q0 -23 -7 -44t-19.5 -36.5t-31.5 -25t-43 -9.5q-40 0 -68 26.5t-28 80.5zM382 1235q0 23 7 44t20.5 36.5t32 25t42.5 9.5q38 0 66 -27t28 -80q0 -23 -6.5 -44t-19.5 -36.5t-31.5 -25t-42.5 -9.5q-40 0 -68 26.5t-28 80.5z" />
<glyph unicode="&#xf0;" horiz-adv-x="1036" d="M68 393q0 60 16.5 121t47 117t73.5 104.5t97 84.5t117.5 56.5t133.5 20.5q54 0 114 -6.5t117 -32.5q-9 52 -22.5 105.5t-32.5 105.5t-44.5 102t-57.5 95q-63 -28 -125 -60t-121 -69l4 102q46 23 95 44t100 40q-63 69 -150 119t-203 71l2 41q128 0 245.5 -50t213.5 -144 q63 20 125 37.5t125 34.5l16 -39q-54 -19 -108.5 -40t-110.5 -42q100 -118 159.5 -284.5t59.5 -375.5q0 -74 -10.5 -152.5t-34.5 -153.5t-61 -141t-90 -116t-123 -79t-158 -29q-87 0 -162 25t-130 76.5t-86 129t-31 182.5zM231 436q0 -72 18.5 -143t55.5 -127.5t93 -91.5 t130 -35q61 0 105 26.5t75 70.5t50 101t29.5 118t14 121t3.5 110q0 37 -1.5 77.5t-6.5 84.5q-50 43 -114 68.5t-136 25.5q-74 0 -132.5 -29t-99.5 -82t-62.5 -128t-21.5 -167z" />
<glyph unicode="&#xf1;" horiz-adv-x="1114" d="M20 797v47q45 2 83 4.5t75.5 8t78.5 15t93 25.5q-9 -45 -18.5 -95.5t-14.5 -92.5q111 94 205 141t191 47q31 0 70.5 -9.5t74.5 -38.5t59.5 -81.5t24.5 -138.5q0 -56 -4.5 -117t-10 -120.5t-10 -115t-4.5 -100.5q0 -40 6.5 -65t21 -39.5t38 -19.5t57.5 -5h54v-47 q-53 -2 -98 -3.5t-85.5 -4.5t-79 -8.5t-77.5 -16.5q9 58 18.5 131t18 147.5t13.5 145.5t5 125q0 52 -4.5 102t-23 89.5t-56.5 63.5t-105 24q-38 0 -77 -13.5t-75.5 -34t-69 -45.5t-56.5 -47q-3 -48 -6.5 -101.5t-6 -106t-4.5 -102t-2 -91.5q0 -65 3.5 -105t16 -63t37.5 -31 t68 -8h50v-47q-108 0 -188 -7t-152 -26q23 146 36 300.5t13 316.5q0 39 -3 77t-19 68.5t-49 49t-93 18.5h-19zM239 1153q10 39 28.5 83t47.5 81.5t70 62.5t96 25q50 0 94.5 -27t94.5 -65q26 -21 44.5 -36.5t33.5 -25.5t28.5 -15t28.5 -5q25 0 45.5 18.5t37 45.5t28.5 57 t20 53l55 -21q-10 -39 -28.5 -83t-47.5 -81.5t-70 -62t-96 -24.5q-49 0 -94 27t-94 65q-26 21 -44.5 36t-33.5 25.5t-28.5 15.5t-28.5 5q-26 0 -46.5 -18.5t-37 -45.5t-28.5 -57t-19 -53z" />
<glyph unicode="&#xf2;" horiz-adv-x="1055" d="M70 391q0 95 34 186t98 162t156 114.5t209 43.5q111 0 189 -31t127 -84.5t71.5 -124.5t22.5 -151q0 -108 -38 -204t-105 -167.5t-157 -113t-194 -41.5q-120 0 -199.5 34.5t-127 91.5t-67 131t-19.5 154zM217 444q0 -73 18 -145t55.5 -129.5t96 -93t139.5 -35.5 q72 0 128 27t95 77t59.5 122t20.5 161q0 66 -18 138.5t-55.5 133.5t-95.5 100.5t-138 39.5q-74 0 -131 -33t-95.5 -88t-58.5 -126.5t-20 -148.5zM244 1444q34 25 63.5 49.5t55.5 50.5l270 -373l-49 -38z" />
<glyph unicode="&#xf3;" horiz-adv-x="1055" d="M70 391q0 95 34 186t98 162t156 114.5t209 43.5q111 0 189 -31t127 -84.5t71.5 -124.5t22.5 -151q0 -108 -38 -204t-105 -167.5t-157 -113t-194 -41.5q-120 0 -199.5 34.5t-127 91.5t-67 131t-19.5 154zM217 444q0 -73 18 -145t55.5 -129.5t96 -93t139.5 -35.5 q72 0 128 27t95 77t59.5 122t20.5 161q0 66 -18 138.5t-55.5 133.5t-95.5 100.5t-138 39.5q-74 0 -131 -33t-95.5 -88t-58.5 -126.5t-20 -148.5zM478 1165l251 379q28 -28 60.5 -50t64.5 -38l-329 -323z" />
<glyph unicode="&#xf4;" horiz-adv-x="1055" d="M70 391q0 95 34 186t98 162t156 114.5t209 43.5q111 0 189 -31t127 -84.5t71.5 -124.5t22.5 -151q0 -108 -38 -204t-105 -167.5t-157 -113t-194 -41.5q-120 0 -199.5 34.5t-127 91.5t-67 131t-19.5 154zM217 444q0 -73 18 -145t55.5 -129.5t96 -93t139.5 -35.5 q72 0 128 27t95 77t59.5 122t20.5 161q0 66 -18 138.5t-55.5 133.5t-95.5 100.5t-138 39.5q-74 0 -131 -33t-95.5 -88t-58.5 -126.5t-20 -148.5zM218 1174l352 370l326 -370l-43 -41l-289 243l-307 -243z" />
<glyph unicode="&#xf5;" horiz-adv-x="1055" d="M70 391q0 95 34 186t98 162t156 114.5t209 43.5q111 0 189 -31t127 -84.5t71.5 -124.5t22.5 -151q0 -108 -38 -204t-105 -167.5t-157 -113t-194 -41.5q-120 0 -199.5 34.5t-127 91.5t-67 131t-19.5 154zM217 444q0 -73 18 -145t55.5 -129.5t96 -93t139.5 -35.5 q72 0 128 27t95 77t59.5 122t20.5 161q0 66 -18 138.5t-55.5 133.5t-95.5 100.5t-138 39.5q-74 0 -131 -33t-95.5 -88t-58.5 -126.5t-20 -148.5zM175 1153q10 39 28.5 83t47.5 81.5t70 62.5t96 25q50 0 94.5 -27t94.5 -65q26 -21 44.5 -36.5t33.5 -25.5t28.5 -15t28.5 -5 q25 0 45.5 18.5t37 45.5t28.5 57t20 53l55 -21q-10 -39 -28.5 -83t-47.5 -81.5t-70 -62t-96 -24.5q-49 0 -94 27t-94 65q-26 21 -44.5 36t-33.5 25.5t-28.5 15.5t-28.5 5q-26 0 -46.5 -18.5t-37 -45.5t-28.5 -57t-19 -53z" />
<glyph unicode="&#xf6;" horiz-adv-x="1055" d="M70 391q0 95 34 186t98 162t156 114.5t209 43.5q111 0 189 -31t127 -84.5t71.5 -124.5t22.5 -151q0 -108 -38 -204t-105 -167.5t-157 -113t-194 -41.5q-120 0 -199.5 34.5t-127 91.5t-67 131t-19.5 154zM217 444q0 -73 18 -145t55.5 -129.5t96 -93t139.5 -35.5 q72 0 128 27t95 77t59.5 122t20.5 161q0 66 -18 138.5t-55.5 133.5t-95.5 100.5t-138 39.5q-74 0 -131 -33t-95.5 -88t-58.5 -126.5t-20 -148.5zM273 1235q0 23 7 44t20.5 36.5t32.5 25t43 9.5q38 0 66 -27t28 -80q0 -23 -7 -44t-19.5 -36.5t-31.5 -25t-43 -9.5 q-40 0 -68 26.5t-28 80.5zM644 1235q0 23 7 44t20.5 36.5t32 25t42.5 9.5q38 0 66 -27t28 -80q0 -23 -6.5 -44t-19.5 -36.5t-31.5 -25t-42.5 -9.5q-40 0 -68 26.5t-28 80.5z" />
<glyph unicode="&#xf7;" horiz-adv-x="1180" d="M121 598v98h942v-98h-942zM496 287q0 10 2 28.5t11.5 36.5t28.5 31.5t54 13.5q34 0 53.5 -13.5t29 -31.5t11.5 -36.5t2 -28.5t-2 -28.5t-11.5 -37t-29 -32t-53.5 -13.5q-35 0 -54 13.5t-28.5 32t-11.5 37t-2 28.5zM496 1008q0 10 2 28.5t11.5 36.5t28.5 31.5t54 13.5 q34 0 53.5 -13.5t29 -31.5t11.5 -36.5t2 -28.5t-2 -28.5t-11.5 -37t-29 -32t-53.5 -13.5q-35 0 -54 13.5t-28.5 32t-11.5 37t-2 28.5z" />
<glyph unicode="&#xf8;" horiz-adv-x="1055" d="M8 -63l155 161q-51 58 -72 134t-21 159q0 95 34 186t98 162t156 114.5t209 43.5q94 0 163.5 -22.5t118.5 -61.5l148 154l47 -47l-148 -154q42 -53 61.5 -119t19.5 -141q0 -108 -38 -204t-105 -167.5t-157 -113t-194 -41.5q-90 0 -156 19.5t-114 53.5l-158 -164zM217 444 q0 -62 12.5 -122.5t38.5 -113.5l482 501q-38 58 -94 95.5t-134 37.5q-74 0 -131 -33.5t-95.5 -89t-58.5 -127t-20 -148.5zM304 149q38 -50 92.5 -80t129.5 -30q72 0 128 27.5t95 78t59.5 122.5t20.5 161q0 52 -11.5 109t-34.5 111z" />
<glyph unicode="&#xf9;" horiz-adv-x="1116" d="M18 797v47q90 3 177 17t165 36q-21 -133 -41 -270t-20 -281q0 -56 7.5 -104t29 -83.5t60.5 -56t102 -20.5q34 0 72 14t75 35.5t70 46.5t57 47q6 93 11 187t5 194q0 47 -4.5 82.5t-21.5 59.5t-49.5 36.5t-89.5 12.5h-15v47q107 5 190 18t158 35q-5 -23 -10.5 -64t-11 -94 t-10.5 -114t-9 -124.5t-6 -125.5t-2 -117q0 -46 4.5 -85t21 -67t48.5 -43.5t88 -15.5h21v-47q-59 -2 -106 -4t-86 -5t-72 -8.5t-64 -15.5q4 22 9 48.5t9 53.5t7.5 52.5t5.5 46.5q-116 -103 -214.5 -145.5t-179.5 -42.5q-53 0 -95.5 16.5t-72.5 51t-46.5 87t-16.5 125.5 q0 49 3.5 104.5t7.5 110t7.5 104.5t3.5 89q0 69 -33.5 99t-119.5 30h-19zM270 1444q34 25 63.5 49.5t55.5 50.5l270 -373l-49 -38z" />
<glyph unicode="&#xfa;" horiz-adv-x="1116" d="M18 797v47q90 3 177 17t165 36q-21 -133 -41 -270t-20 -281q0 -56 7.5 -104t29 -83.5t60.5 -56t102 -20.5q34 0 72 14t75 35.5t70 46.5t57 47q6 93 11 187t5 194q0 47 -4.5 82.5t-21.5 59.5t-49.5 36.5t-89.5 12.5h-15v47q107 5 190 18t158 35q-5 -23 -10.5 -64t-11 -94 t-10.5 -114t-9 -124.5t-6 -125.5t-2 -117q0 -46 4.5 -85t21 -67t48.5 -43.5t88 -15.5h21v-47q-59 -2 -106 -4t-86 -5t-72 -8.5t-64 -15.5q4 22 9 48.5t9 53.5t7.5 52.5t5.5 46.5q-116 -103 -214.5 -145.5t-179.5 -42.5q-53 0 -95.5 16.5t-72.5 51t-46.5 87t-16.5 125.5 q0 49 3.5 104.5t7.5 110t7.5 104.5t3.5 89q0 69 -33.5 99t-119.5 30h-19zM486 1165l251 379q28 -28 60.5 -50t64.5 -38l-329 -323z" />
<glyph unicode="&#xfb;" horiz-adv-x="1116" d="M18 797v47q90 3 177 17t165 36q-21 -133 -41 -270t-20 -281q0 -56 7.5 -104t29 -83.5t60.5 -56t102 -20.5q34 0 72 14t75 35.5t70 46.5t57 47q6 93 11 187t5 194q0 47 -4.5 82.5t-21.5 59.5t-49.5 36.5t-89.5 12.5h-15v47q107 5 190 18t158 35q-5 -23 -10.5 -64t-11 -94 t-10.5 -114t-9 -124.5t-6 -125.5t-2 -117q0 -46 4.5 -85t21 -67t48.5 -43.5t88 -15.5h21v-47q-59 -2 -106 -4t-86 -5t-72 -8.5t-64 -15.5q4 22 9 48.5t9 53.5t7.5 52.5t5.5 46.5q-116 -103 -214.5 -145.5t-179.5 -42.5q-53 0 -95.5 16.5t-72.5 51t-46.5 87t-16.5 125.5 q0 49 3.5 104.5t7.5 110t7.5 104.5t3.5 89q0 69 -33.5 99t-119.5 30h-19zM232 1174l352 370l326 -370l-43 -41l-289 243l-307 -243z" />
<glyph unicode="&#xfc;" horiz-adv-x="1116" d="M18 797v47q90 3 177 17t165 36q-21 -133 -41 -270t-20 -281q0 -56 7.5 -104t29 -83.5t60.5 -56t102 -20.5q34 0 72 14t75 35.5t70 46.5t57 47q6 93 11 187t5 194q0 47 -4.5 82.5t-21.5 59.5t-49.5 36.5t-89.5 12.5h-15v47q107 5 190 18t158 35q-5 -23 -10.5 -64t-11 -94 t-10.5 -114t-9 -124.5t-6 -125.5t-2 -117q0 -46 4.5 -85t21 -67t48.5 -43.5t88 -15.5h21v-47q-59 -2 -106 -4t-86 -5t-72 -8.5t-64 -15.5q4 22 9 48.5t9 53.5t7.5 52.5t5.5 46.5q-116 -103 -214.5 -145.5t-179.5 -42.5q-53 0 -95.5 16.5t-72.5 51t-46.5 87t-16.5 125.5 q0 49 3.5 104.5t7.5 110t7.5 104.5t3.5 89q0 69 -33.5 99t-119.5 30h-19zM292 1235q0 23 7 44t20.5 36.5t32.5 25t43 9.5q38 0 66 -27t28 -80q0 -23 -7 -44t-19.5 -36.5t-31.5 -25t-43 -9.5q-40 0 -68 26.5t-28 80.5zM663 1235q0 23 7 44t20.5 36.5t32 25t42.5 9.5 q38 0 66 -27t28 -80q0 -23 -6.5 -44t-19.5 -36.5t-31.5 -25t-42.5 -9.5q-40 0 -68 26.5t-28 80.5z" />
<glyph unicode="&#xfd;" horiz-adv-x="901" d="M-50 -437q0 19 3 34t10 32q15 -6 35.5 -11t43.5 -5q50 0 96.5 28.5t90.5 77.5t85.5 114t82.5 138l-223 691q-12 38 -25.5 64t-31.5 41.5t-41.5 22.5t-55.5 7h-16v47q44 1 76.5 5.5t61.5 11.5t59.5 16t70.5 20q5 -36 11 -68t13 -63t16 -63t20 -68l145 -473h21 q30 55 65.5 121t65.5 137t50.5 143.5t20.5 141.5q0 45 -10 85.5t-35 77.5q20 16 45 22.5t50 6.5q49 0 73.5 -30.5t24.5 -84.5q0 -50 -17 -107.5t-43.5 -116.5t-57.5 -116t-58 -106l-189 -336q-28 -51 -61.5 -111t-69.5 -120.5t-73.5 -117t-75.5 -100t-75 -70t-71 -26.5 q-57 0 -82 31t-25 77zM397 1165l251 379q28 -28 60.5 -50t64.5 -38l-329 -323z" />
<glyph unicode="&#xfe;" horiz-adv-x="1014" d="M-6 1454v47q44 2 82 5.5t77.5 9.5t83 15t99.5 23q-6 -47 -12 -117t-12 -149.5t-12 -163.5t-10.5 -160.5t-8 -139.5t-5.5 -101q58 46 106 79t90.5 54t80.5 31t76 10q148 0 226.5 -96t78.5 -277q0 -117 -42.5 -217t-119 -172.5t-181.5 -113.5t-229 -41q-48 0 -75.5 2 t-44.5 4q-6 -120 -6 -219q0 -67 3.5 -111.5t17.5 -71.5t42.5 -38t79.5 -11h31v-49q-48 0 -90 -0.5t-82 -3.5t-81 -9t-87 -18q3 21 7.5 49.5t9 67.5t9.5 89t10 114q9 125 18 269t16.5 292.5t14 293.5t11.5 270.5t7.5 223.5t2.5 154q0 52 -6 86t-22.5 54t-45.5 28t-75 8h-33z M250 75q32 -13 80 -23t98 -10q81 0 146.5 33t112 92t72 140.5t25.5 179.5q0 81 -19.5 139t-52 95.5t-73.5 55.5t-84 18q-38 0 -78 -14t-77 -35t-69.5 -46t-56.5 -47z" />
<glyph unicode="&#xff;" horiz-adv-x="901" d="M-50 -437q0 19 3 34t10 32q15 -6 35.5 -11t43.5 -5q50 0 96.5 28.5t90.5 77.5t85.5 114t82.5 138l-223 691q-12 38 -25.5 64t-31.5 41.5t-41.5 22.5t-55.5 7h-16v47q44 1 76.5 5.5t61.5 11.5t59.5 16t70.5 20q5 -36 11 -68t13 -63t16 -63t20 -68l145 -473h21 q30 55 65.5 121t65.5 137t50.5 143.5t20.5 141.5q0 45 -10 85.5t-35 77.5q20 16 45 22.5t50 6.5q49 0 73.5 -30.5t24.5 -84.5q0 -50 -17 -107.5t-43.5 -116.5t-57.5 -116t-58 -106l-189 -336q-28 -51 -61.5 -111t-69.5 -120.5t-73.5 -117t-75.5 -100t-75 -70t-71 -26.5 q-57 0 -82 31t-25 77zM245 1235q0 23 7 44t20.5 36.5t32.5 25t43 9.5q38 0 66 -27t28 -80q0 -23 -7 -44t-19.5 -36.5t-31.5 -25t-43 -9.5q-40 0 -68 26.5t-28 80.5zM616 1235q0 23 7 44t20.5 36.5t32 25t42.5 9.5q38 0 66 -27t28 -80q0 -23 -6.5 -44t-19.5 -36.5t-31.5 -25 t-42.5 -9.5q-40 0 -68 26.5t-28 80.5z" />
<glyph unicode="&#x131;" horiz-adv-x="522" d="M20 797v47q101 3 184 18t158 35q-12 -79 -21 -161t-15.5 -163.5t-9.5 -161t-3 -153.5q0 -68 4 -109.5t17 -64t38.5 -30t69.5 -7.5h45v-47h-16q-94 0 -169.5 -7t-147.5 -26q24 162 36.5 323t12.5 316q0 48 -5.5 83.5t-22.5 59.5t-49 36t-85 12h-21z" />
<glyph unicode="&#x152;" horiz-adv-x="2068" d="M94 705q0 98 22 189t64 170.5t102 145t135.5 112t165.5 72t191 25.5q82 0 154 -22t133 -61.5t110 -93.5t86 -118l9 252h393q40 0 77.5 0.5t76.5 2t81 4.5t91 8l-31 -338h-62q1 20 1.5 31.5t0.5 17.5v10v4q0 33 -8.5 63t-33 53.5t-68 39t-113.5 20.5l-246 17 q-8 -82 -12 -166.5t-6 -155.5l-8 -225l426 22l-10 -127q-60 8 -121.5 14t-117.5 10t-102.5 6.5t-76.5 4.5q-5 -120 -9 -219q-2 -42 -3 -84t-2.5 -77.5t-2 -60.5t-0.5 -34q0 -52 14 -83t42.5 -47t71 -21t98.5 -5q80 0 136.5 10t96 37t64.5 74.5t41 122.5h63q-4 -27 -12 -68 t-19.5 -86.5t-27 -90.5t-33.5 -80q-199 6 -367 13t-293 7h-34l6 186q-88 -102 -205.5 -158.5t-251.5 -56.5q-116 0 -211.5 29t-170.5 80t-130.5 121t-91.5 151.5t-54 171.5t-18 181zM279 709q0 -87 15 -170.5t44 -158t71.5 -137.5t98 -109t123.5 -71.5t147 -25.5 q121 0 208 52t143 139t83 201t27 239q0 135 -32 259t-92.5 219t-148 151.5t-198.5 56.5q-125 0 -217 -52t-152.5 -140t-90 -205.5t-29.5 -247.5z" />
<glyph unicode="&#x153;" horiz-adv-x="1661" d="M70 391q0 64 15.5 127t45.5 119t72.5 103.5t97 82.5t119 54.5t137.5 19.5q135 0 220 -52t126 -136q63 88 155 138t197 50q91 0 151.5 -30.5t97 -78.5t52 -105.5t15.5 -111.5v-20q0 -9 -2 -19q-87 -6 -168 -6q-106 0 -215.5 8t-227.5 19q-6 -47 -6 -90q1 -110 28 -181 t71.5 -112.5t101.5 -57.5t119 -16q39 0 74.5 5.5t71.5 17.5t73.5 31.5t79.5 48.5l26 -39q-100 -85 -198.5 -132.5t-210.5 -47.5q-60 0 -111.5 15t-94.5 42t-76 65t-56 84q-66 -96 -164 -151t-213 -55q-112 0 -189 34.5t-124.5 91.5t-68.5 131t-21 154zM217 444 q0 -73 18 -145t55 -129.5t94.5 -93t135.5 -35.5q66 0 118 27t88.5 77t55.5 122t19 161q0 66 -17 138.5t-52 133.5t-88.5 100.5t-127.5 39.5q-71 0 -126.5 -33t-93.5 -87.5t-58.5 -126t-20.5 -149.5zM969 600q71 -2 119.5 -3t82.5 -1h99q35 0 71 1t84 3v10q0 54 -15 97 t-42 73t-64.5 46t-82.5 16q-51 0 -92 -19.5t-72 -53t-53 -77.5t-35 -92z" />
<glyph unicode="&#x178;" horiz-adv-x="1255" d="M-16 1331v58q25 -4 58 -8q29 -3 69.5 -5t93.5 -2q52 0 114.5 3.5t137.5 11.5v-58q-26 -2 -46 -4t-37 -3.5t-33 -2.5t-34 -2l352 -623h17l256 441q49 88 49 129q0 28 -18.5 41t-49.5 18l-43 6v58q19 -4 47 -8q24 -3 59.5 -5t84.5 -2q48 0 108.5 3.5t135.5 11.5v-58 q-26 -2 -46 -4t-37 -3.5t-33 -2.5t-34 -2l-446 -729q-5 -157 -8 -245.5t-3 -119.5q0 -49 5.5 -79t17.5 -47t31 -24.5t45 -11.5l43 -6v-57q-22 3 -53 7q-26 2 -64 4.5t-88 2.5q-51 0 -112.5 -3t-135.5 -11v57q26 2 46 4t36.5 4t32.5 3t35 2l12 536l-307 531q-31 54 -58 88.5 t-53 55.5t-51.5 30.5t-52.5 13.5zM385 1661q0 27 8.5 46.5t22.5 31.5t31.5 18t36.5 6q18 0 36 -6t31.5 -18t22 -31.5t8.5 -46.5q0 -51 -28 -83t-70 -32t-70.5 32t-28.5 83zM754 1661q0 27 8.5 46.5t22 31.5t31.5 18t36 6t36 -6t31.5 -18t22 -31.5t8.5 -46.5q0 -51 -28 -83 t-70 -32t-70 32t-28 83z" />
<glyph unicode="&#x2c6;" horiz-adv-x="967" d="M307 1174l352 370l326 -370l-43 -41l-289 243l-307 -243z" />
<glyph unicode="&#x2da;" horiz-adv-x="700" d="M287 1309q0 40 16 76.5t45 65t71 45.5t93 17q48 0 83.5 -13.5t58 -37t33.5 -53.5t11 -63q0 -45 -18 -84t-48.5 -67.5t-71 -45t-85.5 -16.5q-52 0 -88 15t-58 40t-32 56.5t-10 64.5zM371 1323q0 -22 7 -45.5t22 -42.5t37.5 -31t54.5 -12q55 0 86.5 34.5t31.5 96.5 q0 21 -7 44.5t-22 43t-38 32.5t-54 13q-28 0 -50 -11t-37 -29.5t-23 -42.5t-8 -50z" />
<glyph unicode="&#x2dc;" horiz-adv-x="977" d="M233 1153q10 39 28.5 83t47.5 81.5t70 62.5t96 25q50 0 94.5 -27t94.5 -65q26 -21 44.5 -36.5t33.5 -25.5t28.5 -15t28.5 -5q25 0 45.5 18.5t37 45.5t28.5 57t20 53l55 -21q-10 -39 -28.5 -83t-47.5 -81.5t-70 -62t-96 -24.5q-49 0 -94 27t-94 65q-26 21 -44.5 36 t-33.5 25.5t-28.5 15.5t-28.5 5q-26 0 -46.5 -18.5t-37 -45.5t-28.5 -57t-19 -53z" />
<glyph unicode="&#x2000;" horiz-adv-x="963" />
<glyph unicode="&#x2001;" horiz-adv-x="1927" />
<glyph unicode="&#x2002;" horiz-adv-x="963" />
<glyph unicode="&#x2003;" horiz-adv-x="1927" />
<glyph unicode="&#x2004;" horiz-adv-x="642" />
<glyph unicode="&#x2005;" horiz-adv-x="481" />
<glyph unicode="&#x2006;" horiz-adv-x="321" />
<glyph unicode="&#x2007;" horiz-adv-x="321" />
<glyph unicode="&#x2008;" horiz-adv-x="240" />
<glyph unicode="&#x2009;" horiz-adv-x="385" />
<glyph unicode="&#x200a;" horiz-adv-x="107" />
<glyph unicode="&#x2010;" horiz-adv-x="844" d="M133 430l4 115h565l-4 -115h-565z" />
<glyph unicode="&#x2011;" horiz-adv-x="844" d="M133 430l4 115h565l-4 -115h-565z" />
<glyph unicode="&#x2012;" horiz-adv-x="844" d="M133 430l4 115h565l-4 -115h-565z" />
<glyph unicode="&#x2013;" horiz-adv-x="1190" d="M133 430l4 115h912l-5 -115h-911z" />
<glyph unicode="&#x2014;" horiz-adv-x="1532" d="M133 430l4 115h1254l-5 -115h-1253z" />
<glyph unicode="&#x2018;" horiz-adv-x="393" d="M104 1202q0 37 10.5 80.5t36 89.5t69 92t110.5 88l32 -43q-27 -18 -51.5 -39.5t-43.5 -47t-30.5 -54.5t-11.5 -63q0 -36 10.5 -62.5t27.5 -45t38.5 -30.5t42.5 -20q0 -18 -6.5 -36.5t-20.5 -34.5t-35 -26t-49 -10q-24 0 -47 9t-41 28.5t-29.5 50.5t-11.5 74z" />
<glyph unicode="&#x2019;" horiz-adv-x="369" d="M86 1085q26 19 51 41t44 47.5t30.5 54t11.5 60.5q0 33 -10.5 59t-27.5 45.5t-38 33t-43 22.5q0 18 6.5 36.5t20.5 34t34.5 25.5t49.5 10q24 0 47 -9t41.5 -28.5t29.5 -50t11 -73.5q0 -37 -10.5 -80.5t-36.5 -89.5t-69.5 -92.5t-110.5 -88.5z" />
<glyph unicode="&#x201a;" horiz-adv-x="432" d="M61 -270q26 18 51 40t44.5 47.5t31 54t11.5 60.5q0 33 -10.5 59t-27.5 45.5t-38.5 33.5t-42.5 22q0 18 6.5 36.5t20 34.5t34.5 26t49 10q24 0 47 -9t41.5 -28.5t29.5 -50.5t11 -74q0 -37 -10.5 -80.5t-36.5 -89.5t-69.5 -92t-110.5 -88z" />
<glyph unicode="&#x201c;" horiz-adv-x="764" d="M106 1204q0 37 10.5 80.5t36.5 89.5t70 92t111 88l31 -43q-26 -18 -51 -40t-44.5 -47.5t-31 -54.5t-11.5 -60q0 -33 10.5 -59t27.5 -45.5t38.5 -33.5t42.5 -22q0 -18 -6.5 -36.5t-20 -34.5t-34.5 -26t-49 -10q-24 0 -47.5 9.5t-41.5 29t-29.5 50t-11.5 73.5zM473 1204 q0 37 10 80.5t35.5 89.5t69 92t110.5 88l33 -43q-27 -18 -52 -39.5t-43.5 -47t-30 -54.5t-11.5 -63q0 -36 10.5 -62.5t27.5 -45t38 -30.5t43 -20q0 -18 -6.5 -36.5t-20.5 -34.5t-35 -26t-49 -10q-24 0 -47 9.5t-41 29t-29.5 50t-11.5 73.5z" />
<glyph unicode="&#x201d;" horiz-adv-x="735" d="M86 1085q27 19 52 40.5t43.5 47t30 54.5t11.5 63q0 36 -10.5 62t-27.5 44.5t-38 30.5t-43 21q0 18 6.5 36.5t20.5 34t34.5 25.5t49.5 10q24 0 47 -9t41.5 -28.5t29.5 -50t11 -73.5q0 -37 -10 -80.5t-35.5 -89.5t-69 -92.5t-110.5 -88.5zM453 1085q26 19 50.5 41t44 47.5 t31 54t11.5 60.5q0 33 -10.5 59t-27.5 45.5t-38.5 33t-42.5 22.5q0 18 6.5 36.5t20.5 34t34.5 25.5t49.5 10q24 0 47 -9t41 -28.5t29.5 -50t11.5 -73.5q0 -37 -10.5 -80.5t-36.5 -89.5t-70 -92.5t-111 -88.5z" />
<glyph unicode="&#x201e;" horiz-adv-x="799" d="M61 -270q26 18 51 40t44.5 47.5t31 54t11.5 60.5q0 33 -10.5 59t-27.5 45.5t-38.5 33.5t-42.5 22q0 18 6.5 36.5t20 34.5t34.5 26t49 10q24 0 47 -9t41.5 -28.5t29.5 -50.5t11 -74q0 -37 -10.5 -80.5t-36.5 -89.5t-69.5 -92t-110.5 -88zM428 -270q26 18 51 40t44 47.5 t30.5 54t11.5 60.5q0 33 -10.5 59t-27.5 45.5t-38 33.5t-43 22q0 18 6.5 36.5t20.5 34.5t34.5 26t49.5 10q24 0 47 -9t41.5 -28.5t29.5 -50.5t11 -74q0 -37 -10.5 -80.5t-36.5 -89.5t-69.5 -92t-110.5 -88z" />
<glyph unicode="&#x2022;" horiz-adv-x="662" d="M162 696q0 36 13.5 67.5t36.5 55t54.5 36.5t67.5 13t67.5 -13t54.5 -36.5t36.5 -55t13.5 -67.5t-13.5 -67.5t-36.5 -54.5t-54.5 -36.5t-67.5 -13.5t-67.5 13.5t-54.5 36.5t-36.5 54.5t-13.5 67.5z" />
<glyph unicode="&#x2026;" horiz-adv-x="1218" d="M898 86q0 23 7 44t20.5 36.5t33 25t43.5 9.5q41 0 69 -27t28 -80q0 -23 -7 -43.5t-20 -36.5t-32 -25t-44 -9q-42 0 -70 26t-28 80zM492 86q0 23 7 44t20.5 36.5t33 25t43.5 9.5q41 0 69 -27t28 -80q0 -23 -7 -43.5t-20 -36.5t-32 -25t-44 -9q-42 0 -70 26t-28 80zM86 86 q0 23 7 44t20.5 36.5t33 25t43.5 9.5q41 0 69 -27t28 -80q0 -23 -7 -43.5t-20 -36.5t-32 -25t-44 -9q-42 0 -70 26t-28 80z" />
<glyph unicode="&#x202f;" horiz-adv-x="385" />
<glyph unicode="&#x2039;" horiz-adv-x="668" d="M49 522l522 459l33 -31l-334 -428l303 -405l-32 -31z" />
<glyph unicode="&#x203a;" horiz-adv-x="666" d="M59 117l332 405l-301 428l33 31l489 -459l-520 -436z" />
<glyph unicode="&#x2044;" horiz-adv-x="965" d="M-43 31l1004 1384l57 -39l-1004 -1392z" />
<glyph unicode="&#x205f;" horiz-adv-x="481" />
<glyph unicode="&#x2074;" horiz-adv-x="639" d="M66 1057l2 37l366 460l37 -16q-3 -80 -5 -144t-4 -115t-3 -90.5t-2 -69.5q25 2 45.5 3t35.5 2q18 1 31 2l-26 -69h-88q-1 -28 -1.5 -44t-0.5 -24v-11v-3q0 -37 5 -57.5t13.5 -30.5t20.5 -13.5t26 -5.5l31 -4v-39q-31 5 -66 8t-77 3q-36 0 -76 -3t-86 -8v39q35 3 54 4 l46 4l6 185h-284zM141 1108q51 0 105.5 1.5t105.5 3.5l10 273z" />
<glyph unicode="&#x20ac;" horiz-adv-x="1325" d="M66 520l4 103h199q-1 14 -1 27v28q0 36 3 72q-54 -3 -103 -6t-94 -7l4 103h206q22 112 74 216.5t132.5 185t188 129t241.5 48.5q91 0 175 -17.5t146 -39.5l-29 -334h-61v14q0 30 -3 64t-12 67.5t-25.5 65t-43.5 55t-65.5 38t-92.5 14.5q-78 0 -151.5 -32.5t-134.5 -96.5 t-103.5 -158.5t-57.5 -218.5h675l-25 -70q-98 -1 -207 -2q-47 -1 -100 -1.5t-110.5 -2t-118 -3t-120.5 -3.5q-1 -10 -1 -20v-21q0 -49 3 -94h603l-25 -70q-82 0 -175 -1q-80 -1 -182.5 -3t-211.5 -6q19 -136 67 -229.5t111.5 -151t138 -82.5t146.5 -25q35 0 64.5 3 t58.5 10.5t61 20t72 30.5l20 -58q-83 -52 -168.5 -71t-156.5 -19q-119 0 -221 36.5t-181.5 107.5t-131.5 176t-70 243q-57 -3 -110 -6t-101 -8z" />
<glyph unicode="&#x2122;" horiz-adv-x="2971" d="M1218 0v57q26 2 46 4t37 4t33 3t34 2l145 1316l95 33l483 -1116h14l527 1094l100 20l29 -1165q1 -59 7 -94t18 -55t30.5 -28t46.5 -12l43 -6v-57q-22 3 -53 7q-26 2 -64 4.5t-88 2.5q-51 0 -112 -3t-136 -11v57q26 2 46 4t37 4t33 3t34 2l-4 1026h-19l-510 -1041h-47 l-448 1045h-17l-61 -770q-2 -15 -3 -34.5t-2.5 -39t-2 -36.5t-0.5 -27q0 -39 7 -62.5t19.5 -37.5t31 -20.5t42.5 -9.5l43 -6v-57q-16 3 -42 7q-22 2 -55 4.5t-79 2.5t-104.5 -3t-133.5 -11zM35 1067l41 336q114 -9 195.5 -10.5t144.5 -1.5q136 0 259.5 0.5t226.5 2t182.5 4 t127.5 7.5l-30 -338h-62q0 11 1 28.5t1 28.5q0 33 -7 64t-30 55.5t-66.5 41t-117.5 20.5l-196 10q-5 -132 -9.5 -261t-8 -247t-7 -221t-5.5 -182t-3.5 -130t-1.5 -65q0 -44 6.5 -71t19 -42.5t30.5 -22.5t42 -10l43 -6v-57q-22 3 -53 7q-26 2 -64 4.5t-88 2.5q-51 0 -112 -3 t-136 -11v57q26 2 46 4t37 4t33 3t34 2l43 1251q-57 2 -103.5 3t-74.5 1q-56 0 -99 -8.5t-76.5 -35.5t-58.5 -78t-45 -136h-59z" />
<glyph unicode="&#xe000;" horiz-adv-x="895" d="M0 895h895v-895h-895v895z" />
<glyph unicode="&#xfb01;" horiz-adv-x="1081" d="M35 830l5 47h165q2 64 3 102.5t1 67.5q0 45 18 100.5t50.5 112t78 109.5t100 94t116 66t127.5 25q64 0 91 -22.5t27 -59.5q0 -17 -6 -34t-20 -33q-31 8 -61.5 13t-59.5 5q-67 0 -116 -7.5t-85 -27t-59.5 -54.5t-39 -89.5t-24 -131.5t-13.5 -181l-3 -55h150q101 0 212 4.5 t229 15.5q-25 -162 -37 -327t-12 -312q0 -68 4 -109.5t17 -64t38.5 -30t69.5 -7.5h45v-47h-16q-94 0 -169.5 -7t-147.5 -26q24 162 36.5 323t12.5 316q0 56 -8 92t-23.5 56.5t-38.5 28.5t-52 9l-314 14l-9 -192q-5 -102 -6.5 -196.5t-1.5 -159.5t3 -106t15.5 -64t39 -32 t73.5 -9h43v-47q-48 -2 -90 -3t-82 -4t-81 -8.5t-87 -17.5q17 177 29.5 339t22.5 310l8 199q-42 3 -83.5 6.5t-84.5 8.5z" />
<glyph unicode="&#xfb02;" horiz-adv-x="1076" d="M35 829l4 48h168q0 5 0.5 23t0.5 42.5t0.5 52t0.5 52.5q0 45 18 100.5t50.5 112t78 109.5t100 94t116 66t127.5 25q38 0 62.5 -8.5t38.5 -24.5q35 7 71.5 15t77.5 18q-12 -127 -22 -262t-18 -267t-14 -255.5t-9.5 -228t-5.5 -185.5t-2 -127q0 -57 4.5 -93t18.5 -55.5 t40 -26.5t68 -7h43v-47q-48 -2 -90 -3t-82 -4t-81 -8.5t-87 -17.5q18 185 32.5 378.5t24.5 380t15.5 360t5.5 319.5q-26 8 -62.5 13t-70.5 5q-62 0 -108.5 -7.5t-81 -27t-57.5 -54t-38 -89t-24 -132t-15 -181.5l-3 -55q68 0 141.5 2.5t151.5 13.5l-43 -92h-66h-94 q-46 0 -92 2l-11 -189q-5 -102 -6.5 -196.5t-1.5 -159.5t3 -106t15.5 -64t39 -32t73.5 -9h43v-47q-48 -2 -90 -3t-82 -4t-81 -8.5t-87 -17.5q17 177 29.5 339t22.5 310l8 195q-42 3 -83.5 7.5t-84.5 10.5z" />
<glyph unicode="&#xfb03;" horiz-adv-x="1650" d="M38 828l5 49h160l4 120q1 45 27 97t68 103t98 97.5t118 82t126.5 57t124.5 21.5q58 0 100.5 -13.5t68.5 -36.5q26 27 61 53.5t77 48t90.5 34.5t101.5 13q64 0 91 -22.5t27 -59.5q0 -17 -6 -34t-20 -33q-31 8 -61.5 13t-59.5 5q-67 0 -116 -6t-84.5 -24t-59 -51.5 t-38.5 -88t-24 -133.5t-15 -188l-3 -55h150q101 0 212 4.5t229 15.5q-25 -162 -37 -327t-12 -312q0 -68 4 -109.5t17 -64t38.5 -30t69.5 -7.5h45v-47h-16q-94 0 -169.5 -7t-147.5 -26q24 162 36.5 323t12.5 316q0 56 -8 92t-23.5 57t-38.5 29t-52 8h-159q-78 0 -156 2 l-8 -180q-5 -102 -6.5 -196.5t-1.5 -159.5t3 -106t15.5 -64t39 -32t73.5 -9h43v-47q-48 -2 -90 -3t-82 -4t-81 -8.5t-87 -17.5q17 177 29.5 339t22.5 310l7 180q-117 2 -227.5 6t-215.5 9l-11 -197q-5 -102 -6.5 -196.5t-1.5 -159.5t3 -106t15.5 -64t39 -32t73.5 -9h43v-47 q-48 -2 -90 -3t-82 -4t-81 -8.5t-87 -17.5q9 88 17 177.5t15 176.5t12 169t8 156l6 171q-42 2 -83 5t-80 6zM331 877h443q1 32 2 55.5t1.5 42t0.5 33.5v29q0 63 14.5 126t48.5 123q-39 20 -82.5 29t-91.5 9q-38 0 -76.5 -4.5t-74 -20t-67.5 -45t-56.5 -79t-41 -122.5 t-20.5 -176z" />
<glyph unicode="&#xfb04;" horiz-adv-x="1644" d="M38 828l5 49h160l4 120q1 45 27 97t68 103t98 97.5t118 82t126.5 57t124.5 21.5q58 0 100.5 -13.5t68.5 -36.5q26 27 61 53.5t77 48t90.5 34.5t101.5 13q71 0 101 -32q35 6 71 14t77 18q-12 -127 -22 -262t-18 -267t-14 -255.5t-9.5 -228t-5.5 -185.5t-2 -127 q0 -57 4.5 -93t18.5 -55.5t40 -26.5t68 -7h43v-47q-48 -2 -90 -3t-82 -4t-81 -8.5t-87 -17.5q18 186 32.5 379t24.5 379.5t15.5 360t5.5 319.5q-31 8 -64 13t-59 5q-66 0 -114 -6t-83 -24t-58.5 -51.5t-38.5 -88t-24 -133.5t-15 -188l-3 -53q71 2 143.5 5t147.5 8l-44 -91 h-251l-9 -187q-5 -102 -6.5 -196.5t-1.5 -159.5t3 -106t15.5 -64t39 -32t73.5 -9h43v-47q-48 -2 -90 -3t-82 -4t-81 -8.5t-87 -17.5q17 177 29.5 339t22.5 310l7 186q-119 2 -228 3.5t-215 6.5l-11 -198q-5 -102 -6.5 -196.5t-1.5 -159.5t3 -106t15.5 -64t39 -32t73.5 -9h43 v-47q-48 -2 -90 -3t-82 -4t-81 -8.5t-87 -17.5q9 88 17 177.5t15 176.5t12 169t8 156l6 171q-42 2 -82 5t-81 6zM331 877h443q1 32 2 55.5t1.5 42t0.5 33.5v29q0 63 14.5 126t48.5 123q-39 20 -82.5 29t-91.5 9q-38 0 -76.5 -4.5t-74 -20t-67.5 -45t-56.5 -79t-41 -122.5 t-20.5 -176z" />
<glyph horiz-adv-x="664" d="M412 1591l342 301q20 -34 45 -64.5t53 -53.5l-403 -228z" />
<glyph horiz-adv-x="913" d="M307 1661q0 27 8.5 46.5t22.5 31.5t31.5 18t36.5 6q18 0 36 -6t31.5 -18t22 -31.5t8.5 -46.5q0 -51 -28 -83t-70 -32t-70.5 32t-28.5 83zM676 1661q0 27 8.5 46.5t22 31.5t31.5 18t36 6t36 -6t31.5 -18t22 -31.5t8.5 -46.5q0 -51 -28 -83t-70 -32t-70 32t-28 83z" />
<glyph horiz-adv-x="682" d="M248 1759q25 31 46 63t40 64l358 -291l-39 -49z" />
<glyph horiz-adv-x="977" d="M221 1567q10 39 28.5 83t47.5 81.5t69.5 62.5t96.5 25q49 0 94 -27t94 -66q26 -21 44.5 -36t33.5 -25t28.5 -15t28.5 -5q25 0 46 18.5t37.5 45.5t28.5 57t20 53l55 -21q-10 -39 -28.5 -83.5t-47.5 -82t-70 -62t-96 -24.5q-49 0 -94 27t-94 65q-26 21 -44.5 36.5 t-33.5 25.5t-28.5 15t-28.5 5q-26 0 -46.5 -18.5t-37 -45.5t-28.5 -57t-20 -53z" />
<glyph horiz-adv-x="700" d="M287 1722q0 40 16 77t45 65.5t71 45.5t93 17q48 0 83.5 -14t58 -37t33.5 -53.5t11 -63.5q0 -45 -18 -84t-48.5 -67.5t-71 -45t-85.5 -16.5q-52 0 -88 15t-58 40t-32 56.5t-10 64.5zM371 1737q0 -23 7 -46t22 -42t37.5 -31t54.5 -12q55 0 86.5 34.5t31.5 96.5 q0 21 -7 44.5t-22 43t-38 32.5t-54 13q-28 0 -50 -11t-37 -29.5t-23 -42.5t-8 -50z" />
<glyph horiz-adv-x="967" d="M307 1587l350 305l328 -305l-43 -41l-291 178l-305 -178z" />
</font>
</defs>
</svg>
