<?xml version="1.0" standalone="no"?>
<!DOCTYPE svg PUBLIC "-//W3C//DTD SVG 1.1//EN" "http://www.w3.org/Graphics/SVG/1.1/DTD/svg11.dtd" >
<svg xmlns="http://www.w3.org/2000/svg">
<metadata>
This is a custom SVG webfont generated by Font Squirrel.
Copyright   : Copyright c 20112012 Brownfox wwwbrownfoxorg gayanehbgmailcom with Reserved Font Name Simonetta
Designer    : Gayaneh Bagdasaryan
Foundry     : Brownfox
Foundry URL : httpwwwbrownfoxorg
</metadata>
<defs>
<font id="SimonettaBlackItalic" horiz-adv-x="1595" >
<font-face units-per-em="2048" ascent="1638" descent="-410" />
<missing-glyph horiz-adv-x="446" />
<glyph unicode=" "  horiz-adv-x="446" />
<glyph unicode="&#x09;" horiz-adv-x="446" />
<glyph unicode="&#xa0;" horiz-adv-x="446" />
<glyph unicode="!" horiz-adv-x="610" d="M129 47q4 42 6 83.5t4 73.5q1 19 1.5 37.5t0.5 35.5l235 64l79 -75q-5 -43 -7.5 -84.5t-4.5 -73.5q-1 -20 -1.5 -38t-0.5 -35l-233 -65zM164 1389q9 -1 25.5 -2.5t38.5 -3t48.5 -2.5t55.5 -1q57 0 102.5 3.5t65.5 5.5q-12 -83 -23 -163.5t-20 -157t-17 -146.5t-14 -130 q-8 -72 -14 -138.5t-11 -129.5h-200q-2 63 -3.5 129.5t-3.5 138.5q-2 60 -4.5 130t-6.5 146.5t-8.5 157t-10.5 163.5z" />
<glyph unicode="&#x22;" horiz-adv-x="825" d="M104 1483h306l-91 -539h-161zM477 1483h303l-88 -539h-164z" />
<glyph unicode="#" horiz-adv-x="1567" d="M41 338l6 205h329l52 294q-86 -3 -160 -7t-131 -9l6 205h318l65 365h236l-65 -365h260l65 365h235l-65 -365h297l-8 -172h-90q-43 0 -101 -0.5t-128 -1.5l-55 -309h286l-7 -172h-87q-42 0 -98 -0.5t-124 -1.5l-65 -369h-236l65 367q-64 -1 -129.5 -2t-131.5 -3l-64 -362 h-235l62 355q-89 -4 -166.5 -8t-135.5 -9zM612 543h260l54 306q-64 -2 -129.5 -2t-131.5 -2z" />
<glyph unicode="$" horiz-adv-x="1237" d="M66 16l14 449h231l31 -225q16 -9 40.5 -18.5t54.5 -17t64.5 -12t71.5 -4.5q44 0 81.5 7.5t65 22t43 37t15.5 52.5q0 29 -13 53.5t-37 47t-58.5 44t-77.5 44.5l-195 104q-62 33 -118 72t-99 88t-68.5 110.5t-25.5 139.5q0 68 19.5 137t69 127t135 99t216.5 54v150h254 l-10 -150q100 -7 191 -21.5t159 -31.5l-28 -448h-232l-29 215q-42 31 -97.5 46t-112.5 15q-79 0 -125.5 -30t-46.5 -89q0 -31 13.5 -58t38 -51t58 -46t72.5 -43l174 -92q64 -34 124.5 -74t107.5 -90t75.5 -113.5t28.5 -144.5q0 -63 -23 -126.5t-73 -118.5t-130 -96t-194 -59 v-213h-254l13 203q-59 2 -116.5 7t-111 12.5t-100.5 16.5t-86 19z" />
<glyph unicode="%" horiz-adv-x="1518" d="M43 932q0 68 27.5 142t80 135.5t128 101t170.5 39.5q43 0 75.5 -8.5t64.5 -24.5q10 -5 28.5 -13t46 -15t65.5 -12t88 -5q99 0 171.5 16t120.5 34l91 126l119 -90l-1004 -1393l-118 98l812 1121q-45 -20 -103 -33.5t-130 -13.5q-18 0 -37 1t-39 3q6 -27 8.5 -55t2.5 -56 q0 -65 -26 -139t-75.5 -136.5t-122 -103.5t-165.5 -41q-75 0 -128 27t-86.5 72t-49 103t-15.5 120zM289 987q0 -63 14 -114.5t43 -102.5h66q23 29 41 83.5t18 119.5q0 63 -14.5 114t-42.5 101h-68q-22 -28 -39.5 -82t-17.5 -119zM768 322q0 68 27.5 142t80 135t128 100.5 t170.5 39.5q77 0 127.5 -27.5t80.5 -72.5t42 -102.5t12 -116.5q0 -65 -26 -139t-75.5 -136.5t-122 -103.5t-165.5 -41q-75 0 -128 27t-86.5 72t-49 103t-15.5 120zM1014 377q0 -63 14 -114.5t43 -102.5h66q23 29 41 83t18 119q0 63 -14.5 114.5t-42.5 101.5h-68 q-22 -28 -39.5 -82t-17.5 -119z" />
<glyph unicode="&#x26;" horiz-adv-x="1305" d="M80 373q0 81 24 146.5t64 117t90.5 89.5t103.5 62q-24 20 -48 47.5t-43.5 63t-31.5 79.5t-12 97q0 57 24.5 120t78 115.5t138.5 87t206 34.5q30 0 64.5 -3t71 -12t75 -26t76.5 -45l-15 -328h-229l-23 162q-32 12 -75.5 20.5t-85.5 8.5h-10q-5 0 -11 -1q-6 -30 -6 -61 q0 -43 12 -84.5t34.5 -76.5t54.5 -63t71 -44l-10 -160q-66 -12 -112.5 -40.5t-75.5 -67.5t-42.5 -85.5t-13.5 -95.5q0 -59 17 -117.5t46 -107.5h177q30 33 54.5 87.5t40.5 135.5l-102 14l7 195q37 -2 72.5 -3t70.5 -1q121 0 237.5 12t243.5 41l-8 -289q-65 0 -116.5 0.5 t-98.5 2.5q-31 -89 -79 -169t-114 -140.5t-151 -96t-189 -35.5q-97 0 -179.5 26t-143 78t-95 129.5t-34.5 180.5z" />
<glyph unicode="'" horiz-adv-x="453" d="M106 1483h304l-88 -539h-164z" />
<glyph unicode="(" horiz-adv-x="780" d="M59 526q0 150 48.5 293.5t135 268.5t206 227t260.5 170l84 -127q-234 -169 -343.5 -379t-109.5 -453q0 -120 17.5 -225t61.5 -204.5t119 -197.5t191 -202l-88 -129q-139 85 -247.5 186t-182.5 219.5t-113 256t-39 296.5z" />
<glyph unicode=")" horiz-adv-x="780" d="M-14 -305q233 169 342.5 379t109.5 452q0 120 -17.5 225.5t-61.5 205t-119 197t-191 202.5l88 129q139 -86 247.5 -186.5t182.5 -219.5t113 -256.5t39 -296.5q0 -150 -48.5 -293t-135 -268t-205.5 -227.5t-260 -169.5z" />
<glyph unicode="*" horiz-adv-x="938" d="M45 895l272 121l-266 121q34 46 58 85t43 81l233 -168l-20 290q21 -2 36 -3.5t26 -2t20 -0.5h18q15 0 34.5 0.5t59.5 5.5l-39 -295q29 19 61.5 41.5t65.5 45t64 43.5t57 38q19 -42 39.5 -81t48.5 -84l-268 -117q65 -31 132 -65t126 -62q-9 -11 -24 -33.5t-30 -47t-29 -47 t-22 -34.5l-229 176q3 -75 8 -151t8 -144q-7 0 -20 0.5t-27.5 0.5t-27.5 0.5t-19 0.5t-19.5 -0.5t-28.5 -0.5t-28.5 -0.5t-19.5 -0.5l43 291l-248 -170q-5 12 -17 35.5t-25.5 48.5t-26 47.5t-19.5 34.5z" />
<glyph unicode="+" horiz-adv-x="1063" d="M41 549v188h377v377h188v-377h377v-188h-377v-377h-188v377h-377z" />
<glyph unicode="," horiz-adv-x="532" d="M-18 -166q32 46 55 88t38 86t22 92t7 107q0 20 -1 41.5t-3 44.5l246 67l82 -79q-2 -73 -26 -147.5t-64.5 -147.5t-94.5 -142.5t-116 -132.5z" />
<glyph unicode="-" horiz-adv-x="819" d="M119 389l10 229h565l-10 -229h-565z" />
<glyph unicode="." horiz-adv-x="537" d="M86 51q4 45 6 88t4 78q2 40 2 76l246 67l82 -79q-5 -45 -7.5 -88t-4.5 -78q-2 -40 -2 -76l-244 -68z" />
<glyph unicode="/" horiz-adv-x="1157" d="M10 -356l881 1829h213l-881 -1829h-213z" />
<glyph unicode="0" horiz-adv-x="1280" d="M63 662q0 89 13 181t41.5 177.5t73.5 160.5t109 131t148 88t191 32q98 0 176 -27.5t137.5 -76t102.5 -115t70 -145t40 -165t13 -174.5q0 -89 -13.5 -181t-42.5 -177.5t-74.5 -160.5t-110 -131t-149 -88t-190.5 -32q-97 0 -174.5 27.5t-137 76t-102 115t-69.5 144.5 t-39.5 164.5t-12.5 175.5zM397 725q0 -53 4.5 -115t14.5 -123t26.5 -118t41.5 -101t59 -70t78 -26q47 0 82 25t60 65.5t40.5 93t24.5 107.5t12.5 108.5t3.5 96.5q0 53 -4.5 115t-14.5 123t-26.5 118t-41.5 101t-58.5 70t-77.5 26q-49 0 -84.5 -25t-60.5 -65.5t-40.5 -93 t-24 -107.5t-11.5 -108.5t-3 -96.5z" />
<glyph unicode="1" horiz-adv-x="872" d="M10 1112q72 42 136 86t119.5 86t102.5 80t85 68l186 -76q-3 -36 -5.5 -94t-5 -130t-5.5 -153.5t-5 -164.5t-4 -163.5t-3 -151t-2 -126t-1 -88.5l170 -115l-8 -176q-56 4 -115 8q-51 3 -110.5 5.5t-115.5 2.5t-142.5 -2t-198.5 -14l8 194q27 3 55 6q24 2 53.5 4.5 t57.5 2.5q5 48 9 115.5t7 144.5t5.5 158.5t4 157t2.5 140.5t1 109l-185 -94z" />
<glyph unicode="2" horiz-adv-x="1128" d="M2 190q67 70 138 141t138 141t126.5 139t103.5 133.5t70 124t26 112.5q0 40 -12 73.5t-33.5 57.5t-52.5 37.5t-68 13.5q-60 0 -125.5 -27t-122.5 -79l-116 153q46 48 98.5 89t112.5 70.5t129.5 46t150.5 16.5q88 0 161.5 -25t127 -74t83.5 -121.5t30 -167.5 q0 -92 -45 -185t-130.5 -194t-211 -213t-285.5 -241l475 76l102 219l166 -27q-9 -57 -17.5 -125.5t-15.5 -134.5t-13.5 -124t-10.5 -95h-889z" />
<glyph unicode="3" horiz-adv-x="1128" d="M-4 86l156 281q45 -46 86.5 -75.5t82.5 -46.5t82.5 -23.5t85.5 -6.5q40 0 76 13.5t63 40t42.5 66.5t15.5 93q0 42 -13.5 76.5t-38 59t-59 37.5t-77.5 13q-41 0 -86 -11.5t-80 -27.5l-64 193l111 43q36 14 74 36.5t69.5 52t51.5 65.5t20 77q0 21 -6.5 40.5t-21 34 t-36 23.5t-51.5 9q-22 0 -51 -5.5t-62.5 -19t-72 -36.5t-80.5 -58l-123 150q46 48 99.5 93t116 80.5t136 57t160.5 21.5q94 0 161.5 -22t111.5 -60.5t65 -92t21 -116.5q0 -46 -17.5 -92t-46 -86.5t-65.5 -73t-76 -51.5q58 -9 109 -36t89 -69.5t60 -99t22 -123.5 q0 -78 -25.5 -149t-70 -132t-105 -111t-131.5 -85.5t-149.5 -54.5t-157.5 -19q-44 0 -94.5 5.5t-102.5 19.5t-104 39t-100 63z" />
<glyph unicode="4" horiz-adv-x="1221" d="M0 393l6 221l721 818l203 -76q-3 -31 -5.5 -78.5t-5 -106.5t-5 -126.5t-5 -138t-4.5 -142.5t-3 -140q56 3 102.5 6.5t80.5 5.5q40 3 72 5l-67 -248h-192q-1 -33 -1 -61v-47l170 -115l-6 -176q-60 4 -122 8q-53 3 -115.5 5.5t-118.5 2.5q-54 0 -135 -2t-191 -14l6 194 q26 3 55 6l54 4q30 3 59 3q3 40 6 88.5t5 103.5h-564zM264 602q72 0 150 1.5t158 4.5q3 97 4.5 184.5t1.5 149.5z" />
<glyph unicode="5" horiz-adv-x="1106" d="M-18 72l153 280q37 -40 73 -66.5t72 -42t71.5 -22t70.5 -6.5q46 0 86.5 14t70.5 43.5t47 75t17 109.5q0 39 -13.5 76.5t-41.5 67.5t-72 48t-104 18q-39 0 -80.5 -7t-69.5 -16l-100 127l78 626h528l100 151l172 -73q-12 -35 -21.5 -66t-18.5 -63.5t-19 -68t-23 -80.5 l-524 -65l-31 -247q39 11 80 16t84 5q80 0 157 -23.5t138 -71t98 -119t37 -168.5q0 -117 -51 -219.5t-139 -179.5t-206 -121.5t-253 -44.5q-47 0 -97 7t-98.5 21t-92.5 35t-78 50z" />
<glyph unicode="6" horiz-adv-x="1153" d="M49 469q0 116 33 221t91 198t138.5 174.5t175.5 150t200.5 123.5t215.5 96l84 -179q-78 -33 -152 -78.5t-139.5 -102t-120.5 -122.5t-96 -140q44 14 89.5 22t95.5 8q69 0 139.5 -22t128 -68t93.5 -117.5t36 -171.5q0 -118 -43.5 -211t-115 -157.5t-163 -99t-186.5 -34.5 q-105 0 -196.5 33.5t-160 98t-108 159.5t-39.5 219zM383 453q0 -68 13.5 -119t37 -84.5t55.5 -50.5t70 -17q36 0 66.5 15t52.5 43.5t34.5 71t12.5 98.5q0 47 -9 87.5t-31 70t-57.5 46.5t-88.5 17q-38 0 -72.5 -7.5t-66.5 -19.5q-8 -37 -12.5 -74.5t-4.5 -76.5z" />
<glyph unicode="7" horiz-adv-x="1059" d="M8 936q29 120 54 232t47 229h870l78 -109q-94 -202 -174.5 -378t-152.5 -338t-139 -314t-134 -299l-322 170q88 137 170.5 263t160.5 252t153.5 257t150.5 283l-475 -58l-102 -219z" />
<glyph unicode="8" horiz-adv-x="1169" d="M53 315q0 71 21.5 131t58.5 112t85.5 97.5t102.5 87.5q-41 36 -76.5 73.5t-62 78t-42 84t-15.5 90.5q0 62 19.5 113.5t54 92t80.5 70t99.5 49t111.5 29t116 9.5q81 0 158 -20t136.5 -59.5t95.5 -99.5t36 -141q0 -58 -15.5 -106.5t-42.5 -91t-63 -79.5t-78 -73 q46 -39 88 -81t74 -87.5t51 -95t19 -103.5q0 -102 -46.5 -183t-123 -137t-176 -86t-205.5 -30q-81 0 -163.5 21.5t-148.5 65.5t-107.5 111t-41.5 158zM315 344q0 -46 16 -81.5t43.5 -59.5t65 -36.5t80.5 -12.5q39 0 72.5 11t58 33t38 53.5t13.5 72.5q0 38 -17.5 74t-47 71 t-69 70t-82.5 70q-35 -28 -66 -59t-54.5 -64t-37 -68.5t-13.5 -73.5zM481 1122q0 -28 14.5 -55.5t40 -56t59.5 -58t73 -59.5q23 20 44 40.5t36.5 43.5t24.5 49t9 57q0 37 -12.5 66t-34 49t-50.5 30.5t-62 10.5q-26 0 -51.5 -7t-45.5 -21t-32.5 -36t-12.5 -53z" />
<glyph unicode="9" horiz-adv-x="1153" d="M53 930q0 117 43.5 210.5t115 158t163 99t186.5 34.5q105 0 196.5 -33.5t159.5 -98t107 -160t39 -218.5q0 -116 -32.5 -221t-91 -198t-138.5 -174.5t-175 -150t-201 -123.5t-216 -96l-84 178q79 33 153 78.5t139.5 102t120 122.5t95.5 140q-87 -29 -182 -29 q-69 0 -140 22t-128.5 68t-93.5 117.5t-36 171.5zM389 981q0 -47 9 -87.5t31 -70t57.5 -46.5t88.5 -17q37 0 71 6.5t66 18.5q17 77 17 153q0 67 -13 118t-36.5 84.5t-56 50.5t-70.5 17q-35 0 -65 -15t-52 -43.5t-34.5 -71t-12.5 -97.5z" />
<glyph unicode=":" horiz-adv-x="571" d="M117 47q4 42 6 83.5t4 73.5q2 38 2 73l235 64l79 -75q-5 -43 -7.5 -84.5t-4.5 -73.5q-2 -39 -2 -73l-233 -65zM135 631q4 42 6 83.5t4 73.5q2 38 2 73l235 64l79 -75q-5 -43 -7.5 -84.5t-4.5 -73.5q-2 -39 -2 -73l-233 -65z" />
<glyph unicode=";" horiz-adv-x="573" d="M2 -166q32 46 55 88t38 86t22 92t7 107q0 20 -1 41.5t-3 44.5l246 67l82 -79q-2 -73 -26 -147.5t-64.5 -147.5t-94.5 -142.5t-116 -132.5zM139 631q4 42 6 83.5t4 73.5q2 38 2 73l235 64l79 -75q-5 -43 -7.5 -84.5t-4.5 -73.5q-2 -39 -2 -73l-233 -65z" />
<glyph unicode="&#x3c;" horiz-adv-x="1092" d="M37 565v131l852 432l82 -159l-668 -338l668 -336l-82 -160z" />
<glyph unicode="=" horiz-adv-x="1214" d="M117 369v188h942v-188h-942zM117 737v189h942v-189h-942z" />
<glyph unicode="&#x3e;" horiz-adv-x="1092" d="M82 295l663 336l-663 338l82 159l852 -432v-131l-852 -430z" />
<glyph unicode="?" horiz-adv-x="795" d="M80 1069l12 307q19 6 48 12.5t63.5 11.5t71 8t71.5 3q79 0 147.5 -18.5t119 -53t79.5 -84t29 -112.5q0 -65 -22 -121.5t-56 -104.5t-75.5 -87.5t-80.5 -71t-70.5 -55t-45.5 -39.5l22 -185l-180 -43q-15 27 -28.5 57.5t-24 62t-17 63.5t-6.5 63q0 32 22 66.5t56.5 70 t78.5 72t87.5 72t83.5 70t67 65.5q-14 34 -53.5 48.5t-93.5 14.5q-36 0 -76.5 -8t-80.5 -20.5t-78.5 -29t-69.5 -34.5zM148 47q4 42 6 83.5t4 73.5q2 38 2 73l235 64l79 -75q-5 -43 -7.5 -84.5t-4.5 -73.5q-2 -39 -2 -73l-233 -65z" />
<glyph unicode="@" horiz-adv-x="1540" d="M59 369q0 111 28 211.5t79 187t123.5 156t161.5 119t191.5 76t215.5 26.5q135 0 245.5 -38.5t189 -111.5t122 -177t43.5 -234q0 -120 -43 -219t-118 -169.5t-176 -109.5t-218 -39l-61 98l43 174l-11 7q-30 -45 -65 -89.5t-72 -83t-75 -66.5t-74 -40l-150 49 q-4 14 -7.5 32t-6.5 36.5t-4.5 36t-1.5 30.5q0 130 37 240t96 190t134 125t151 45q31 0 66.5 -2.5t72 -8t73 -13.5t70.5 -19q-11 -138 -14 -271t-6 -269q49 10 88 40t66.5 75t42 101.5t14.5 119.5q0 82 -28 159.5t-85.5 137.5t-145 96.5t-206.5 36.5q-124 0 -231.5 -47 t-187 -130t-125.5 -197t-46 -249q0 -123 35 -227.5t104.5 -180t174 -118.5t243.5 -43q57 0 111 7t108 21.5t109.5 36.5t115.5 52l48 -107q-144 -77 -273 -114t-256 -37q-148 0 -278.5 50.5t-227.5 142t-153 217.5t-56 278zM645 296q0 -15 2 -32q25 1 64.5 30t77.5 78 t68.5 115t39.5 142l2 59q-19 5 -41.5 8.5t-42.5 3.5q-41 0 -72.5 -30.5t-53 -81.5t-33 -118.5t-11.5 -141.5v-32z" />
<glyph unicode="A" horiz-adv-x="1477" d="M-31 -6l8 194q17 3 31.5 5t28.5 3.5t28 2.5t31 2l529 1190l256 41l434 -1147l170 -115l-8 -176q-66 6 -150 11t-178 5q-100 0 -191.5 -5t-166.5 -11l8 194q52 7 90 10t76 3l-64 207q-89 -2 -205.5 -6.5t-241.5 -12.5l-36 -104l133 -115l-8 -176q-66 7 -133.5 11.5 t-153.5 4.5q-84 0 -153 -4t-134 -12zM539 636h292l-118 384h-41z" />
<glyph unicode="B" horiz-adv-x="1389" d="M72 -6l8 194q26 3 54 6q24 2 53.5 4.5t58.5 2.5q4 48 8 121.5t7 159.5t6 177.5t5 176t3 155.5t1 115l-170 115l9 176q43 -4 91 -7q41 -2 92 -4t105 -2q100 0 185.5 7.5t165.5 7.5q117 0 206 -25t148 -70t89 -108.5t30 -140.5q0 -49 -10.5 -95t-28.5 -86t-41 -72t-48 -53 q49 -21 90.5 -51t71 -71.5t46 -95.5t16.5 -123q0 -93 -34 -171.5t-100 -135.5t-162 -89t-220 -32q-56 0 -112.5 4.5t-112 10.5t-110 10.5t-105.5 4.5q-69 0 -139 -3.5t-156 -12.5zM590 244q18 -12 41.5 -20.5t47.5 -13.5t45.5 -7t33.5 -2q40 0 75.5 12.5t62.5 37.5 t42.5 63.5t15.5 91.5q0 41 -14 75.5t-44 59t-76.5 38t-110.5 13.5q-28 0 -60.5 -1.5t-52.5 -4.5zM604 807q9 1 22.5 1.5t27.5 0.5h28h23q34 0 68 -1t68 -4q25 30 42.5 72t17.5 87q0 50 -16 89.5t-45.5 67t-71.5 42t-94 14.5h-26q-18 0 -27 -2q-3 -63 -6 -127q-3 -55 -6 -119 t-5 -121z" />
<glyph unicode="C" horiz-adv-x="1405" d="M78 670q0 180 59 322t165.5 239.5t256 149t330.5 51.5q78 0 141 -5t116 -13t99 -18.5t90 -21.5l-16 -448h-252l-29 215q-31 29 -82.5 49t-136.5 20q-72 0 -140 -31.5t-121.5 -93.5t-85.5 -154.5t-32 -215.5q0 -141 44 -238t117 -157.5t167 -87.5t193 -27q46 0 91.5 3.5 t86.5 9.5t76.5 13.5t62.5 16.5l55 -203q-47 -17 -104 -32.5t-120 -27.5t-131 -19t-136 -7q-173 0 -314 46t-241 136t-154.5 222.5t-54.5 306.5z" />
<glyph unicode="D" horiz-adv-x="1620" d="M72 -6l8 194q17 3 34 5t36.5 3.5t43 2.5t52.5 2q5 83 9 170t7.5 173.5t6 169t4 155t2.5 133.5t1 104l-170 115l9 176q46 -6 91 -10q38 -4 82 -6.5t79 -2.5q59 0 115.5 3.5t115 8t120 8t130.5 3.5q164 0 294.5 -47.5t221 -136t138.5 -215t48 -283.5q0 -72 -14 -154 t-48 -163t-92 -156t-145 -132.5t-207.5 -91.5t-279.5 -34q-50 0 -100 3.5t-102 7.5t-105.5 7.5t-110.5 3.5q-16 0 -45.5 -1t-67 -2.5t-79.5 -5t-82 -7.5zM586 250q35 -11 93.5 -22t121.5 -11q33 0 74.5 9t84 31.5t83 59.5t72 94t50.5 135.5t19 182.5q0 43 -7 94t-24.5 101.5 t-48 97.5t-76.5 83t-109.5 57.5t-148.5 21.5q-43 0 -85.5 -1.5t-68.5 -4.5z" />
<glyph unicode="E" horiz-adv-x="1384" d="M72 -6l8 194l60 6q26 2 54.5 4.5t51.5 2.5q4 48 8 121.5t7 159.5t6 177.5t5 176t3 155.5t1 115l-170 115l9 176q125 -12 260.5 -14.5t281.5 -2.5q136 0 303 3t343 14l-31 -471h-232l-26 213l-393 39l-17 -373l400 16l-11 -248l-397 27l-6 -377l403 29l66 227h239 l-59 -499q-165 14 -343.5 22t-369.5 8q-117 0 -225.5 -4t-228.5 -12z" />
<glyph unicode="F" horiz-adv-x="1288" d="M72 -6l8 194l62 6q26 2 54.5 4.5t49.5 1.5q4 48 8 122t7 160t6 177.5t5 176t3 155.5t1 115l-170 115l9 176q125 -12 257.5 -14.5t274.5 -2.5q132 0 296 3t339 14l-31 -471h-231l-27 215l-372 37l-19 -414l402 16l-11 -248l-397 27l-4 -274l170 -115l-8 -176 q-88 8 -175 12t-184 4q-88 0 -168 -3.5t-155 -12.5z" />
<glyph unicode="G" horiz-adv-x="1589" d="M76 672q0 182 63 323.5t174.5 238.5t265 147.5t334.5 50.5q74 0 138 -5t120 -13t105 -18.5t94 -21.5l-16 -448h-252l-29 215q-18 15 -41 27.5t-52.5 21.5t-66.5 14.5t-84 5.5q-68 0 -137 -30t-125 -92t-91.5 -156.5t-35.5 -224.5q0 -120 33 -217t89.5 -165.5t132 -105.5 t159.5 -37q57 0 105 10t83 33l9 230l-174 114l8 176q56 -4 113 -8q49 -3 105 -5.5t105 -2.5q42 0 82.5 0.5t83 2t88.5 5t99 8.5l-9 -194q-27 -3 -55 -6q-24 -2 -53 -4t-58 -2l-16 -494q-47 -17 -108.5 -32.5t-127.5 -27.5t-130 -19t-115 -7q-173 0 -321.5 46t-258 136 t-171.5 223.5t-62 307.5z" />
<glyph unicode="H" horiz-adv-x="1749" d="M72 -6l8 194q26 3 54 6q24 2 53.5 4.5t58.5 3.5q4 48 7 121t6.5 159t6 177.5t4.5 176t3 155.5t1 115l-170 115l11 176q42 -4 78 -7t72.5 -5.5t76.5 -3.5t90 -1q28 0 68 0.5t87.5 2t100.5 5t109 9.5l-11 -195q-26 -3 -54 -6q-24 -2 -53.5 -4t-57.5 -2q-3 -30 -5.5 -69.5 t-4.5 -86t-4 -99t-4 -106.5h560q2 86 3 159t1 118l-170 115l9 176q43 -4 79.5 -7t73 -5.5t76.5 -3.5t90 -1q28 0 68 0.5t87 2t100 5t108 9.5l-9 -195q-27 -3 -55 -6q-24 -2 -53 -4t-58 -2q-4 -48 -7.5 -121.5t-6.5 -159.5t-6 -178t-4 -176.5t-2.5 -155t-1.5 -114.5l170 -115 l-10 -176q-42 4 -78.5 7t-73.5 5t-77 3t-91 1q-28 0 -67 -0.5t-86.5 -2t-100.5 -4.5t-108 -9l10 194q26 3 54 6q24 2 53.5 4.5t58.5 3.5q2 32 4.5 76t5 96t4.5 110.5t4 118.5q-41 0 -101.5 -1.5t-134 -3.5t-156.5 -5.5t-169 -9.5q-2 -94 -3 -172t-1 -126l170 -115l-8 -176 q-43 4 -80 7t-73.5 5t-77 3t-91.5 1q-28 0 -67.5 -0.5t-86.5 -2t-99.5 -4.5t-106.5 -9z" />
<glyph unicode="I" horiz-adv-x="858" d="M72 -6l8 194q26 3 54 6q24 2 53.5 4.5t58.5 3.5q4 48 7 121t6.5 159t6 177.5t4.5 176t3 155.5t1 115l-170 115l11 176q42 -4 78 -7t72.5 -5.5t76.5 -3.5t90 -1q28 0 68 0.5t87.5 2t100.5 5.5t109 9l-11 -195q-26 -3 -54 -6q-24 -2 -53.5 -4t-57.5 -2q-4 -48 -8 -121.5 t-7 -159.5t-5.5 -178t-4.5 -176.5t-2.5 -155t-1.5 -114.5l170 -115l-8 -176q-43 4 -80 7t-73.5 5t-77 3t-91.5 1q-28 0 -67.5 -0.5t-86.5 -2t-99.5 -4.5t-106.5 -9z" />
<glyph unicode="J" horiz-adv-x="799" d="M-113 -375q81 68 148 142q28 31 56.5 67t52 74t40.5 77t23 78q5 38 10 96t9 128t8 149t6.5 159t5 157.5t4 145t2 121.5t0.5 87l-170 115l6 176q44 -4 80.5 -7t73 -5.5t76.5 -3.5t92 -1q27 0 66.5 0.5t86.5 2t100 5t107 9.5l-6 -195q-27 -3 -55 -6q-24 -2 -53 -4t-58 -2 q-3 -36 -6 -95t-6.5 -133t-6.5 -158t-6 -170t-6 -169.5t-5 -156.5t-4 -131t-3 -93q-3 -76 -30 -153.5t-90 -157.5t-167.5 -163.5t-261.5 -170.5z" />
<glyph unicode="K" horiz-adv-x="1559" d="M72 -6l8 194l54 6q24 2 53.5 4.5t58.5 3.5q4 48 7.5 121t6.5 159t6 177.5t4.5 176t2.5 155.5t1 115l-170 115l11 176q42 -4 78 -7t72.5 -5.5t76.5 -3.5t90 -1q28 0 68 0.5t87.5 2t100.5 5t109 9.5l-11 -195l-54 -6q-24 -2 -53.5 -4t-57.5 -2q-4 -48 -7.5 -121.5 t-7.5 -159.5t-6 -178t-4 -176.5t-3 -155t-1 -114.5l170 -115l-8 -176q-44 4 -80.5 7t-73 5t-77 3t-91.5 1q-28 0 -67.5 -0.5t-86.5 -2t-99.5 -4.5t-106.5 -9zM668 659l2 68l358 465q-20 2 -41.5 3t-40.5 3l-43 4l8 195q45 -6 117 -11.5t166 -5.5q82 0 160.5 4.5t138.5 12.5 l-10 -193l-215 -96l-285 -322l342 -501l211 -115l-6 -170h-416z" />
<glyph unicode="L" horiz-adv-x="1321" d="M72 -6l8 194l58 6q25 2 54 4.5t54 2.5q4 48 7 121.5t6.5 159.5t6 177.5t4.5 176t3 155.5t1 115l-170 115l11 176q54 -4 98 -7t84.5 -5.5t80.5 -3.5t85 -1q72 0 152 3t182 14l-11 -195q-32 -5 -62 -7.5t-53 -3.5q-27 -2 -50 -1q-3 -27 -5 -63t-4 -87.5t-4 -122.5 t-5 -169.5t-6 -228t-9 -296.5l385 29l63 227h260l-59 -499q-156 14 -322.5 21t-359.5 9q-121 -2 -242 -5t-241 -11z" />
<glyph unicode="M" horiz-adv-x="1966" d="M8 -6l8 194q17 3 38.5 5t44.5 4t44.5 3t38.5 1l148 1190l278 41l361 -861h41l321 820l328 41l104 -1147l162 -115l-6 -176q-66 6 -141 11t-168 5q-97 0 -187 -4t-166 -12l9 194q52 7 90 9l76 4l-52 649h-41l-313 -795h-201l-325 795h-41l-15 -565l170 -115l-8 -176 q-68 6 -145.5 11t-159.5 5q-81 0 -155.5 -5t-137.5 -11z" />
<glyph unicode="N" horiz-adv-x="1649" d="M53 -6l8 194q34 5 73.5 9t74.5 4l22 643q7 155 10 272t3 207v68l198 41l725 -889l37 6l-20 559l-191 115l8 176q67 -8 146.5 -13.5t161.5 -5.5q81 0 154.5 4t138.5 13l-9 -195q-34 -5 -72.5 -7.5t-70.5 -2.5l-25 -635q-3 -93 -5 -168.5t-3 -140.5t-1.5 -125t-0.5 -121 l-207 -43l-723 889l-36 -6l22 -557l191 -115l-9 -176q-68 6 -147.5 11t-161.5 5q-81 0 -154.5 -5t-136.5 -11z" />
<glyph unicode="O" d="M76 688q0 155 54 291t154.5 236.5t243.5 158.5t320 58q166 0 293 -58t213.5 -155.5t131 -225.5t44.5 -268q0 -105 -25.5 -202.5t-72 -182.5t-112.5 -155.5t-147 -120.5t-175 -77.5t-197 -27.5q-186 0 -322.5 58t-226 157.5t-133 232t-43.5 281.5zM440 735 q0 -112 26 -212.5t74.5 -176t117 -120t153.5 -44.5q89 0 155 42.5t109.5 111t64.5 153.5t21 170q0 111 -25.5 211t-73.5 175.5t-116.5 120t-154.5 44.5q-89 0 -155 -43t-109.5 -111.5t-65 -153t-21.5 -167.5z" />
<glyph unicode="P" horiz-adv-x="1321" d="M72 -6l8 194l54 6q24 2 53.5 4.5t58.5 3.5q4 48 8 121t7 159t6 177.5t5 176t3 155.5t1 115l-170 115l9 176q70 -7 136 -12t132 -5q65 0 117.5 3t99.5 6.5t92 6.5t96 3q125 0 220.5 -28.5t160 -82.5t97 -131t32.5 -174q0 -77 -21.5 -141.5t-59 -116t-87 -90t-106 -64 t-116.5 -38.5t-117 -13t-109 12l10 218q19 -4 28 -4.5t21 -0.5q40 0 75.5 15t61.5 43t41 68.5t15 91.5q0 103 -67 158t-181 55q-17 0 -35.5 -1.5t-29.5 -3.5q-4 -48 -7.5 -117.5t-7.5 -150.5t-6 -168t-4 -169.5t-3 -155.5t-1 -125l170 -115l-8 -176q-43 4 -79.5 7t-73 5 t-76.5 3t-91 1q-28 0 -68 -0.5t-87.5 -2t-100 -4.5t-106.5 -9z" />
<glyph unicode="Q" d="M76 688q0 155 54 291t154.5 236.5t243.5 158.5t320 58q166 0 293 -58t213.5 -155.5t131 -225.5t44.5 -268q0 -105 -25.5 -202.5t-72 -182.5t-112.5 -155.5t-147 -120.5t-175 -77.5t-197 -27.5q-186 0 -322.5 58t-226 157.5t-133 232t-43.5 281.5zM348 -184q34 18 72 33 t75.5 26.5t71 18t58.5 6.5q39 0 86.5 -12t98.5 -30.5t103 -42t100 -46t89.5 -42t71.5 -30.5l186 70l78 -164q-60 -65 -134.5 -118.5t-154.5 -78.5q-45 0 -95.5 16.5t-103 42.5t-103.5 58.5t-97.5 64t-85.5 58.5t-66 43l-192 -56zM440 735q0 -112 26 -212.5t74.5 -176 t117 -120t153.5 -44.5q89 0 155 42.5t109.5 111t64.5 153.5t21 170q0 111 -25.5 211t-73.5 175.5t-116.5 120t-154.5 44.5q-89 0 -155 -43t-109.5 -111.5t-65 -153t-21.5 -167.5z" />
<glyph unicode="R" horiz-adv-x="1470" d="M72 -6l8 194l54 6q24 2 53.5 4.5t58.5 2.5q4 48 8 121.5t7 159.5t6 177.5t5 176t3 155.5t1 115l-170 115l9 176q77 -7 147 -12t142 -5q85 0 183.5 9.5t198.5 9.5q125 0 221 -29t160.5 -83t97.5 -131.5t33 -174.5q0 -69 -18 -126.5t-50 -103.5t-76.5 -81t-98.5 -60 l182 -325l211 -115l-8 -170h-436l-285 538q-11 -1 -21 -1h-22q-22 0 -43 0.5t-35 1.5q-2 -79 -3 -145.5t-1 -108.5l168 -115l-8 -176q-43 4 -83.5 7t-82 5t-85.5 3t-95 1q-57 0 -142 -2t-194 -14zM604 749q17 -2 34.5 -3t37.5 0q123 0 191.5 54.5t68.5 162.5q0 57 -20 97.5 t-54.5 66t-81 37.5t-98.5 12h-30q-14 0 -25 -2q-3 -35 -6.5 -82t-6.5 -102.5t-5.5 -116.5t-4.5 -124z" />
<glyph unicode="S" horiz-adv-x="1253" d="M94 16l15 449h231l31 -225q16 -9 40.5 -18.5t54.5 -17t64.5 -12t71.5 -4.5q44 0 81.5 7.5t65 22t43 37t15.5 52.5q0 29 -13 53.5t-37 47t-58.5 44t-77.5 44.5l-195 104q-62 33 -118 72t-99 88t-68.5 110.5t-25.5 139.5q0 50 10 100.5t34 97t64 87.5t100.5 71.5t143 48 t192.5 17.5q69 0 137 -4.5t131.5 -12.5t120 -18.5t101.5 -22.5l-29 -448h-231l-29 215q-42 31 -98 46t-113 15q-78 0 -125 -30t-47 -89q0 -31 14 -58t38 -51t57.5 -46t72.5 -43l175 -92q64 -33 124 -73t107 -90t75.5 -114t28.5 -145q0 -73 -31 -146.5t-100 -132.5 t-179.5 -96t-270.5 -37q-68 0 -137 4.5t-133 12t-121.5 18t-102.5 22.5z" />
<glyph unicode="T" horiz-adv-x="1384" d="M55 926l15 471q94 -5 193 -9q42 -2 89.5 -3t97 -2.5t100.5 -2t99 -0.5h213t180 2.5t166.5 7t171.5 13.5l-30 -477h-254l-27 182l-188 16q-11 -143 -16.5 -353t-10.5 -486l170 -115l-6 -176q-45 4 -98 8q-46 3 -106.5 5.5t-131.5 2.5q-69 0 -153.5 -2t-192.5 -14l6 194 q27 3 55 6l54 4q30 2 59 3q3 58 7 127t7 142.5t6 148t5 143t3 128t1 103.5v168l-197 17l-33 -252h-254z" />
<glyph unicode="U" horiz-adv-x="1593" d="M59 1221l9 176q42 -5 96 -9q46 -3 110 -5.5t144 -2.5q77 0 163 4.5t160 12.5l-8 -197q-52 -5 -90.5 -6.5t-75.5 -3.5q-11 -299 -15.5 -463.5t-4.5 -212.5q0 -87 23 -150t63.5 -103.5t95.5 -59.5t119 -19q53 0 96 10.5t77 28t59.5 40t43.5 46.5l9 799l-170 115l8 176 q66 -8 145.5 -12.5t167.5 -4.5t170.5 4.5t147.5 12.5l-9 -195q-17 -2 -38.5 -4t-44 -3.5t-44.5 -2.5t-39 -2l-55 -680q-22 -266 -170 -407.5t-428 -141.5q-131 0 -235.5 34t-177.5 97.5t-112.5 154t-39.5 202.5q0 11 1.5 69t4 147t6 203t8.5 238z" />
<glyph unicode="V" horiz-adv-x="1460" d="M0 1221l10 176q66 -6 149 -11.5t177 -5.5q100 0 191.5 4t166.5 13l-8 -195q-53 -6 -91 -8t-75 -4l252 -817h41l250 735l-133 113l8 176q65 -8 135.5 -12.5t155.5 -4.5q41 0 76.5 1t68.5 3t64 5.5t63 7.5l-8 -195l-28 -4q-12 -2 -23.5 -3t-23.5 -1.5t-29 -1.5l-529 -1192 l-256 -41l-434 1147z" />
<glyph unicode="W" horiz-adv-x="2021" d="M20 1221l9 176q66 -6 151.5 -11.5t179.5 -5.5q101 0 185 6t160 11l-9 -195q-38 -6 -74 -8t-71 -4l137 -725h41l244 758l231 37l217 -801h33l168 649l-133 113l8 176q66 -8 144 -12.5t163 -4.5q42 0 76.5 1t66 3.5t62 5.5t62.5 7l-9 -195q-15 -3 -26.5 -5t-23 -3.5 t-24.5 -2t-30 -1.5l-471 -1190l-275 -43l-165 635h-31l-223 -592l-283 -41l-320 1147z" />
<glyph unicode="X" horiz-adv-x="1569" d="M41 -6l6 194q26 5 51.5 7t59.5 4l451 455l-376 452l-153 115l8 175q66 -6 145 -11t170 -5q97 0 183 5.5t162 10.5l-9 -198q-29 -3 -69 -4.5t-72 -3.5l233 -286l162 202l-149 115l8 175q66 -8 155.5 -12t186.5 -4t185.5 4.5t154.5 11.5l-8 -194q-15 -2 -25.5 -3.5 t-20.5 -2.5t-21.5 -2t-28.5 -2l-467 -451l372 -456l170 -115l-8 -176q-66 6 -143 11t-168 5q-97 0 -185 -5t-163 -11l8 194q28 4 69 7.5t72 5.5l-243 291l-156 -207l133 -115l-8 -176q-69 6 -158 11t-186 5q-100 0 -182.5 -5t-145.5 -11z" />
<glyph unicode="Y" horiz-adv-x="1444" d="M12 1219l11 178q66 -6 155 -11.5t182 -5.5q101 0 186 5.5t161 11.5l-11 -195q-52 -6 -90 -8l-76 -4l242 -424h39l199 340l-133 113l8 178q66 -8 136 -12.5t155 -4.5q83 0 162.5 4.5t144.5 12.5l-8 -193q-16 -3 -28.5 -5t-24.5 -3.5t-24.5 -2t-29.5 -1.5l-479 -688 q-1 -30 -1.5 -62t-1 -61.5t-1 -54.5t-0.5 -41l170 -115l-6 -176q-48 4 -103 8q-47 3 -107 5.5t-124 2.5q-71 0 -153 -2t-191 -14l6 194q26 3 54 6q24 2 53.5 4.5t58.5 2.5q1 21 3 52.5t4 67.5t4 75.5t4 77.5l-386 632z" />
<glyph unicode="Z" horiz-adv-x="1378" d="M61 -2l9 215l782 956l-432 -28l-37 -244h-258l18 500q150 -8 290.5 -12.5t287.5 -4.5q146 0 284.5 5t290.5 12l-14 -240l-788 -934l444 33l68 223h299l-60 -518q-65 5 -135 9t-146 8q-132 6 -302 14t-365 8h-118q-58 0 -118 -2z" />
<glyph unicode="[" horiz-adv-x="688" d="M133 -356l64 1829h473l-2 -173h-228l-53 -1484h227l-8 -172h-473z" />
<glyph unicode="\" horiz-adv-x="1159" d="M12 1473h213l883 -1829h-213z" />
<glyph unicode="]" horiz-adv-x="692" d="M16 -356l7 172h229l51 1484h-227l6 173h477l-65 -1829h-478z" />
<glyph unicode="^" horiz-adv-x="899" d="M61 877l330 514h117l330 -514h-211l-176 274l-177 -274h-213z" />
<glyph unicode="_" horiz-adv-x="1642" d="M193 -401l4 118h1187l-4 -118h-1187z" />
<glyph unicode="`" horiz-adv-x="594" d="M61 1403q17 12 42.5 34t52 46t50 46.5t36.5 35.5l270 -373l-111 -100z" />
<glyph unicode="a" horiz-adv-x="1079" d="M47 195q0 105 20 200t55 176t83.5 146.5t106 112t122 71.5t131.5 25q79 0 165.5 -13t176.5 -41q-8 -84 -12.5 -159.5t-7.5 -149t-5 -148t-5 -157.5q29 3 70.5 11.5t78.5 21.5l53 -158q-29 -20 -68 -40t-83 -38t-89 -33t-85 -26.5t-71.5 -18t-47.5 -6.5l-74 119l49 193 l-14 6q-37 -55 -79 -106t-86 -93.5t-89.5 -73.5t-89.5 -45l-180 58q-6 17 -10.5 39t-7.5 45t-5 44.5t-2 37.5zM348 346q0 -16 2 -33q17 1 42.5 13.5t54.5 34.5t58 52.5t52.5 68t39 82t17.5 93.5l2 58q-18 5 -41 8.5t-43 3.5q-42 0 -76 -27.5t-58 -74.5t-37 -110.5 t-13 -135.5v-33z" />
<glyph unicode="b" horiz-adv-x="1008" d="M-27 1454l420 123l74 -119l-84 -784l14 -8q68 89 142.5 154t162.5 106l181 -58q18 -35 30.5 -75.5t20.5 -80.5t12 -76t4 -63q0 -75 -19.5 -149t-54.5 -141t-84 -124t-108 -99t-126.5 -65.5t-139.5 -23.5q-39 0 -81.5 4t-86 11.5t-87 17t-83.5 21.5q5 40 11.5 118.5 t13 179t13.5 214.5t12 224t8 208t3 166q0 15 -0.5 39t-1 47.5t-1 43t-1.5 27.5q-21 -2 -43 -3t-42 -2.5t-36.5 -2t-25.5 -0.5zM410 182q17 -5 38 -8.5t39 -3.5q39 0 69.5 28t51.5 69t32 88.5t11 86.5q0 28 -2.5 54.5t-6.5 48t-8 37t-7 22.5q-24 -4 -60.5 -23.5t-70.5 -54 t-58.5 -84.5t-25.5 -114z" />
<glyph unicode="c" horiz-adv-x="817" d="M50 302q0 74 16.5 149t48 144.5t77 130t104 105t129.5 70t153 25.5q52 0 101 -11t101 -28l-78 -305q-30 20 -66.5 38.5t-73.5 33.5t-73 25t-65 13q-38 -60 -58 -142.5t-20 -167.5q0 -47 6 -90.5t19 -80.5q27 3 69 9.5t88 15.5t91 20t79 23l52 -146q-39 -29 -98.5 -56.5 t-123.5 -50t-125 -37.5t-104 -18l-180 58q-35 60 -52 129t-17 144z" />
<glyph unicode="d" horiz-adv-x="1092" d="M47 195q0 150 41 282.5t112 232.5t166 158t203 58h80q0 54 -1 100t-3.5 89t-6 86t-7.5 91q-21 -2 -43 -3t-41.5 -2.5t-36 -2t-25.5 -0.5l-16 170l420 123l74 -119q-15 -150 -27.5 -291.5t-22 -286t-16.5 -297t-10 -325.5q34 6 69 12.5t78 20.5l56 -158q-29 -20 -69 -40 t-85.5 -38t-92 -33t-87.5 -26.5t-73 -18t-48 -6.5l-74 119l49 193l-14 6q-37 -55 -79 -106t-86 -93.5t-89.5 -73.5t-89.5 -45l-180 58q-6 20 -11 44.5t-8 47.5t-4.5 43t-1.5 31zM346 346q0 -16 2 -33q17 1 43.5 13.5t55 34.5t58 52.5t53 68t39 82t17.5 93.5l2 58 q-18 5 -41 8.5t-43 3.5q-42 0 -76.5 -27.5t-58.5 -74.5t-37.5 -110.5t-13.5 -135.5v-33z" />
<glyph unicode="e" horiz-adv-x="893" d="M51 324q0 74 15.5 147.5t45.5 140.5t73 124t97 99.5t119.5 66.5t139.5 24q20 0 53 -2t71.5 -10t78.5 -24.5t75 -45.5l-10 -322q-58 -37 -129 -73q-61 -31 -144.5 -66.5t-183.5 -65.5q1 -8 3 -20t5 -24t6 -23.5t5 -18.5q37 3 86 11t100.5 18t101.5 21.5t89 23.5l57 -166 q-26 -19 -65 -38t-85 -37t-95.5 -34t-96 -28.5t-87 -20.5t-69.5 -10l-180 58q-39 66 -57.5 141.5t-18.5 153.5zM346 512q61 26 106 54.5t74 54.5q34 29 58 59q-12 7 -29 14t-37 12t-40 8t-38 3h-12q-6 0 -12 -2q-31 -29 -49 -83.5t-21 -119.5z" />
<glyph unicode="f" horiz-adv-x="793" d="M-188 -526l10 309q32 -21 71.5 -40.5t81.5 -34.5t84 -24.5t80 -9.5q12 32 20 79.5t13 103.5t8.5 116.5t5.5 118.5l25 630q-49 5 -93.5 9.5t-82.5 9.5l4 156h179l3 68q6 147 49 261t111 192t155.5 118.5t182.5 40.5q16 0 32.5 -0.5t37 -3t46 -8t60.5 -15.5l-8 -311 q-31 19 -72.5 38.5t-85.5 35t-86.5 25.5t-73.5 10q-10 -32 -17.5 -80.5t-12.5 -105.5t-9 -117.5t-6 -116.5l-1 -26q45 2 88.5 5t81.5 6t67.5 6.5t44.5 6.5l-39 -238q-52 0 -116 2t-134 7l-22 -638q-5 -129 -43.5 -241t-105.5 -194.5t-159.5 -129.5t-205.5 -47q-9 0 -22 0.5 t-32.5 3t-47.5 8t-66 15.5z" />
<glyph unicode="g" horiz-adv-x="1040" d="M47 195q0 153 40 286.5t110 232.5t165.5 155.5t206.5 56.5q41 0 88.5 -4t96.5 -11.5t96.5 -17t87.5 -21.5q-8 -110 -12.5 -208.5t-8 -195.5t-6.5 -198t-8 -215q-6 -147 -48 -261t-112 -191.5t-164.5 -117.5t-205.5 -40q-18 0 -49 2.5t-69.5 7t-81 12t-81.5 17.5l17 311 q49 -21 103 -42t110 -38t114 -28.5t115 -12.5q9 19 16 61t12 97.5t9 118.5t6.5 124.5t3.5 115.5t2 92l-12 6q-37 -55 -77.5 -106t-83 -93.5t-86 -73.5t-87.5 -45l-180 58q-8 22 -13 47.5t-8 49t-4.5 42t-1.5 27.5zM348 346q0 -16 2 -33q28 2 70.5 28.5t84 72t73 107.5 t36.5 136l4 58q-18 5 -42.5 8.5t-43.5 3.5q-44 0 -78 -27.5t-57.5 -74.5t-36 -110.5t-12.5 -135.5v-33z" />
<glyph unicode="h" horiz-adv-x="1108" d="M-27 1454l420 123l74 -119l-84 -784l14 -8q43 55 95.5 99.5t104 77.5t98.5 54t79 29l137 -60q17 -74 22 -138t5 -120q0 -29 -2 -71t-5.5 -89.5t-7.5 -97t-8 -92.5q9 1 29 4t42.5 7.5t44.5 10t36 11.5l53 -158q-29 -20 -68.5 -40t-84 -38t-90 -33t-86 -26.5t-72 -18 t-47.5 -6.5l-101 99q9 57 17.5 119.5t15 122t10.5 111t4 87.5v45q0 17 -2 39q-21 -7 -52 -25t-60.5 -44t-51 -58t-22.5 -68l-8 -399h-344q4 30 9.5 82.5t10.5 120.5t10.5 148.5t10 165t9 170.5t7.5 166t4.5 150t1.5 123q0 25 -0.5 51t-1 49t-1 40.5t-1.5 25.5q-21 -2 -43 -3 t-42 -2.5t-36.5 -2t-25.5 -0.5z" />
<glyph unicode="i" horiz-adv-x="680" d="M12 803l424 123l74 -119q-8 -59 -14 -110.5t-9.5 -100.5t-5.5 -97t-2 -100q0 -46 1 -79t3 -62q34 6 74.5 15t69.5 18l53 -158q-29 -21 -67.5 -41.5t-81.5 -38.5t-87 -33t-82.5 -26t-69 -17t-46.5 -6l-101 99q6 50 11 101.5t8.5 101t5.5 94.5t2 82v55q0 28 -0.5 53.5 t-1.5 48t-2 37.5q-21 -2 -41.5 -3t-39.5 -2.5t-34 -2t-24 -0.5zM180 1149q5 45 7.5 88t4.5 78q2 40 3 76l245 67l82 -80q-5 -45 -7.5 -88t-4.5 -77q-2 -40 -2 -76l-246 -68z" />
<glyph unicode="j" horiz-adv-x="600" d="M-49 -403q19 29 52 77t66 103.5t58 114t29 108.5q4 52 7 106t4.5 111t2.5 119t1 132q0 48 -0.5 94.5t-2.5 80.5q-21 -2 -41.5 -3t-39.5 -2.5t-34 -2t-24 -0.5l-17 168l424 123l74 -119q-8 -82 -13.5 -153t-10 -135.5t-7.5 -125t-6 -123t-6 -128.5t-6 -142q-2 -44 -19 -93 t-43.5 -98.5t-60.5 -99.5t-69.5 -96.5t-70 -88.5t-63.5 -77zM180 1149q5 45 7.5 88t4.5 78q2 40 3 76l245 67l82 -80q-5 -45 -7.5 -88t-4.5 -77q-2 -40 -2 -76l-246 -68z" />
<glyph unicode="k" horiz-adv-x="1077" d="M-27 1454l420 123l74 -119l-84 -784l14 -8q78 94 174.5 161t204.5 99l158 -60q5 -17 6.5 -39.5t1.5 -48.5q0 -41 -8.5 -89t-27.5 -97t-50 -96t-76 -86l97 -148q20 3 50.5 11.5t55.5 17.5l55 -158q-43 -30 -98 -59t-108.5 -52t-99.5 -37t-70 -14l-183 361q46 39 76.5 78 t48.5 77t25.5 73t7.5 67q-24 -4 -59 -23.5t-67.5 -48.5t-56 -64.5t-24.5 -70.5l-8 -420h-344q4 30 9.5 82.5t10.5 120.5t10.5 148.5t10 165t9 170.5t7.5 166t4.5 150t1.5 123q-1 17 -1 42v50q0 25 -1 45.5t-2 28.5q-21 -2 -43 -3t-42 -2.5t-36.5 -2t-25.5 -0.5z" />
<glyph unicode="l" horiz-adv-x="612" d="M-29 1454l428 123l74 -119q-27 -241 -40.5 -481t-13.5 -486q0 -116 3 -233q35 6 72 14t65 19l55 -158q-32 -22 -72 -43t-83.5 -39t-86.5 -33t-81 -25.5t-68.5 -16t-46.5 -5.5l-100 99q13 79 22.5 172t16.5 191t11.5 195.5t7.5 186.5t4 164t1 127q0 20 -0.5 48t-1.5 56 t-2 50.5t-2 31.5q-20 -2 -41.5 -3t-41.5 -2.5t-36.5 -2t-25.5 -0.5z" />
<glyph unicode="m" horiz-adv-x="1645" d="M25 803l356 123l74 -119l-49 -193l14 -6q45 71 101.5 126.5t112.5 95.5t105 64t80 32l137 -60q4 -17 8.5 -43t8.5 -54.5t6.5 -55.5t3.5 -45q32 47 75 89.5t88 76.5t88 58t75 34l137 -60q17 -74 22 -138t5 -120q0 -29 -2 -71t-5.5 -89.5t-7.5 -97t-8 -92.5q10 1 30 4.5 t42.5 8t44 9.5t35.5 11l53 -158q-29 -20 -68 -40t-82 -38t-87.5 -33t-83.5 -26.5t-70 -18t-47 -6.5l-101 99q9 57 17.5 119.5t15 122t10.5 111t4 87.5v45q0 17 -2 39q-21 -7 -52 -25t-60.5 -44t-51 -58t-22.5 -68l-8 -399h-340q10 81 18.5 164t13.5 160.5t8 146.5t3 123 q-21 -7 -52.5 -25t-60.5 -44t-50 -58t-21 -68l-9 -399h-334q11 81 19 164t13.5 160.5t8 146.5t2.5 123v49q-21 -2 -42.5 -3t-41 -2.5t-36 -2t-25.5 -0.5z" />
<glyph unicode="n" horiz-adv-x="1174" d="M23 803l358 123l74 -119l-52 -193l17 -6q37 57 86.5 108t105 92t114 71.5t114.5 46.5l137 -60q15 -74 19.5 -138t4.5 -120q0 -29 -2 -71t-5 -89.5t-6.5 -97t-6.5 -92.5q9 1 28.5 4.5t42 8t44 9.5t34.5 11l56 -158q-29 -20 -69 -40t-84.5 -38t-90 -33t-86 -26.5t-72.5 -18 t-49 -6.5l-98 99q8 57 16 119.5t14.5 122t10.5 111t4 87.5v84q-21 -7 -52 -25t-60.5 -44t-51 -58t-22.5 -68l-11 -399h-344q22 163 32.5 289t10.5 233v121q-21 -2 -42.5 -3t-41 -2.5t-35.5 -2t-24 -0.5z" />
<glyph unicode="o" horiz-adv-x="975" d="M51 385q0 59 16 122t46.5 123t75.5 114t103 94.5t128.5 64t152.5 23.5q100 0 165.5 -36t104.5 -94.5t54.5 -132.5t15.5 -151q0 -56 -15 -117.5t-44 -121.5t-72 -115t-99 -96.5t-124.5 -66t-148.5 -24.5q-98 0 -166 34.5t-111 92.5t-62.5 132.5t-19.5 154.5zM365 457 q0 -82 18 -148t55 -131h86q15 18 28.5 45.5t24 61.5t17 73t6.5 80q0 82 -18.5 148t-55.5 131h-86q-15 -18 -28.5 -45.5t-24 -61.5t-16.5 -73t-6 -80z" />
<glyph unicode="p" horiz-adv-x="1073" d="M23 803l358 123l74 -119l-52 -191l17 -8q36 59 78 110.5t87 93t91.5 70.5t91.5 44l178 -58q18 -35 31 -75t21.5 -78.5t13 -73.5t4.5 -61q0 -79 -20 -155.5t-56.5 -144t-87 -124.5t-111 -98t-129 -64t-141.5 -23h-29q-1 -20 -2 -56.5t-2.5 -74t-2.5 -69t-1 -41.5 q22 1 47.5 2.5t49.5 3t43 2t28 0.5l16 -168l-440 -123l-74 119q23 214 38.5 374.5t24.5 283.5t13 215.5t4 171.5v32q-21 -2 -42.5 -3t-41 -2.5t-35.5 -2t-24 -0.5zM455 180q17 -5 39 -7.5t41 -2.5q42 0 75.5 25t56.5 66t35.5 93t12.5 107q0 40 -7 78.5t-18 64.5 q-24 -2 -62 -24t-74 -62t-63 -95.5t-30 -125.5z" />
<glyph unicode="q" horiz-adv-x="1036" d="M47 195q0 100 19.5 193t54.5 174t84 148t108.5 115t127 74.5t139.5 26.5q38 0 83.5 -4t93 -11.5t94 -17t87.5 -21.5q-4 -35 -8 -95t-7.5 -135.5t-7 -161.5t-5.5 -173t-3.5 -170.5t-1.5 -152.5q0 -32 0.5 -66.5t1.5 -68t2.5 -63t3.5 -50.5q42 3 82.5 5.5t59.5 2.5l16 -174 l-440 -123l-74 119l64 717l-15 6q-37 -55 -80.5 -106t-89.5 -93.5t-93 -73.5t-91 -45l-180 58q-7 22 -12 47t-8 48t-4 42t-1 29zM348 346q0 -16 2 -33q24 2 64 28.5t80.5 72t72 107.5t39.5 136l2 58q-17 5 -38 8.5t-40 3.5q-39 0 -72.5 -27.5t-57.5 -74.5t-38 -110.5 t-14 -135.5v-33z" />
<glyph unicode="r" horiz-adv-x="840" d="M23 803l358 123l74 -119l-52 -191l17 -8q40 69 86 127t96.5 100t105.5 66t113 25l-14 -322q-9 1 -18.5 1.5t-18.5 0.5q-69 0 -120 -20.5t-85 -52.5t-51 -73t-18 -81l-11 -379h-344q22 163 32.5 289t10.5 233v121q-21 -2 -42.5 -3t-41 -2.5t-35.5 -2t-24 -0.5z" />
<glyph unicode="s" horiz-adv-x="907" d="M57 0l11 324h168l20 -97q50 -34 109 -50.5t124 -16.5q28 0 55.5 3t53.5 11q-30 29 -77 57.5t-100.5 58t-108.5 60.5t-102.5 63.5t-82.5 67.5t-47 74l59 236q213 135 455 135q56 0 112 -7.5t115 -21.5l-12 -324h-168l-20 97q-54 23 -120 38t-132 15q-17 0 -34 -0.5 t-34 -3.5q30 -29 77 -58t101.5 -59t112 -61.5t107.5 -65.5t88 -70t55 -75l-70 -217q-106 -76 -220.5 -109t-238.5 -33q-62 0 -125 7.5t-131 21.5z" />
<glyph unicode="t" horiz-adv-x="797" d="M39 741l4 156h155q1 13 1 25v26q0 51 -1.5 99t-4.5 96l282 80l76 -119q-5 -38 -11.5 -89.5t-13.5 -112.5q41 2 80 5t73 6t60 6.5t41 6.5l-35 -238q-51 0 -112.5 2t-127.5 7q-6 -69 -9.5 -134.5t-3.5 -120.5q0 -19 1 -46.5t3 -55t4 -50.5t4 -34q37 6 76 15t71 20l56 -158 q-29 -21 -68 -41.5t-82.5 -38.5t-88.5 -33t-84.5 -26t-71 -17t-48.5 -6l-98 99q-3 31 -3.5 64.5t-0.5 68.5q0 113 10.5 246.5t18.5 274.5q-42 4 -80 8t-72 9z" />
<glyph unicode="u" horiz-adv-x="1176" d="M12 803l432 123l74 -119q-9 -58 -17 -115t-14.5 -110t-10 -100t-3.5 -83v-45q0 -17 2 -39q21 7 52.5 25t61 44t51 58.5t22.5 67.5l8 387h344q-9 -81 -17.5 -171t-14.5 -176t-10 -162t-3 -130l30 5q18 3 38.5 7t41 9.5t37.5 11.5l55 -158q-43 -30 -93 -56t-102.5 -46.5 t-103.5 -35.5t-96 -24l-74 119l50 193l-15 6q-32 -45 -74 -90.5t-94 -87.5t-114.5 -78.5t-137.5 -61.5l-137 60q-17 74 -21.5 138t-4.5 120q0 28 2 71t5 91.5t7 98.5t8 93q-21 -2 -43.5 -3t-42.5 -2.5t-36 -2t-25 -0.5z" />
<glyph unicode="v" horiz-adv-x="1001" d="M4 803l352 123l93 -97q4 -52 15.5 -116.5t26 -129t31.5 -124.5t33 -103q55 90 74.5 170t19.5 146q0 46 -6.5 83t-14.5 63q-9 31 -20 54l338 54q11 -30 16.5 -59t5.5 -59q0 -47 -14.5 -99t-44 -114.5t-74.5 -140t-106 -175.5l-154 -248l-186 -60q-38 80 -72.5 157 t-66 157.5t-60 168.5t-53.5 189q-19 -2 -38.5 -3.5t-36.5 -2.5q-19 -1 -39 -2z" />
<glyph unicode="w" horiz-adv-x="1458" d="M4 803l346 123l92 -97q5 -52 16 -116.5t26 -129t32 -124.5t33 -103l96 203q-19 75 -34.5 151.5t-28.5 161.5l329 54q5 -70 15 -149t23.5 -156.5t29 -146.5t31.5 -120q56 91 76 173t20 148q0 45 -6 81t-14 62q-9 30 -19 54l338 54q21 -60 21 -117q0 -47 -13.5 -99.5 t-42.5 -115.5t-74 -140.5t-108 -174.5l-160 -248l-178 -60q-36 84 -68 165t-60 162l-153 -267l-180 -60q-38 80 -72 157t-65 157.5t-59.5 168.5t-55.5 189q-19 -2 -38.5 -3.5t-36.5 -2.5q-19 -1 -39 -2z" />
<glyph unicode="x" horiz-adv-x="1049" d="M45 803l289 123l119 -97l130 -205q20 28 27.5 56t7.5 54q0 29 -6 53.5t-14 43.5q-9 22 -20 41l337 54q8 -28 12 -53.5t4 -51.5q0 -40 -12.5 -80t-41 -83t-76 -91t-116.5 -103l144 -224l129 30l72 -149q-71 -51 -151 -88t-172 -62l-109 47l-158 248q-33 -32 -45 -68 t-12 -70q0 -24 3.5 -45t8.5 -37q5 -18 13 -34l-338 -53q-7 38 -7 75q0 49 15 93.5t48 90t85.5 95.5t126.5 111l-143 225q-19 -4 -42.5 -6.5t-43.5 -4.5q-24 -2 -48 -3z" />
<glyph unicode="y" horiz-adv-x="1004" d="M-49 -289q125 45 232 124t188 181q-39 80 -70.5 150t-59.5 142t-52.5 153t-49.5 182q-24 -2 -45 -4q-19 -2 -38 -3t-33 -1l-17 168l350 123l93 -97q4 -52 15.5 -116.5t26 -129t31.5 -124.5t33 -103q56 93 76 174t20 147q0 45 -6.5 80.5t-14.5 61.5q-9 30 -20 53l338 54 q20 -50 20 -108q0 -56 -18.5 -118.5t-52.5 -135t-82.5 -157t-109.5 -184.5l-136 -223q-48 -78 -101.5 -158t-111 -153t-117.5 -135.5t-120 -106.5z" />
<glyph unicode="z" horiz-adv-x="977" d="M43 123l492 545q-28 -6 -59.5 -9t-64.5 -5t-65 -2.5t-61 -0.5l-29 -141h-170l16 416q101 -10 203.5 -15t202.5 -4q95 0 175.5 4.5t162.5 14.5l69 -135l-469 -521h261l43 146l168 -19q-11 -117 -30 -228t-44 -198l-580 80l-71 -80z" />
<glyph unicode="{" horiz-adv-x="717" d="M43 444l4 172l150 64q8 26 14.5 53.5t11 65t6.5 90t2 129.5q0 81 20 154.5t68 134t128.5 106t201.5 70.5l43 -144l-141 -71q-6 -16 -11 -35t-8.5 -51t-5.5 -81.5t-2 -127.5q0 -59 -5.5 -122t-25 -122t-59 -111.5t-106.5 -91.5q52 -32 84.5 -72.5t51 -87t25 -97 t6.5 -101.5q0 -67 -6 -134t-6 -139q0 -44 3.5 -67.5t9.5 -42.5l139 -72l-53 -143q-111 22 -185.5 63t-119 95.5t-63.5 120t-19 138.5q0 50 5.5 109.5t5.5 121.5q0 54 -5 88.5t-15 66.5z" />
<glyph unicode="|" horiz-adv-x="537" d="M168 -401v1955h201v-1955h-201z" />
<glyph unicode="}" horiz-adv-x="713" d="M18 -287l144 72q5 16 9.5 35t7.5 51t5 81.5t2 127.5q0 59 5.5 122t26 122t59.5 111.5t106 90.5q-52 31 -84.5 72.5t-51 88t-25 97t-6.5 101.5q0 66 5.5 132t5.5 139q0 45 -3.5 69t-8.5 43l-137 71l51 144q111 -23 185.5 -64t119.5 -96t63.5 -121t18.5 -139q0 -55 -5 -110 t-5 -115q0 -28 1.5 -50t3.5 -40.5t5.5 -35t7.5 -32.5l144 -72l-4 -172l-150 -63q-8 -26 -14.5 -53.5t-11 -65t-7 -90t-2.5 -129.5q0 -81 -20 -154.5t-68 -134.5t-128.5 -106.5t-201.5 -69.5z" />
<glyph unicode="~" horiz-adv-x="895" d="M76 524l203 228h92q30 -17 57 -30.5t54 -25.5t54.5 -22.5t59.5 -20.5l133 117l98 -100l-217 -236h-86q-35 13 -63.5 26.5t-54 26.5t-50 27t-51.5 29l-141 -123z" />
<glyph unicode="&#xa1;" horiz-adv-x="541" d="M75 -492q12 82 23 163t20 157.5t17 146.5t14 130q8 72 14 138.5t11 129.5h200q2 -63 3.5 -129.5t3.5 -138.5q2 -60 4.5 -130t6.5 -146.5t8.5 -157.5t10.5 -163q-9 1 -25.5 2.5t-38.5 3t-48.5 2.5t-55.5 1q-57 0 -102.5 -3.5t-65.5 -5.5zM121 631q4 42 6 83t4 73 q2 38 2 73l236 66l77 -76q-5 -44 -7.5 -85t-4.5 -74q-2 -39 -2 -73l-233 -63z" />
<glyph unicode="&#xa2;" horiz-adv-x="877" d="M57 300q0 79 18.5 159.5t54.5 154t88 135.5t118 104v245h231l-11 -173q7 0 13.5 0.5t14.5 0.5q52 0 101 -11t101 -28l-77 -305q-31 20 -67.5 38.5t-73.5 33.5t-73 25t-65 13q-38 -60 -58 -142.5t-20 -167.5q0 -47 6 -90.5t19 -80.5q28 3 70 9.5t88 15.5t91 20t79 23 l51 -146q-42 -30 -105 -59t-131 -52v-253h-231l12 203l-176 57q-35 59 -51.5 128t-16.5 143z" />
<glyph unicode="&#xa3;" horiz-adv-x="1159" d="M51 109q67 67 110 128.5t67 122.5t33 124t9 134q0 14 -1 28t-3 28l-145 16l6 187h99q-10 42 -16.5 83.5t-6.5 83.5q0 88 42.5 160t114 122.5t164 78t193.5 27.5q41 0 86 -3t87 -8t79 -10.5t63 -9.5l-14 -344q-48 34 -101.5 65t-109.5 55t-114 38t-115 14 q-20 -18 -32 -40.5t-19.5 -46.5t-10 -48t-2.5 -45q0 -42 5 -85t14 -87q55 0 113 1.5t110 4t93 6t62 8.5l-80 -244q-60 -6 -135 -6q-59 0 -122 3q3 -23 4.5 -40.5t1.5 -31.5q0 -51 -15.5 -100.5t-38 -93t-47.5 -79t-45 -59.5l354 10q9 14 19 36.5t19 48.5t17 54t15 54 l195 -21q-1 -25 -5.5 -64.5t-11.5 -85t-16.5 -94t-20.5 -92t-23 -79t-24 -54.5l-690 92l-86 -92z" />
<glyph unicode="&#xa4;" horiz-adv-x="1444" d="M61 225l176 175q-42 66 -64.5 141t-22.5 157q0 85 24 163.5t68 145.5l-181 181l160 160l180 -180q65 44 140 68t157 24q85 0 162.5 -24t143.5 -69l180 181l159 -160l-180 -180q45 -68 69.5 -146.5t24.5 -163.5q0 -82 -23.5 -157t-65.5 -141l175 -175l-159 -159l-172 172 q-68 -46 -147 -71.5t-167 -25.5q-85 0 -162 25.5t-143 71.5l-172 -172zM377 705q0 -69 25.5 -130t70 -106.5t103.5 -72.5t126 -27q69 0 128.5 27t104 72.5t70 106.5t25.5 130t-25.5 130.5t-70 107t-104 72.5t-128.5 27q-67 0 -126 -27t-103.5 -72.5t-70 -107t-25.5 -130.5z " />
<glyph unicode="&#xa5;" horiz-adv-x="1583" d="M41 1219l10 178q66 -6 155 -11.5t183 -5.5q100 0 185.5 5.5t160.5 11.5l-10 -195q-53 -6 -91 -8t-75 -4l242 -424h39l198 340l-133 113l8 178q66 -8 136 -12.5t155 -4.5q84 0 163 4.5t144 12.5l-8 -193q-16 -3 -28.5 -5t-24 -3.5t-24 -2t-29.5 -1.5l-251 -361h208 l-6 -172h-102q-46 0 -104 -1t-118 -2l-100 -144h419l-6 -172q-56 -1 -124 -1q-58 -1 -135 -1t-165 -2v-51l170 -115l-6 -176q-48 4 -103 8q-47 3 -107 5.5t-124 2.5q-71 0 -152.5 -2t-191.5 -14l7 194q26 3 54 6q24 2 53 4.5t58 2.5q2 23 4 56t4 71q-114 -4 -219.5 -9 t-186.5 -12l8 205h382l-82 134q-79 -4 -154 -9t-141 -10l9 204h173l-167 275z" />
<glyph unicode="&#xa6;" horiz-adv-x="555" d="M176 295h203v-696h-203v696zM176 858v696h203v-696h-203z" />
<glyph unicode="&#xa7;" horiz-adv-x="936" d="M47 778q0 135 40.5 254.5t109.5 208t159.5 140t190.5 51.5q30 0 55.5 -2t50.5 -5.5t50.5 -9.5t54.5 -14v-238q-109 48 -200.5 68.5t-156.5 23.5q-12 -21 -12 -53t11.5 -64.5t32 -68t48.5 -75.5t62 -85q61 -81 116.5 -160t98.5 -164t68.5 -178.5t25.5 -203.5 q0 -85 -19.5 -166t-55 -152t-84 -130t-107 -101.5t-124 -66t-134.5 -23.5q-32 0 -59 1.5t-52.5 5t-51 9.5t-54.5 14v238q108 -49 198.5 -69t153.5 -23q5 11 6.5 25.5t1.5 31.5q0 39 -9.5 77.5t-29.5 80.5t-50.5 89t-73.5 102q-59 75 -107 149.5t-82 152t-53 159t-19 171.5z M203 895q0 -70 17.5 -138t49 -137t76.5 -141t100 -149l20 -28q30 -42 56 -80.5t48 -76t39 -75.5t28 -80l37 8q2 14 3 30.5t1 39.5q0 84 -14.5 156t-41.5 139.5t-67 133t-91 135.5q-30 42 -61 82t-59.5 81t-54 85t-45.5 93l-37 -8q-2 -14 -3 -31t-1 -39z" />
<glyph unicode="&#xa8;" horiz-adv-x="788" d="M63 1198q3 38 5 68t3 52q1 26 1 46l209 57l65 -104q-4 -38 -6 -69t-3 -54q-1 -26 -1 -47l-207 -55zM444 1198q3 38 5 68t3 52q1 26 1 46l209 57l65 -104q-4 -38 -6 -69t-3 -54q-1 -26 -1 -47l-207 -55z" />
<glyph unicode="&#xa9;" horiz-adv-x="1616" d="M53 696q0 101 26.5 195t74 175.5t115 148.5t149 115t175.5 74t195 26t195 -26t175.5 -74t148.5 -115t115 -148.5t74 -175.5t26 -195t-26 -195t-74 -175t-115 -148t-148.5 -115t-175.5 -74t-195 -26t-195 26t-175.5 74t-149 115t-115 148t-74 175t-26.5 195zM125 696 q0 -91 24 -175.5t67 -158t104 -134.5t134.5 -104t158 -67t175.5 -24t175 24t158 67t134.5 104t103.5 134.5t67 158t24 175.5t-24 176t-67 158.5t-103.5 134.5t-134.5 104t-158 67t-175 24t-175.5 -24t-158 -67t-134.5 -104t-104 -134.5t-67 -158.5t-24 -176zM354 688 q0 114 41 197.5t110 138.5t158 82t185 27q46 0 83.5 -3t69 -7.5t58.5 -10.5t53 -12l-6 -262h-162l-14 118q-19 19 -51 31t-74 12t-81.5 -17.5t-70 -53t-49 -89t-18.5 -124.5q0 -82 26.5 -138.5t69.5 -91t98.5 -50t114.5 -15.5q57 0 105 7.5t79 16.5l33 -120 q-54 -20 -129.5 -36t-157.5 -16q-100 0 -186 27t-149.5 79.5t-99.5 130.5t-36 179z" />
<glyph unicode="&#xaa;" horiz-adv-x="948" d="M108 1009q0 82 15.5 156t43 136.5t65 113.5t82 87t94.5 55.5t102 19.5q62 0 129 -10t137 -32q-7 -65 -10.5 -123.5t-5.5 -115.5t-3.5 -115t-4.5 -123q23 3 55 9.5t61 16.5l41 -123q-22 -15 -52.5 -30.5t-64.5 -29.5t-69 -26t-66 -20.5t-55.5 -14t-36.5 -5.5l-58 93 l38 150l-11 5q-28 -43 -60.5 -82.5t-67 -72.5t-69.5 -57.5t-69 -35.5l-140 46q-5 13 -8.5 30t-5.5 35t-4 34.5t-2 28.5zM342 1127q0 -13 2 -26q13 1 32.5 10.5t42 27t45 41t41 52.5t30.5 63.5t13 72.5l2 45q-14 4 -32 7t-33 3q-33 0 -59.5 -21.5t-45 -58t-28.5 -86 t-10 -105.5v-25z" />
<glyph unicode="&#xab;" horiz-adv-x="995" d="M41 524l539 465l88 -86l-303 -379l274 -379l-88 -86zM463 524l368 353l66 -66l-188 -287l168 -288l-68 -66z" />
<glyph unicode="&#xac;" horiz-adv-x="1120" d="M92 549v188h881v-413h-189v225h-692z" />
<glyph unicode="&#xad;" horiz-adv-x="817" d="M119 389l10 229h565l-10 -229h-565z" />
<glyph unicode="&#xae;" horiz-adv-x="1077" d="M47 958q0 98 37 184t101 150t149.5 101t183.5 37q97 0 183 -37t150 -101t101 -150t37 -184t-37 -183.5t-101 -149.5t-150 -101t-183 -37q-98 0 -183.5 37t-149.5 101t-101 149.5t-37 183.5zM104 956q0 -85 32.5 -160t89 -131.5t131.5 -89t159 -32.5q86 0 161.5 32.5 t132 89t89.5 131.5t33 160t-33 160.5t-89.5 132t-132 89t-161.5 32.5q-84 0 -159 -32.5t-131.5 -89t-89 -132t-32.5 -160.5zM252 696l3 77l22 2q10 1 21.5 2t22.5 1q1 19 2.5 48t3 63t2.5 70.5t2 70t1.5 61.5t0.5 46l-68 45l4 70q18 -2 37 -3q17 -1 37.5 -1.5t42.5 -0.5 q33 0 71 3t78 3q100 0 152 -44.5t52 -121.5q0 -56 -27 -91.5t-70 -55.5l73 -129l83 -46l-3 -67h-173l-113 213h-17h-18q-8 0 -13 1q-2 -32 -2 -58v-43l67 -46l-3 -69q-35 3 -66 4.5t-72 1.5q-22 0 -56.5 -0.5t-76.5 -5.5zM463 995q7 -1 14 -1.5t15 -0.5q48 0 75.5 22.5 t27.5 64.5q0 45 -29.5 64.5t-71.5 19.5h-12q-5 0 -10 -1q-2 -27 -4.5 -72.5t-4.5 -95.5z" />
<glyph unicode="&#xaf;" horiz-adv-x="1182" d="M261 1108l8 188h565l-7 -188h-566z" />
<glyph unicode="&#xb0;" horiz-adv-x="721" d="M94 1151q0 59 22 110.5t60.5 89.5t91.5 59.5t115 21.5q59 0 110.5 -21.5t89.5 -59.5t59.5 -89.5t21.5 -110.5q0 -62 -21.5 -115t-59.5 -91.5t-89.5 -60.5t-110.5 -22q-62 0 -115 22t-91.5 60.5t-60.5 91.5t-22 115zM256 1151q0 -54 34 -90.5t93 -36.5q26 0 48.5 9.5 t38.5 27t25 40.5t9 50q0 53 -34 88t-87 35q-59 0 -93 -35t-34 -88z" />
<glyph unicode="&#xb1;" horiz-adv-x="1139" d="M78 59v189h942v-189h-942zM78 737v189h377v377h188v-377h377v-189h-377v-377h-188v377h-377z" />
<glyph unicode="&#xb2;" horiz-adv-x="713" d="M76 909q54 56 110 113.5t102 113t75.5 106t29.5 93.5q0 42 -24 64t-64 22q-32 0 -61 -14.5t-60 -42.5l-71 94q51 53 114 86t150 33q48 0 88.5 -13.5t70 -39.5t46 -65.5t16.5 -90.5q0 -49 -21.5 -97t-64.5 -99.5t-107.5 -109.5t-150.5 -128l229 39l54 106l100 -14 q-5 -31 -9.5 -67.5t-8.5 -72.5t-7.5 -67t-5.5 -51h-483z" />
<glyph unicode="&#xb3;" horiz-adv-x="676" d="M68 868l94 154q24 -25 45.5 -42t42 -27.5t41.5 -15.5t45 -5q40 0 68 28t28 82q0 44 -24 71.5t-70 27.5q-22 0 -45 -5.5t-43 -15.5l-35 109l61 22q19 7 39 18.5t36.5 27t27 34.5t10.5 41t-14.5 36.5t-46.5 14.5q-23 0 -58 -13t-80 -50l-67 84q24 25 52 49t61 42.5t72 30 t85 11.5q49 0 85 -11.5t59.5 -32t35 -48.5t11.5 -62q0 -24 -9.5 -48.5t-25 -45.5t-35 -38t-39.5 -27q31 -5 58 -19t47 -36.5t31.5 -52.5t11.5 -66q0 -66 -29 -120.5t-77 -92.5t-108.5 -59t-123.5 -21q-23 0 -50.5 3.5t-56 11.5t-57 21.5t-53.5 34.5z" />
<glyph unicode="&#xb4;" horiz-adv-x="582" d="M82 1186l252 379q14 -14 38.5 -36t52 -45t53.5 -42t42 -27l-330 -323z" />
<glyph unicode="&#xb5;" horiz-adv-x="1237" d="M100 -512q14 131 31 289.5t32.5 337.5t27.5 376t16 406h328q-9 -58 -19.5 -125t-19 -134t-14 -129t-5.5 -110v-45q0 -17 2 -39q21 7 52.5 25t61 44t51 58.5t22.5 67.5l8 387h344q-9 -81 -16.5 -156.5t-13 -152t-9.5 -157.5t-6 -173q15 2 34 5.5t38.5 7.5t39 9t35.5 11 l56 -158q-43 -30 -96.5 -56.5t-107.5 -48t-104.5 -36.5t-87.5 -21l-73 119l49 193l-15 6q-26 -35 -54.5 -69t-63 -66t-76 -63t-92.5 -60l-11 -543h-344z" />
<glyph unicode="&#x3bc;" horiz-adv-x="1237" d="M100 -512q14 131 31 289.5t32.5 337.5t27.5 376t16 406h328q-9 -58 -19.5 -125t-19 -134t-14 -129t-5.5 -110v-45q0 -17 2 -39q21 7 52.5 25t61 44t51 58.5t22.5 67.5l8 387h344q-9 -81 -16.5 -156.5t-13 -152t-9.5 -157.5t-6 -173q15 2 34 5.5t38.5 7.5t39 9t35.5 11 l56 -158q-43 -30 -96.5 -56.5t-107.5 -48t-104.5 -36.5t-87.5 -21l-73 119l49 193l-15 6q-26 -35 -54.5 -69t-63 -66t-76 -63t-92.5 -60l-11 -543h-344z" />
<glyph unicode="&#xb6;" horiz-adv-x="1163" d="M29 1072q0 60 19 118.5t59.5 104.5t103 74t149.5 28q55 0 104.5 -2.5t98 -6t97.5 -6t102 -2.5q72 0 147.5 3.5t157.5 13.5l-8 -215q-23 -3 -42 -5t-36 -3.5t-34 -2.5t-36 -2l-57 -1683h-199l58 1683h-131l-60 -1683h-198l45 1288h-33q-85 0 -143.5 26.5t-95 68.5 t-52.5 95.5t-16 107.5z" />
<glyph unicode="&#xb7;" horiz-adv-x="537" d="M86 579q4 45 6 88t4 78q2 40 2 76l246 67l82 -79q-5 -45 -7.5 -88t-4.5 -78q-2 -40 -2 -76l-244 -68z" />
<glyph unicode="&#xb8;" horiz-adv-x="543" d="M66 -412l4 187q45 -25 94.5 -44.5t97.5 -19.5q23 0 39 8.5t23 22.5q-32 25 -74.5 45t-93.5 43l41 248h143l-21 -131q28 -11 54.5 -25t46 -33.5t31.5 -44.5t12 -57q0 -51 -22.5 -92.5t-59.5 -71.5t-85 -46.5t-99 -16.5q-32 0 -67 7t-64 21z" />
<glyph unicode="&#xb9;" horiz-adv-x="586" d="M86 1407q77 45 137 92t99 78l116 -39q-3 -26 -5 -71.5t-3.5 -100t-3 -113.5t-2.5 -113t-1.5 -98t-0.5 -67l90 -62l-4 -106q-35 2 -68 5q-29 2 -62 3.5t-59 1.5q-27 0 -77 -1t-115 -9l6 117q14 1 29 3q13 1 28 2t31 1q3 38 5.5 95t5 117.5t3.5 116t1 91.5l-95 -52z" />
<glyph unicode="&#xba;" horiz-adv-x="813" d="M98 1159q0 68 27.5 142t80 135.5t128 101t170.5 39.5q78 0 128.5 -28t80 -73t41.5 -102.5t12 -116.5q0 -43 -11.5 -91t-34 -95t-55.5 -89t-76 -74t-96.5 -51t-115.5 -19q-75 0 -128 27t-86.5 71.5t-49 102.5t-15.5 120zM344 1214q0 -63 14 -114.5t43 -102.5h66 q12 15 22.5 36.5t18.5 47.5t13 56.5t5 62.5q0 63 -14.5 114.5t-42.5 100.5h-68q-21 -28 -39 -82t-18 -119z" />
<glyph unicode="&#xbb;" horiz-adv-x="995" d="M94 238l191 286l-168 289l67 66l346 -355l-368 -352zM326 145l303 379l-275 379l88 86l510 -465l-538 -465z" />
<glyph unicode="&#xbc;" horiz-adv-x="1432" d="M40 1221q77 45 137 92t99 78l116 -39q-3 -26 -5 -71.5t-3.5 -100t-3 -113.5t-2.5 -113t-1.5 -98t-0.5 -67l90 -62l-4 -106q-35 2 -68 5q-29 2 -62 3.5t-59 1.5q-27 0 -77 -1t-115 -9l6 117q14 1 29 3q13 1 28 2t31 1q3 38 5.5 95t5 117.5t3.5 116t1 91.5l-95 -52zM159 63 l1003 1385l119 -90l-1004 -1393zM731 216l2 119l385 436l119 -39q-3 -26 -5 -69.5t-4 -96t-3.5 -110t-2.5 -110.5q29 2 52.5 3t40.5 3q20 2 37 3l-37 -139h-95v-47l91 -62l-5 -106q-35 2 -68 5q-29 2 -62 3.5t-60 1.5q-26 0 -75.5 -1t-112.5 -9l4 117q14 1 29 3q13 1 28 2 t31 1q2 20 3 43t2 49h-294zM878 335q35 0 74 0.5t78 2.5q1 46 1.5 89.5t0.5 75.5z" />
<glyph unicode="&#xbd;" horiz-adv-x="1485" d="M40 1222q77 45 137 92t99 78l116 -39q-3 -26 -5 -71.5t-3.5 -100t-3 -113.5t-2.5 -113t-1.5 -98t-0.5 -67l90 -62l-4 -106q-35 2 -68 5q-29 2 -62 3.5t-59 1.5q-27 0 -77 -1t-115 -9l6 117q14 1 29 3q13 1 28 2t31 1q3 38 5.5 95t5 117.5t3.5 116t1 91.5l-95 -52zM158 63 l1003 1385l119 -90l-1004 -1393zM840 103q54 56 110 113.5t102 113t75.5 106t29.5 93.5q0 42 -24 64t-64 22q-32 0 -61 -14.5t-60 -42.5l-71 94q51 53 114 86t150 33q48 0 88.5 -13.5t70 -39.5t46 -65.5t16.5 -90.5q0 -49 -21.5 -97t-64.5 -99.5t-107.5 -109.5t-150.5 -128 l229 39l54 106l100 -14q-5 -31 -9.5 -67.5t-8.5 -72.5t-7.5 -67t-5.5 -51h-483z" />
<glyph unicode="&#xbe;" horiz-adv-x="1481" d="M36 683l94 154q24 -25 45.5 -42t42 -27.5t41.5 -15.5t45 -5q40 0 68 28t28 82q0 44 -24 71.5t-70 27.5q-22 0 -45 -5.5t-43 -15.5l-35 109l61 22q19 7 39 18.5t36.5 27t27 34.5t10.5 41t-14.5 36.5t-46.5 14.5q-23 0 -58 -13t-80 -50l-67 84q24 25 52 49t61 42.5t72 30 t85 11.5q49 0 85 -11.5t59.5 -32t35 -48.5t11.5 -62q0 -24 -9.5 -48.5t-25 -45.5t-35 -38t-39.5 -27q31 -5 58 -19t47 -36.5t31.5 -52.5t11.5 -66q0 -66 -29 -120.5t-77 -92.5t-108.5 -59t-123.5 -21q-23 0 -50.5 3.5t-56 11.5t-57 21.5t-53.5 34.5zM203 63l1003 1385 l119 -90l-1004 -1393zM774 216l2 119l385 436l119 -39q-3 -26 -5 -69.5t-4 -96t-3.5 -110t-2.5 -110.5q29 2 52.5 3t40.5 3q20 2 37 3l-37 -139h-95v-47l91 -62l-5 -106q-35 2 -68 5q-29 2 -62 3.5t-60 1.5q-26 0 -75.5 -1t-112.5 -9l4 117q14 1 29 3q13 1 28 2t31 1 q2 20 3 43t2 49h-294zM921 335q35 0 74 0.5t78 2.5q1 46 1.5 89.5t0.5 75.5z" />
<glyph unicode="&#xbf;" horiz-adv-x="772" d="M29 -211q0 65 22 121.5t56 104.5t75.5 87.5t80.5 71t70.5 55t45.5 39.5l-23 185l181 43q29 -54 52 -119t23 -127q0 -32 -21.5 -66.5t-56.5 -70t-78.5 -72t-87.5 -72t-84 -70t-67 -65.5q14 -34 54 -48.5t94 -14.5q36 0 76.5 8t80.5 20.5t78 29t70 34.5l-13 -307 q-19 -6 -48 -12.5t-63 -11.5t-71 -8t-72 -3q-79 0 -147 18t-118.5 52.5t-79.5 84.5t-29 113zM274 631q4 42 6.5 83t4.5 73q2 38 2 73l235 66l78 -76q-5 -44 -7.5 -85t-4.5 -74q-2 -39 -2 -73l-234 -63z" />
<glyph unicode="&#xc0;" horiz-adv-x="1477" d="M-31 -6l8 194q17 3 31.5 5t28.5 3.5t28 2.5t31 2l529 1190l256 41l434 -1147l170 -115l-8 -176q-66 6 -150 11t-178 5q-100 0 -191.5 -5t-166.5 -11l8 194q52 7 90 10t76 3l-64 207q-89 -2 -205.5 -6.5t-241.5 -12.5l-36 -104l133 -115l-8 -176q-66 7 -133.5 11.5 t-153.5 4.5q-84 0 -153 -4t-134 -12zM539 636h292l-118 384h-41zM422 1733q12 15 31.5 42t39.5 56.5t38.5 56t28.5 41.5l350 -301l-86 -125z" />
<glyph unicode="&#xc1;" horiz-adv-x="1477" d="M-31 -6l8 194q17 3 31.5 5t28.5 3.5t28 2.5t31 2l529 1190l256 41l434 -1147l170 -115l-8 -176q-66 6 -150 11t-178 5q-100 0 -191.5 -5t-166.5 -11l8 194q52 7 90 10t76 3l-64 207q-89 -2 -205.5 -6.5t-241.5 -12.5l-36 -104l133 -115l-8 -176q-66 7 -133.5 11.5 t-153.5 4.5q-84 0 -153 -4t-134 -12zM539 636h292l-118 384h-41zM653 1618l326 317q11 -16 30.5 -43t41 -54.5t42.5 -51.5t35 -35l-389 -248z" />
<glyph unicode="&#xc2;" horiz-adv-x="1477" d="M-31 -6l8 194q17 3 31.5 5t28.5 3.5t28 2.5t31 2l529 1190l256 41l434 -1147l170 -115l-8 -176q-66 6 -150 11t-178 5q-100 0 -191.5 -5t-166.5 -11l8 194q52 7 90 10t76 3l-64 207q-89 -2 -205.5 -6.5t-241.5 -12.5l-36 -104l133 -115l-8 -176q-66 7 -133.5 11.5 t-153.5 4.5q-84 0 -153 -4t-134 -12zM539 636h292l-118 384h-41zM455 1606l268 282h123l246 -282l-104 -103l-207 166l-226 -166z" />
<glyph unicode="&#xc3;" horiz-adv-x="1477" d="M-31 -6l8 194q17 3 31.5 5t28.5 3.5t28 2.5t31 2l529 1190l256 41l434 -1147l170 -115l-8 -176q-66 6 -150 11t-178 5q-100 0 -191.5 -5t-166.5 -11l8 194q52 7 90 10t76 3l-64 207q-89 -2 -205.5 -6.5t-241.5 -12.5l-36 -104l133 -115l-8 -176q-66 7 -133.5 11.5 t-153.5 4.5q-84 0 -153 -4t-134 -12zM539 636h292l-118 384h-41zM420 1602l205 227h90q31 -17 58 -30.5t53.5 -25.5t54 -22t59.5 -20l135 116l99 -100l-217 -236h-86q-65 25 -118.5 53t-101.5 56l-143 -123z" />
<glyph unicode="&#xc4;" horiz-adv-x="1477" d="M-31 -6l8 194q17 3 31.5 5t28.5 3.5t28 2.5t31 2l529 1190l256 41l434 -1147l170 -115l-8 -176q-66 6 -150 11t-178 5q-100 0 -191.5 -5t-166.5 -11l8 194q52 7 90 10t76 3l-64 207q-89 -2 -205.5 -6.5t-241.5 -12.5l-36 -104l133 -115l-8 -176q-66 7 -133.5 11.5 t-153.5 4.5q-84 0 -153 -4t-134 -12zM539 636h292l-118 384h-41zM434 1604q3 38 4.5 68t2.5 52q1 26 1 45l209 58l66 -105q-4 -38 -6 -69t-3 -54q-1 -26 -1 -47l-207 -55zM856 1604q3 38 4.5 68t2.5 52q1 26 1 45l209 58l66 -105q-5 -38 -7 -69t-3 -54q-1 -26 -1 -47 l-206 -55z" />
<glyph unicode="&#xc5;" horiz-adv-x="1477" d="M-31 -6l8 194q17 3 31.5 5t28.5 3.5t28 2.5t31 2l529 1190l256 41l434 -1147l170 -115l-8 -176q-66 6 -150 11t-178 5q-100 0 -191.5 -5t-166.5 -11l8 194q52 7 90 10t76 3l-64 207q-89 -2 -205.5 -6.5t-241.5 -12.5l-36 -104l133 -115l-8 -176q-66 7 -133.5 11.5 t-153.5 4.5q-84 0 -153 -4t-134 -12zM539 636h292l-118 384h-41zM522 1716q0 50 20 96t56.5 81t88.5 56t115 21q60 0 103.5 -17t72 -46t42.5 -66.5t14 -79.5q0 -56 -22 -104t-60.5 -83.5t-89 -56t-107.5 -20.5q-65 0 -109 19t-72 50t-40 70t-12 80zM678 1733q0 -20 6 -39.5 t18 -35.5t31.5 -26t46.5 -10q46 0 72 28.5t26 82.5q0 18 -5.5 38t-17.5 36.5t-31 27t-46 10.5q-50 0 -75 -33t-25 -79z" />
<glyph unicode="&#xc6;" horiz-adv-x="2052" d="M-55 -6l8 192q33 6 57.5 9.5t57.5 5.5l542 905l-192 115l8 176q41 -4 99 -7t125 -4.5t140 -3t144 -2t137 -0.5h119q75 0 174 0.5t205 2t211 5t192 9.5l-30 -471h-232l-27 213l-393 39l-16 -373l399 16l-10 -248l-397 27l-6 -377l403 29l66 227h239l-59 -499 q-165 14 -343.5 22t-369.5 8q-59 0 -114.5 -1t-111 -3t-112 -5t-117.5 -7l9 194l60 6q26 2 54 4.5t51 2.5q2 32 5 86t6 120q-79 -2 -188 -6.5t-238 -14.5l-54 -103l134 -113l-9 -176q-34 3 -75 6t-84.5 5t-88 3.5t-85.5 1.5q-85 0 -157.5 -5t-135.5 -11zM633 635h302 q3 73 5.5 147.5t4 143t3 127.5t2.5 102h-41z" />
<glyph unicode="&#xc7;" horiz-adv-x="1405" d="M78 670q0 180 59 322t165.5 239.5t256 149t330.5 51.5q78 0 141 -5t116 -13t99 -18.5t90 -21.5l-16 -448h-252l-29 215q-31 29 -82.5 49t-136.5 20q-72 0 -140 -31.5t-121.5 -93.5t-85.5 -154.5t-32 -215.5q0 -141 44 -238t117 -157.5t167 -87.5t193 -27q46 0 91.5 3.5 t86.5 9.5t76.5 13.5t62.5 16.5l55 -203q-46 -17 -101.5 -32t-117 -27t-127 -19t-132.5 -8l-8 -53q28 -11 54.5 -25t46 -33.5t31.5 -44.5t12 -57q0 -51 -22.5 -92.5t-59.5 -71.5t-85 -46.5t-99 -16.5q-32 0 -67 7t-64 21l4 187q45 -25 94.5 -44.5t97.5 -19.5q23 0 39 8.5 t23 22.5q-32 25 -74.5 45t-93.5 43l29 177q-146 16 -263 69t-200 142t-127.5 212.5t-44.5 280.5z" />
<glyph unicode="&#xc8;" horiz-adv-x="1384" d="M72 -6l8 194l60 6q26 2 54.5 4.5t51.5 2.5q4 48 8 121.5t7 159.5t6 177.5t5 176t3 155.5t1 115l-170 115l9 176q125 -12 260.5 -14.5t281.5 -2.5q136 0 303 3t343 14l-31 -471h-232l-26 213l-393 39l-17 -373l400 16l-11 -248l-397 27l-6 -377l403 29l66 227h239 l-59 -499q-165 14 -343.5 22t-369.5 8q-117 0 -225.5 -4t-228.5 -12zM465 1733q12 15 31.5 42t39.5 56.5t38.5 56t28.5 41.5l350 -301l-86 -125z" />
<glyph unicode="&#xc9;" horiz-adv-x="1384" d="M72 -6l8 194l60 6q26 2 54.5 4.5t51.5 2.5q4 48 8 121.5t7 159.5t6 177.5t5 176t3 155.5t1 115l-170 115l9 176q125 -12 260.5 -14.5t281.5 -2.5q136 0 303 3t343 14l-31 -471h-232l-26 213l-393 39l-17 -373l400 16l-11 -248l-397 27l-6 -377l403 29l66 227h239 l-59 -499q-165 14 -343.5 22t-369.5 8q-117 0 -225.5 -4t-228.5 -12zM596 1618l326 317q11 -16 30.5 -43t41 -54.5t42.5 -51.5t35 -35l-389 -248z" />
<glyph unicode="&#xca;" horiz-adv-x="1384" d="M72 -6l8 194l60 6q26 2 54.5 4.5t51.5 2.5q4 48 8 121.5t7 159.5t6 177.5t5 176t3 155.5t1 115l-170 115l9 176q125 -12 260.5 -14.5t281.5 -2.5q136 0 303 3t343 14l-31 -471h-232l-26 213l-393 39l-17 -373l400 16l-11 -248l-397 27l-6 -377l403 29l66 227h239 l-59 -499q-165 14 -343.5 22t-369.5 8q-117 0 -225.5 -4t-228.5 -12zM475 1606l268 282h123l246 -282l-104 -103l-207 166l-226 -166z" />
<glyph unicode="&#xcb;" horiz-adv-x="1384" d="M72 -6l8 194l60 6q26 2 54.5 4.5t51.5 2.5q4 48 8 121.5t7 159.5t6 177.5t5 176t3 155.5t1 115l-170 115l9 176q125 -12 260.5 -14.5t281.5 -2.5q136 0 303 3t343 14l-31 -471h-232l-26 213l-393 39l-17 -373l400 16l-11 -248l-397 27l-6 -377l403 29l66 227h239 l-59 -499q-165 14 -343.5 22t-369.5 8q-117 0 -225.5 -4t-228.5 -12zM448 1604q3 38 4.5 68t2.5 52q1 26 1 45l209 58l66 -105q-4 -38 -6 -69t-3 -54q-1 -26 -1 -47l-207 -55zM870 1604q3 38 4.5 68t2.5 52q1 26 1 45l209 58l66 -105q-5 -38 -7 -69t-3 -54q-1 -26 -1 -47 l-206 -55z" />
<glyph unicode="&#xcc;" horiz-adv-x="858" d="M72 -6l8 194q26 3 54 6q24 2 53.5 4.5t58.5 3.5q4 48 7 121t6.5 159t6 177.5t4.5 176t3 155.5t1 115l-170 115l11 176q42 -4 78 -7t72.5 -5.5t76.5 -3.5t90 -1q28 0 68 0.5t87.5 2t100.5 5.5t109 9l-11 -195q-26 -3 -54 -6q-24 -2 -53.5 -4t-57.5 -2q-4 -48 -8 -121.5 t-7 -159.5t-5.5 -178t-4.5 -176.5t-2.5 -155t-1.5 -114.5l170 -115l-8 -176q-43 4 -80 7t-73.5 5t-77 3t-91.5 1q-28 0 -67.5 -0.5t-86.5 -2t-99.5 -4.5t-106.5 -9zM119 1733q12 15 31.5 42t39.5 56.5t38.5 56t28.5 41.5l350 -301l-86 -125z" />
<glyph unicode="&#xcd;" horiz-adv-x="858" d="M72 -6l8 194q26 3 54 6q24 2 53.5 4.5t58.5 3.5q4 48 7 121t6.5 159t6 177.5t4.5 176t3 155.5t1 115l-170 115l11 176q42 -4 78 -7t72.5 -5.5t76.5 -3.5t90 -1q28 0 68 0.5t87.5 2t100.5 5.5t109 9l-11 -195q-26 -3 -54 -6q-24 -2 -53.5 -4t-57.5 -2q-4 -48 -8 -121.5 t-7 -159.5t-5.5 -178t-4.5 -176.5t-2.5 -155t-1.5 -114.5l170 -115l-8 -176q-43 4 -80 7t-73.5 5t-77 3t-91.5 1q-28 0 -67.5 -0.5t-86.5 -2t-99.5 -4.5t-106.5 -9zM331 1618l326 317q11 -16 30.5 -43t41 -54.5t42.5 -51.5t35 -35l-389 -248z" />
<glyph unicode="&#xce;" horiz-adv-x="858" d="M72 -6l8 194q26 3 54 6q24 2 53.5 4.5t58.5 3.5q4 48 7 121t6.5 159t6 177.5t4.5 176t3 155.5t1 115l-170 115l11 176q42 -4 78 -7t72.5 -5.5t76.5 -3.5t90 -1q28 0 68 0.5t87.5 2t100.5 5.5t109 9l-11 -195q-26 -3 -54 -6q-24 -2 -53.5 -4t-57.5 -2q-4 -48 -8 -121.5 t-7 -159.5t-5.5 -178t-4.5 -176.5t-2.5 -155t-1.5 -114.5l170 -115l-8 -176q-43 4 -80 7t-73.5 5t-77 3t-91.5 1q-28 0 -67.5 -0.5t-86.5 -2t-99.5 -4.5t-106.5 -9zM157 1606l268 282h123l246 -282l-104 -103l-207 166l-226 -166z" />
<glyph unicode="&#xcf;" horiz-adv-x="858" d="M72 -6l8 194q26 3 54 6q24 2 53.5 4.5t58.5 3.5q4 48 7 121t6.5 159t6 177.5t4.5 176t3 155.5t1 115l-170 115l11 176q42 -4 78 -7t72.5 -5.5t76.5 -3.5t90 -1q28 0 68 0.5t87.5 2t100.5 5.5t109 9l-11 -195q-26 -3 -54 -6q-24 -2 -53.5 -4t-57.5 -2q-4 -48 -8 -121.5 t-7 -159.5t-5.5 -178t-4.5 -176.5t-2.5 -155t-1.5 -114.5l170 -115l-8 -176q-43 4 -80 7t-73.5 5t-77 3t-91.5 1q-28 0 -67.5 -0.5t-86.5 -2t-99.5 -4.5t-106.5 -9zM124 1604q3 38 4.5 68t2.5 52q1 26 1 45l209 58l66 -105q-4 -38 -6 -69t-3 -54q-1 -26 -1 -47l-207 -55z M546 1604q3 38 4.5 68t2.5 52q1 26 1 45l209 58l66 -105q-5 -38 -7 -69t-3 -54q-1 -26 -1 -47l-206 -55z" />
<glyph unicode="&#xd0;" horiz-adv-x="1632" d="M70 571l10 258h194q2 85 3.5 156.5t1.5 120.5l-170 115l8 176q65 -8 127.5 -12.5t124.5 -4.5q59 0 115.5 3.5t115 7t120 7t130.5 3.5q164 0 296.5 -47.5t225.5 -136t143 -215t50 -283.5q0 -72 -15 -154t-50.5 -163t-95 -156t-148.5 -132.5t-210 -91.5t-280 -34 q-50 0 -100.5 3.5t-102 7.5t-105 7.5t-110.5 3.5q-16 0 -45.5 -1t-67 -3t-79.5 -5t-82 -7l8 194q17 3 34 5t36.5 3.5t43 2.5t52.5 2q5 94 9.5 191t8.5 194q-49 -3 -98 -6.5t-98 -8.5zM588 250q18 -6 42 -11.5t52 -10.5t58.5 -8t62.5 -3q33 0 75.5 9t86 31.5t85.5 59.5t75 94 t53 135.5t20 182.5q0 43 -8 94t-27 101.5t-50.5 97.5t-79 83t-112 57.5t-149.5 21.5q-43 0 -85.5 -1.5t-68.5 -4.5l-11 -349h231l-7 -225q-14 -1 -30 -1h-34q-31 -1 -73.5 -1t-94.5 -2z" />
<glyph unicode="&#xd1;" horiz-adv-x="1649" d="M53 -6l8 194q34 5 73.5 9t74.5 4l22 643q7 155 10 272t3 207v68l198 41l725 -889l37 6l-20 559l-191 115l8 176q67 -8 146.5 -13.5t161.5 -5.5q81 0 154.5 4t138.5 13l-9 -195q-34 -5 -72.5 -7.5t-70.5 -2.5l-25 -635q-3 -93 -5 -168.5t-3 -140.5t-1.5 -125t-0.5 -121 l-207 -43l-723 889l-36 -6l22 -557l191 -115l-9 -176q-68 6 -147.5 11t-161.5 5q-81 0 -154.5 -5t-136.5 -11zM563 1602l205 227h90q31 -17 58 -30.5t53.5 -25.5t54 -22t59.5 -20l135 116l99 -100l-217 -236h-86q-65 25 -118.5 53t-101.5 56l-143 -123z" />
<glyph unicode="&#xd2;" d="M76 688q0 155 54 291t154.5 236.5t243.5 158.5t320 58q166 0 293 -58t213.5 -155.5t131 -225.5t44.5 -268q0 -105 -25.5 -202.5t-72 -182.5t-112.5 -155.5t-147 -120.5t-175 -77.5t-197 -27.5q-186 0 -322.5 58t-226 157.5t-133 232t-43.5 281.5zM440 735 q0 -112 26 -212.5t74.5 -176t117 -120t153.5 -44.5q89 0 155 42.5t109.5 111t64.5 153.5t21 170q0 111 -25.5 211t-73.5 175.5t-116.5 120t-154.5 44.5q-89 0 -155 -43t-109.5 -111.5t-65 -153t-21.5 -167.5zM491 1733q12 15 31.5 42t39.5 56.5t38.5 56t28.5 41.5l350 -301 l-86 -125z" />
<glyph unicode="&#xd3;" d="M76 688q0 155 54 291t154.5 236.5t243.5 158.5t320 58q166 0 293 -58t213.5 -155.5t131 -225.5t44.5 -268q0 -105 -25.5 -202.5t-72 -182.5t-112.5 -155.5t-147 -120.5t-175 -77.5t-197 -27.5q-186 0 -322.5 58t-226 157.5t-133 232t-43.5 281.5zM440 735 q0 -112 26 -212.5t74.5 -176t117 -120t153.5 -44.5q89 0 155 42.5t109.5 111t64.5 153.5t21 170q0 111 -25.5 211t-73.5 175.5t-116.5 120t-154.5 44.5q-89 0 -155 -43t-109.5 -111.5t-65 -153t-21.5 -167.5zM702 1618l326 317q11 -16 30.5 -43t41 -54.5t42.5 -51.5t35 -35 l-389 -248z" />
<glyph unicode="&#xd4;" d="M76 688q0 155 54 291t154.5 236.5t243.5 158.5t320 58q166 0 293 -58t213.5 -155.5t131 -225.5t44.5 -268q0 -105 -25.5 -202.5t-72 -182.5t-112.5 -155.5t-147 -120.5t-175 -77.5t-197 -27.5q-186 0 -322.5 58t-226 157.5t-133 232t-43.5 281.5zM440 735 q0 -112 26 -212.5t74.5 -176t117 -120t153.5 -44.5q89 0 155 42.5t109.5 111t64.5 153.5t21 170q0 111 -25.5 211t-73.5 175.5t-116.5 120t-154.5 44.5q-89 0 -155 -43t-109.5 -111.5t-65 -153t-21.5 -167.5zM518 1606l268 282h123l246 -282l-104 -103l-207 166l-226 -166z " />
<glyph unicode="&#xd5;" d="M76 688q0 155 54 291t154.5 236.5t243.5 158.5t320 58q166 0 293 -58t213.5 -155.5t131 -225.5t44.5 -268q0 -105 -25.5 -202.5t-72 -182.5t-112.5 -155.5t-147 -120.5t-175 -77.5t-197 -27.5q-186 0 -322.5 58t-226 157.5t-133 232t-43.5 281.5zM440 735 q0 -112 26 -212.5t74.5 -176t117 -120t153.5 -44.5q89 0 155 42.5t109.5 111t64.5 153.5t21 170q0 111 -25.5 211t-73.5 175.5t-116.5 120t-154.5 44.5q-89 0 -155 -43t-109.5 -111.5t-65 -153t-21.5 -167.5zM461 1602l205 227h90q31 -17 58 -30.5t53.5 -25.5t54 -22 t59.5 -20l135 116l99 -100l-217 -236h-86q-65 25 -118.5 53t-101.5 56l-143 -123z" />
<glyph unicode="&#xd6;" d="M76 688q0 155 54 291t154.5 236.5t243.5 158.5t320 58q166 0 293 -58t213.5 -155.5t131 -225.5t44.5 -268q0 -105 -25.5 -202.5t-72 -182.5t-112.5 -155.5t-147 -120.5t-175 -77.5t-197 -27.5q-186 0 -322.5 58t-226 157.5t-133 232t-43.5 281.5zM440 735 q0 -112 26 -212.5t74.5 -176t117 -120t153.5 -44.5q89 0 155 42.5t109.5 111t64.5 153.5t21 170q0 111 -25.5 211t-73.5 175.5t-116.5 120t-154.5 44.5q-89 0 -155 -43t-109.5 -111.5t-65 -153t-21.5 -167.5zM506 1604q3 38 4.5 68t2.5 52q1 26 1 45l209 58l66 -105 q-4 -38 -6 -69t-3 -54q-1 -26 -1 -47l-207 -55zM928 1604q3 38 4.5 68t2.5 52q1 26 1 45l209 58l66 -105q-5 -38 -7 -69t-3 -54q-1 -26 -1 -47l-206 -55z" />
<glyph unicode="&#xd7;" horiz-adv-x="1063" d="M70 338l309 309l-309 309l133 134l309 -310l307 310l133 -134l-309 -309l309 -309l-133 -133l-307 309l-309 -309z" />
<glyph unicode="&#xd8;" d="M76 688q0 155 54 291t154.5 236.5t243.5 158.5t320 58q90 0 167.5 -17.5t144.5 -49.5l120 181l127 -88l-118 -177q59 -50 104 -112t75.5 -133.5t46 -150t15.5 -160.5q0 -105 -25.5 -202.5t-72 -182.5t-112.5 -155.5t-147 -120.5t-175 -77.5t-197 -27.5t-189.5 18 t-158.5 51l-144 -216l-123 84l139 210q-63 50 -110 114t-78 138.5t-46 157.5t-15 172zM440 735q0 -97 19 -184t55 -159l485 731q-43 41 -95 64t-113 23q-89 0 -155 -43t-109.5 -111.5t-65 -153t-21.5 -167.5zM610 263q42 -38 92 -59.5t109 -21.5q89 0 155 42.5t109.5 111 t64.5 153.5t21 170q0 91 -17.5 175t-50.5 154z" />
<glyph unicode="&#xd9;" horiz-adv-x="1593" d="M59 1221l9 176q42 -5 96 -9q46 -3 110 -5.5t144 -2.5q77 0 163 4.5t160 12.5l-8 -197q-52 -5 -90.5 -6.5t-75.5 -3.5q-11 -299 -15.5 -463.5t-4.5 -212.5q0 -87 23 -150t63.5 -103.5t95.5 -59.5t119 -19q53 0 96 10.5t77 28t59.5 40t43.5 46.5l9 799l-170 115l8 176 q66 -8 145.5 -12.5t167.5 -4.5t170.5 4.5t147.5 12.5l-9 -195q-17 -2 -38.5 -4t-44 -3.5t-44.5 -2.5t-39 -2l-55 -680q-22 -266 -170 -407.5t-428 -141.5q-131 0 -235.5 34t-177.5 97.5t-112.5 154t-39.5 202.5q0 11 1.5 69t4 147t6 203t8.5 238zM546 1733q12 15 31.5 42 t39.5 56.5t38.5 56t28.5 41.5l350 -301l-86 -125z" />
<glyph unicode="&#xda;" horiz-adv-x="1593" d="M59 1221l9 176q42 -5 96 -9q46 -3 110 -5.5t144 -2.5q77 0 163 4.5t160 12.5l-8 -197q-52 -5 -90.5 -6.5t-75.5 -3.5q-11 -299 -15.5 -463.5t-4.5 -212.5q0 -87 23 -150t63.5 -103.5t95.5 -59.5t119 -19q53 0 96 10.5t77 28t59.5 40t43.5 46.5l9 799l-170 115l8 176 q66 -8 145.5 -12.5t167.5 -4.5t170.5 4.5t147.5 12.5l-9 -195q-17 -2 -38.5 -4t-44 -3.5t-44.5 -2.5t-39 -2l-55 -680q-22 -266 -170 -407.5t-428 -141.5q-131 0 -235.5 34t-177.5 97.5t-112.5 154t-39.5 202.5q0 11 1.5 69t4 147t6 203t8.5 238zM717 1618l326 317 q11 -16 30.5 -43t41 -54.5t42.5 -51.5t35 -35l-389 -248z" />
<glyph unicode="&#xdb;" horiz-adv-x="1593" d="M59 1221l9 176q42 -5 96 -9q46 -3 110 -5.5t144 -2.5q77 0 163 4.5t160 12.5l-8 -197q-52 -5 -90.5 -6.5t-75.5 -3.5q-11 -299 -15.5 -463.5t-4.5 -212.5q0 -87 23 -150t63.5 -103.5t95.5 -59.5t119 -19q53 0 96 10.5t77 28t59.5 40t43.5 46.5l9 799l-170 115l8 176 q66 -8 145.5 -12.5t167.5 -4.5t170.5 4.5t147.5 12.5l-9 -195q-17 -2 -38.5 -4t-44 -3.5t-44.5 -2.5t-39 -2l-55 -680q-22 -266 -170 -407.5t-428 -141.5q-131 0 -235.5 34t-177.5 97.5t-112.5 154t-39.5 202.5q0 11 1.5 69t4 147t6 203t8.5 238zM559 1606l268 282h123 l246 -282l-104 -103l-207 166l-226 -166z" />
<glyph unicode="&#xdc;" horiz-adv-x="1593" d="M59 1221l9 176q42 -5 96 -9q46 -3 110 -5.5t144 -2.5q77 0 163 4.5t160 12.5l-8 -197q-52 -5 -90.5 -6.5t-75.5 -3.5q-11 -299 -15.5 -463.5t-4.5 -212.5q0 -87 23 -150t63.5 -103.5t95.5 -59.5t119 -19q53 0 96 10.5t77 28t59.5 40t43.5 46.5l9 799l-170 115l8 176 q66 -8 145.5 -12.5t167.5 -4.5t170.5 4.5t147.5 12.5l-9 -195q-17 -2 -38.5 -4t-44 -3.5t-44.5 -2.5t-39 -2l-55 -680q-22 -266 -170 -407.5t-428 -141.5q-131 0 -235.5 34t-177.5 97.5t-112.5 154t-39.5 202.5q0 11 1.5 69t4 147t6 203t8.5 238zM538 1604q3 38 4.5 68 t2.5 52q1 26 1 45l209 58l66 -105q-4 -38 -6 -69t-3 -54q-1 -26 -1 -47l-207 -55zM960 1604q3 38 4.5 68t2.5 52q1 26 1 45l209 58l66 -105q-5 -38 -7 -69t-3 -54q-1 -26 -1 -47l-206 -55z" />
<glyph unicode="&#xdd;" horiz-adv-x="1444" d="M12 1219l11 178q66 -6 155 -11.5t182 -5.5q101 0 186 5.5t161 11.5l-11 -195q-52 -6 -90 -8l-76 -4l242 -424h39l199 340l-133 113l8 178q66 -8 136 -12.5t155 -4.5q83 0 162.5 4.5t144.5 12.5l-8 -193q-16 -3 -28.5 -5t-24.5 -3.5t-24.5 -2t-29.5 -1.5l-479 -688 q-1 -30 -1.5 -62t-1 -61.5t-1 -54.5t-0.5 -41l170 -115l-6 -176q-48 4 -103 8q-47 3 -107 5.5t-124 2.5q-71 0 -153 -2t-191 -14l6 194q26 3 54 6q24 2 53.5 4.5t58.5 2.5q1 21 3 52.5t4 67.5t4 75.5t4 77.5l-386 632zM626 1618l326 317q11 -16 30.5 -43t41 -54.5 t42.5 -51.5t35 -35l-389 -248z" />
<glyph unicode="&#xde;" horiz-adv-x="1282" d="M72 -6l8 192q26 3 54 6q24 2 53.5 4.5t58.5 2.5q9 106 14.5 219t8.5 229t4.5 232t2.5 227l-170 115l9 176q43 -4 79 -7t72.5 -5.5t76.5 -3.5t91 -1q28 0 67.5 0.5t87 2t100.5 5t108 9.5l-9 -195q-27 -3 -55 -6q-24 -2 -54 -4t-58 -2l-3 -92q39 3 79.5 4.5t78.5 1.5 q240 0 353.5 -95.5t113.5 -269.5q0 -111 -41.5 -192t-108 -133.5t-149.5 -77.5t-166 -25q-26 0 -55 3t-53 10l10 233q15 -3 26.5 -3.5t22.5 -0.5q74 0 112 39.5t38 124.5q0 74 -52 108.5t-155 34.5q-19 0 -36 -1t-28 -3q-8 -122 -10 -268t-4 -305l170 -115l-8 -174 q-43 4 -83.5 7t-82 5t-85.5 3t-95 1q-56 0 -142.5 -2t-195.5 -14z" />
<glyph unicode="&#xdf;" horiz-adv-x="1313" d="M-152 -526l11 309q72 -43 149.5 -74.5t165.5 -34.5q13 32 21 79.5t13 103.5t8 116.5t5 118.5l23 588q-55 -9 -109.5 -17t-103.5 -16l10 250h212l3 68q7 147 48.5 261t111 192t165 118.5t210.5 40.5q84 0 145 -25t101 -65.5t59.5 -92.5t19.5 -106q0 -68 -20 -128 t-53.5 -110.5t-77 -89t-91.5 -63.5q81 -49 150.5 -111.5t120 -132.5t79.5 -145t29 -150q0 -82 -27.5 -153t-78 -123t-122 -81.5t-159.5 -29.5q-84 0 -142 9t-101 18l10 309q52 -28 95 -48t83.5 -33.5t81 -20.5t88.5 -8q-15 86 -44 157.5t-71.5 132.5t-98 113t-124.5 100 l6 197q33 31 62 74t50.5 94t34 109t13.5 120q-18 9 -42 18t-51 17t-56 13t-58 6q-9 -32 -16.5 -80.5t-13 -105.5t-9.5 -117.5t-6 -116.5l-27 -869q-4 -129 -42.5 -241t-105.5 -194.5t-160 -129.5t-206 -47q-8 0 -21 0.5t-32.5 3t-47.5 8t-67 15.5z" />
<glyph unicode="&#xe0;" horiz-adv-x="1079" d="M47 195q0 105 20 200t55 176t83.5 146.5t106 112t122 71.5t131.5 25q79 0 165.5 -13t176.5 -41q-8 -84 -12.5 -159.5t-7.5 -149t-5 -148t-5 -157.5q29 3 70.5 11.5t78.5 21.5l53 -158q-29 -20 -68 -40t-83 -38t-89 -33t-85 -26.5t-71.5 -18t-47.5 -6.5l-74 119l49 193 l-14 6q-37 -55 -79 -106t-86 -93.5t-89.5 -73.5t-89.5 -45l-180 58q-6 17 -10.5 39t-7.5 45t-5 44.5t-2 37.5zM348 346q0 -16 2 -33q17 1 42.5 13.5t54.5 34.5t58 52.5t52.5 68t39 82t17.5 93.5l2 58q-18 5 -41 8.5t-43 3.5q-42 0 -76 -27.5t-58 -74.5t-37 -110.5 t-13 -135.5v-33zM327 1403q17 12 42.5 34t52 46t50 46.5t36.5 35.5l270 -373l-111 -100z" />
<glyph unicode="&#xe1;" horiz-adv-x="1079" d="M47 195q0 105 20 200t55 176t83.5 146.5t106 112t122 71.5t131.5 25q79 0 165.5 -13t176.5 -41q-8 -84 -12.5 -159.5t-7.5 -149t-5 -148t-5 -157.5q29 3 70.5 11.5t78.5 21.5l53 -158q-29 -20 -68 -40t-83 -38t-89 -33t-85 -26.5t-71.5 -18t-47.5 -6.5l-74 119l49 193 l-14 6q-37 -55 -79 -106t-86 -93.5t-89.5 -73.5t-89.5 -45l-180 58q-6 17 -10.5 39t-7.5 45t-5 44.5t-2 37.5zM348 346q0 -16 2 -33q17 1 42.5 13.5t54.5 34.5t58 52.5t52.5 68t39 82t17.5 93.5l2 58q-18 5 -41 8.5t-43 3.5q-42 0 -76 -27.5t-58 -74.5t-37 -110.5 t-13 -135.5v-33zM436 1186l252 379q14 -14 38.5 -36t52 -45t53.5 -42t42 -27l-330 -323z" />
<glyph unicode="&#xe2;" horiz-adv-x="1079" d="M47 195q0 105 20 200t55 176t83.5 146.5t106 112t122 71.5t131.5 25q79 0 165.5 -13t176.5 -41q-8 -84 -12.5 -159.5t-7.5 -149t-5 -148t-5 -157.5q29 3 70.5 11.5t78.5 21.5l53 -158q-29 -20 -68 -40t-83 -38t-89 -33t-85 -26.5t-71.5 -18t-47.5 -6.5l-74 119l49 193 l-14 6q-37 -55 -79 -106t-86 -93.5t-89.5 -73.5t-89.5 -45l-180 58q-6 17 -10.5 39t-7.5 45t-5 44.5t-2 37.5zM348 346q0 -16 2 -33q17 1 42.5 13.5t54.5 34.5t58 52.5t52.5 68t39 82t17.5 93.5l2 58q-18 5 -41 8.5t-43 3.5q-42 0 -76 -27.5t-58 -74.5t-37 -110.5 t-13 -135.5v-33zM266 1194l268 319h123l246 -319l-105 -102l-206 202l-226 -202z" />
<glyph unicode="&#xe3;" horiz-adv-x="1079" d="M47 195q0 105 20 200t55 176t83.5 146.5t106 112t122 71.5t131.5 25q79 0 165.5 -13t176.5 -41q-8 -84 -12.5 -159.5t-7.5 -149t-5 -148t-5 -157.5q29 3 70.5 11.5t78.5 21.5l53 -158q-29 -20 -68 -40t-83 -38t-89 -33t-85 -26.5t-71.5 -18t-47.5 -6.5l-74 119l49 193 l-14 6q-37 -55 -79 -106t-86 -93.5t-89.5 -73.5t-89.5 -45l-180 58q-6 17 -10.5 39t-7.5 45t-5 44.5t-2 37.5zM348 346q0 -16 2 -33q17 1 42.5 13.5t54.5 34.5t58 52.5t52.5 68t39 82t17.5 93.5l2 58q-18 5 -41 8.5t-43 3.5q-42 0 -76 -27.5t-58 -74.5t-37 -110.5 t-13 -135.5v-33zM203 1196l205 227h90q31 -17 58 -30.5t53.5 -25t54 -22t59.5 -20.5l135 117l99 -101l-217 -235h-86q-65 25 -118 53t-101 55l-144 -122z" />
<glyph unicode="&#xe4;" horiz-adv-x="1079" d="M47 195q0 105 20 200t55 176t83.5 146.5t106 112t122 71.5t131.5 25q79 0 165.5 -13t176.5 -41q-8 -84 -12.5 -159.5t-7.5 -149t-5 -148t-5 -157.5q29 3 70.5 11.5t78.5 21.5l53 -158q-29 -20 -68 -40t-83 -38t-89 -33t-85 -26.5t-71.5 -18t-47.5 -6.5l-74 119l49 193 l-14 6q-37 -55 -79 -106t-86 -93.5t-89.5 -73.5t-89.5 -45l-180 58q-6 17 -10.5 39t-7.5 45t-5 44.5t-2 37.5zM348 346q0 -16 2 -33q17 1 42.5 13.5t54.5 34.5t58 52.5t52.5 68t39 82t17.5 93.5l2 58q-18 5 -41 8.5t-43 3.5q-42 0 -76 -27.5t-58 -74.5t-37 -110.5 t-13 -135.5v-33zM262 1198q3 38 5 68t3 52q1 26 1 46l209 57l65 -104q-4 -38 -6 -69t-3 -54q-1 -26 -1 -47l-207 -55zM643 1198q3 38 5 68t3 52q1 26 1 46l209 57l65 -104q-4 -38 -6 -69t-3 -54q-1 -26 -1 -47l-207 -55z" />
<glyph unicode="&#xe5;" horiz-adv-x="1079" d="M47 195q0 105 20 200t55 176t83.5 146.5t106 112t122 71.5t131.5 25q79 0 165.5 -13t176.5 -41q-8 -84 -12.5 -159.5t-7.5 -149t-5 -148t-5 -157.5q29 3 70.5 11.5t78.5 21.5l53 -158q-29 -20 -68 -40t-83 -38t-89 -33t-85 -26.5t-71.5 -18t-47.5 -6.5l-74 119l49 193 l-14 6q-37 -55 -79 -106t-86 -93.5t-89.5 -73.5t-89.5 -45l-180 58q-6 17 -10.5 39t-7.5 45t-5 44.5t-2 37.5zM348 346q0 -16 2 -33q17 1 42.5 13.5t54.5 34.5t58 52.5t52.5 68t39 82t17.5 93.5l2 58q-18 5 -41 8.5t-43 3.5q-42 0 -76 -27.5t-58 -74.5t-37 -110.5 t-13 -135.5v-33zM333 1311q0 50 20 96t56.5 81t88.5 56t116 21q60 0 103.5 -17t72 -46t42 -67t13.5 -79q0 -56 -22 -104.5t-60 -84t-88.5 -55.5t-107.5 -20q-65 0 -109.5 19t-72 49.5t-40 70t-12.5 80.5zM489 1327q0 -19 6 -38.5t18.5 -35.5t31.5 -26t46 -10q47 0 73 28 t26 82q0 18 -5.5 38t-18 36.5t-31.5 27.5t-46 11q-49 0 -74.5 -33t-25.5 -80z" />
<glyph unicode="&#xe6;" horiz-adv-x="1337" d="M47 195q0 105 20 200t55 176t83.5 146.5t106 112t122 71.5t131.5 25q76 0 138.5 -9.5t122.5 -23.5q37 16 77 24.5t84 8.5q20 0 53 -2t72 -10t79 -24.5t75 -45.5l-11 -322q-57 -37 -128 -73q-61 -31 -144.5 -66.5t-183.5 -65.5q1 -8 3 -19.5t4.5 -23.5t5.5 -23t5 -20 q38 3 87 11t100.5 18t101 21.5t88.5 23.5l57 -166q-26 -19 -65 -38t-84.5 -37t-95 -34t-96 -28.5t-87.5 -20.5t-69 -10l-181 58q-21 35 -35.5 72.5t-23.5 77.5q-61 -74 -128 -131t-134 -77l-180 58q-6 17 -10.5 39t-7.5 45t-5 44.5t-2 37.5zM348 346q0 -16 2 -33q26 2 69 30 t85 76q11 81 39.5 155.5t72.5 139.5v1q-18 5 -41 8.5t-43 3.5q-42 0 -76 -27.5t-58 -74.5t-37 -110.5t-13 -135.5v-33zM793 512q60 26 105 54.5t74 54.5q34 29 58 59q-12 7 -29 14t-36.5 12t-39.5 8t-38 3h-13q-6 0 -12 -2q-31 -29 -48.5 -83.5t-20.5 -119.5z" />
<glyph unicode="&#xe7;" horiz-adv-x="817" d="M50 302q0 74 16.5 149t48 144.5t77 130t104 105t129.5 70t153 25.5q52 0 101 -11t101 -28l-78 -305q-30 20 -66.5 38.5t-73.5 33.5t-73 25t-65 13q-38 -60 -58 -142.5t-20 -167.5q0 -47 6 -90.5t19 -80.5q27 3 69 9.5t88 15.5t91 20t79 23l52 -146q-26 -19 -61 -37.5 t-75 -35.5t-82.5 -32t-83.5 -27l-8 -54q28 -11 54.5 -25t46 -33.5t31.5 -44.5t12 -57q0 -51 -22.5 -92.5t-59.5 -71.5t-85 -46.5t-99 -16.5q-32 0 -67 7t-64 21l4 187q45 -25 94.5 -44.5t97.5 -19.5q23 0 39 8.5t23 22.5q-32 25 -74.5 45t-93.5 43l23 141h-1l-180 58 q-35 60 -52 129t-17 144z" />
<glyph unicode="&#xe8;" horiz-adv-x="893" d="M51 324q0 74 15.5 147.5t45.5 140.5t73 124t97 99.5t119.5 66.5t139.5 24q20 0 53 -2t71.5 -10t78.5 -24.5t75 -45.5l-10 -322q-58 -37 -129 -73q-61 -31 -144.5 -66.5t-183.5 -65.5q1 -8 3 -20t5 -24t6 -23.5t5 -18.5q37 3 86 11t100.5 18t101.5 21.5t89 23.5l57 -166 q-26 -19 -65 -38t-85 -37t-95.5 -34t-96 -28.5t-87 -20.5t-69.5 -10l-180 58q-39 66 -57.5 141.5t-18.5 153.5zM346 512q61 26 106 54.5t74 54.5q34 29 58 59q-12 7 -29 14t-37 12t-40 8t-38 3h-12q-6 0 -12 -2q-31 -29 -49 -83.5t-21 -119.5zM172 1403q17 12 42.5 34t52 46 t50 46.5t36.5 35.5l270 -373l-111 -100z" />
<glyph unicode="&#xe9;" horiz-adv-x="893" d="M51 324q0 74 15.5 147.5t45.5 140.5t73 124t97 99.5t119.5 66.5t139.5 24q20 0 53 -2t71.5 -10t78.5 -24.5t75 -45.5l-10 -322q-58 -37 -129 -73q-61 -31 -144.5 -66.5t-183.5 -65.5q1 -8 3 -20t5 -24t6 -23.5t5 -18.5q37 3 86 11t100.5 18t101.5 21.5t89 23.5l57 -166 q-26 -19 -65 -38t-85 -37t-95.5 -34t-96 -28.5t-87 -20.5t-69.5 -10l-180 58q-39 66 -57.5 141.5t-18.5 153.5zM346 512q61 26 106 54.5t74 54.5q34 29 58 59q-12 7 -29 14t-37 12t-40 8t-38 3h-12q-6 0 -12 -2q-31 -29 -49 -83.5t-21 -119.5zM375 1186l252 379 q14 -14 38.5 -36t52 -45t53.5 -42t42 -27l-330 -323z" />
<glyph unicode="&#xea;" horiz-adv-x="893" d="M51 324q0 74 15.5 147.5t45.5 140.5t73 124t97 99.5t119.5 66.5t139.5 24q20 0 53 -2t71.5 -10t78.5 -24.5t75 -45.5l-10 -322q-58 -37 -129 -73q-61 -31 -144.5 -66.5t-183.5 -65.5q1 -8 3 -20t5 -24t6 -23.5t5 -18.5q37 3 86 11t100.5 18t101.5 21.5t89 23.5l57 -166 q-26 -19 -65 -38t-85 -37t-95.5 -34t-96 -28.5t-87 -20.5t-69.5 -10l-180 58q-39 66 -57.5 141.5t-18.5 153.5zM346 512q61 26 106 54.5t74 54.5q34 29 58 59q-12 7 -29 14t-37 12t-40 8t-38 3h-12q-6 0 -12 -2q-31 -29 -49 -83.5t-21 -119.5zM209 1194l268 319h123 l246 -319l-105 -102l-206 202l-226 -202z" />
<glyph unicode="&#xeb;" horiz-adv-x="893" d="M51 324q0 74 15.5 147.5t45.5 140.5t73 124t97 99.5t119.5 66.5t139.5 24q20 0 53 -2t71.5 -10t78.5 -24.5t75 -45.5l-10 -322q-58 -37 -129 -73q-61 -31 -144.5 -66.5t-183.5 -65.5q1 -8 3 -20t5 -24t6 -23.5t5 -18.5q37 3 86 11t100.5 18t101.5 21.5t89 23.5l57 -166 q-26 -19 -65 -38t-85 -37t-95.5 -34t-96 -28.5t-87 -20.5t-69.5 -10l-180 58q-39 66 -57.5 141.5t-18.5 153.5zM346 512q61 26 106 54.5t74 54.5q34 29 58 59q-12 7 -29 14t-37 12t-40 8t-38 3h-12q-6 0 -12 -2q-31 -29 -49 -83.5t-21 -119.5zM210 1198q3 38 5 68t3 52 q1 26 1 46l209 57l65 -104q-4 -38 -6 -69t-3 -54q-1 -26 -1 -47l-207 -55zM591 1198q3 38 5 68t3 52q1 26 1 46l209 57l65 -104q-4 -38 -6 -69t-3 -54q-1 -26 -1 -47l-207 -55z" />
<glyph unicode="&#xec;" horiz-adv-x="680" d="M12 803l424 123l74 -119q-7 -59 -12.5 -110.5t-9.5 -100.5t-6.5 -97t-2.5 -100q0 -46 1.5 -79t4.5 -62q35 6 75 15t69 18l51 -158q-29 -21 -67.5 -41.5t-81.5 -38.5t-86.5 -33t-82 -26t-68.5 -17t-46 -6l-100 99q6 50 10.5 101.5t7.5 101t4.5 94.5t1.5 82v55 q0 27 -0.5 53t-1.5 48.5t-2 37.5q-20 -2 -40.5 -3t-39.5 -2.5t-34 -2t-23 -0.5zM50 1403q17 12 42.5 34t52 46t50 46.5t36.5 35.5l270 -373l-111 -100z" />
<glyph unicode="&#xed;" horiz-adv-x="680" d="M12 803l424 123l74 -119q-7 -59 -12.5 -110.5t-9.5 -100.5t-6.5 -97t-2.5 -100q0 -46 1.5 -79t4.5 -62q35 6 75 15t69 18l51 -158q-29 -21 -67.5 -41.5t-81.5 -38.5t-86.5 -33t-82 -26t-68.5 -17t-46 -6l-100 99q6 50 10.5 101.5t7.5 101t4.5 94.5t1.5 82v55 q0 27 -0.5 53t-1.5 48.5t-2 37.5q-20 -2 -40.5 -3t-39.5 -2.5t-34 -2t-23 -0.5zM275 1186l252 379q14 -14 38.5 -36t52 -45t53.5 -42t42 -27l-330 -323z" />
<glyph unicode="&#xee;" horiz-adv-x="680" d="M12 803l424 123l74 -119q-7 -59 -12.5 -110.5t-9.5 -100.5t-6.5 -97t-2.5 -100q0 -46 1.5 -79t4.5 -62q35 6 75 15t69 18l51 -158q-29 -21 -67.5 -41.5t-81.5 -38.5t-86.5 -33t-82 -26t-68.5 -17t-46 -6l-100 99q6 50 10.5 101.5t7.5 101t4.5 94.5t1.5 82v55 q0 27 -0.5 53t-1.5 48.5t-2 37.5q-20 -2 -40.5 -3t-39.5 -2.5t-34 -2t-23 -0.5zM65 1194l268 319h123l246 -319l-105 -102l-206 202l-226 -202z" />
<glyph unicode="&#xef;" horiz-adv-x="680" d="M12 803l424 123l74 -119q-7 -59 -12.5 -110.5t-9.5 -100.5t-6.5 -97t-2.5 -100q0 -46 1.5 -79t4.5 -62q35 6 75 15t69 18l51 -158q-29 -21 -67.5 -41.5t-81.5 -38.5t-86.5 -33t-82 -26t-68.5 -17t-46 -6l-100 99q6 50 10.5 101.5t7.5 101t4.5 94.5t1.5 82v55 q0 27 -0.5 53t-1.5 48.5t-2 37.5q-20 -2 -40.5 -3t-39.5 -2.5t-34 -2t-23 -0.5zM52 1198q3 38 5 68t3 52q1 26 1 46l209 57l65 -104q-4 -38 -6 -69t-3 -54q-1 -26 -1 -47l-207 -55zM433 1198q3 38 5 68t3 52q1 26 1 46l209 57l65 -104q-4 -38 -6 -69t-3 -54q-1 -26 -1 -47 l-207 -55z" />
<glyph unicode="&#xf0;" horiz-adv-x="993" d="M51 383q0 59 15.5 122t46 123.5t75.5 114.5t103 94.5t129.5 64.5t154.5 24h6q-14 48 -34.5 97t-51.5 98q-79 -37 -150.5 -74t-127.5 -72l8 211q35 17 74.5 35t83.5 36q-38 36 -84 70t-102 64l77 186q108 -29 203.5 -85.5t175.5 -134.5q56 19 108 34.5t99 27.5l49 -127 q-33 -12 -71 -26.5t-80 -31.5q82 -115 128 -255.5t46 -300.5q0 -146 -34 -274.5t-101 -224.5t-166.5 -152t-229.5 -56q-87 0 -153 32t-109.5 88t-65.5 131t-22 161zM367 451q0 -72 17.5 -140t55.5 -133h86q28 36 46 87.5t27.5 113.5t13 131.5t3.5 142.5v17q0 10 -1 20 q-29 14 -67.5 21.5t-68.5 7.5h-18q-9 0 -19 -2q-14 -17 -27 -43t-24 -60t-17.5 -75.5t-6.5 -87.5z" />
<glyph unicode="&#xf1;" horiz-adv-x="1174" d="M23 803l358 123l74 -119l-52 -193l17 -6q37 57 86.5 108t105 92t114 71.5t114.5 46.5l137 -60q15 -74 19.5 -138t4.5 -120q0 -29 -2 -71t-5 -89.5t-6.5 -97t-6.5 -92.5q9 1 28.5 4.5t42 8t44 9.5t34.5 11l56 -158q-29 -20 -69 -40t-84.5 -38t-90 -33t-86 -26.5t-72.5 -18 t-49 -6.5l-98 99q8 57 16 119.5t14.5 122t10.5 111t4 87.5v84q-21 -7 -52 -25t-60.5 -44t-51 -58t-22.5 -68l-11 -399h-344q22 163 32.5 289t10.5 233v121q-21 -2 -42.5 -3t-41 -2.5t-35.5 -2t-24 -0.5zM227 1196l205 227h90q31 -17 58 -30.5t53.5 -25t54 -22t59.5 -20.5 l135 117l99 -101l-217 -235h-86q-65 25 -118 53t-101 55l-144 -122z" />
<glyph unicode="&#xf2;" horiz-adv-x="975" d="M51 385q0 59 16 122t46.5 123t75.5 114t103 94.5t128.5 64t152.5 23.5q100 0 165.5 -36t104.5 -94.5t54.5 -132.5t15.5 -151q0 -56 -15 -117.5t-44 -121.5t-72 -115t-99 -96.5t-124.5 -66t-148.5 -24.5q-98 0 -166 34.5t-111 92.5t-62.5 132.5t-19.5 154.5zM365 457 q0 -82 18 -148t55 -131h86q15 18 28.5 45.5t24 61.5t17 73t6.5 80q0 82 -18.5 148t-55.5 131h-86q-15 -18 -28.5 -45.5t-24 -61.5t-16.5 -73t-6 -80zM245 1403q17 12 42.5 34t52 46t50 46.5t36.5 35.5l270 -373l-111 -100z" />
<glyph unicode="&#xf3;" horiz-adv-x="975" d="M51 385q0 59 16 122t46.5 123t75.5 114t103 94.5t128.5 64t152.5 23.5q100 0 165.5 -36t104.5 -94.5t54.5 -132.5t15.5 -151q0 -56 -15 -117.5t-44 -121.5t-72 -115t-99 -96.5t-124.5 -66t-148.5 -24.5q-98 0 -166 34.5t-111 92.5t-62.5 132.5t-19.5 154.5zM365 457 q0 -82 18 -148t55 -131h86q15 18 28.5 45.5t24 61.5t17 73t6.5 80q0 82 -18.5 148t-55.5 131h-86q-15 -18 -28.5 -45.5t-24 -61.5t-16.5 -73t-6 -80zM428 1186l252 379q14 -14 38.5 -36t52 -45t53.5 -42t42 -27l-330 -323z" />
<glyph unicode="&#xf4;" horiz-adv-x="975" d="M51 385q0 59 16 122t46.5 123t75.5 114t103 94.5t128.5 64t152.5 23.5q100 0 165.5 -36t104.5 -94.5t54.5 -132.5t15.5 -151q0 -56 -15 -117.5t-44 -121.5t-72 -115t-99 -96.5t-124.5 -66t-148.5 -24.5q-98 0 -166 34.5t-111 92.5t-62.5 132.5t-19.5 154.5zM365 457 q0 -82 18 -148t55 -131h86q15 18 28.5 45.5t24 61.5t17 73t6.5 80q0 82 -18.5 148t-55.5 131h-86q-15 -18 -28.5 -45.5t-24 -61.5t-16.5 -73t-6 -80zM195 1194l268 319h123l246 -319l-105 -102l-206 202l-226 -202z" />
<glyph unicode="&#xf5;" horiz-adv-x="975" d="M51 385q0 59 16 122t46.5 123t75.5 114t103 94.5t128.5 64t152.5 23.5q100 0 165.5 -36t104.5 -94.5t54.5 -132.5t15.5 -151q0 -56 -15 -117.5t-44 -121.5t-72 -115t-99 -96.5t-124.5 -66t-148.5 -24.5q-98 0 -166 34.5t-111 92.5t-62.5 132.5t-19.5 154.5zM365 457 q0 -82 18 -148t55 -131h86q15 18 28.5 45.5t24 61.5t17 73t6.5 80q0 82 -18.5 148t-55.5 131h-86q-15 -18 -28.5 -45.5t-24 -61.5t-16.5 -73t-6 -80zM135 1196l205 227h90q31 -17 58 -30.5t53.5 -25t54 -22t59.5 -20.5l135 117l99 -101l-217 -235h-86q-65 25 -118 53 t-101 55l-144 -122z" />
<glyph unicode="&#xf6;" horiz-adv-x="975" d="M51 385q0 59 16 122t46.5 123t75.5 114t103 94.5t128.5 64t152.5 23.5q100 0 165.5 -36t104.5 -94.5t54.5 -132.5t15.5 -151q0 -56 -15 -117.5t-44 -121.5t-72 -115t-99 -96.5t-124.5 -66t-148.5 -24.5q-98 0 -166 34.5t-111 92.5t-62.5 132.5t-19.5 154.5zM365 457 q0 -82 18 -148t55 -131h86q15 18 28.5 45.5t24 61.5t17 73t6.5 80q0 82 -18.5 148t-55.5 131h-86q-15 -18 -28.5 -45.5t-24 -61.5t-16.5 -73t-6 -80zM204 1198q3 38 5 68t3 52q1 26 1 46l209 57l65 -104q-4 -38 -6 -69t-3 -54q-1 -26 -1 -47l-207 -55zM585 1198q3 38 5 68 t3 52q1 26 1 46l209 57l65 -104q-4 -38 -6 -69t-3 -54q-1 -26 -1 -47l-207 -55z" />
<glyph unicode="&#xf7;" horiz-adv-x="1067" d="M43 549v188h942v-188h-942zM357 181q3 39 5 76.5t4 67.5q2 34 2 66l212 59l71 -69q-4 -39 -6 -76.5t-4 -67.5q-2 -35 -2 -66l-211 -59zM379 906q3 39 5 76.5t4 67.5q2 34 2 66l212 59l71 -69q-4 -39 -6 -76.5t-4 -67.5q-2 -35 -2 -66l-211 -59z" />
<glyph unicode="&#xf8;" horiz-adv-x="1008" d="M-37 -23l166 173q-26 52 -37.5 112t-11.5 123q0 59 16 122t46.5 123t75.5 114t103 94.5t128.5 64t152.5 23.5q68 0 119.5 -17.5t89.5 -47.5l121 126l88 -88l-130 -135q29 -55 40.5 -120t11.5 -132q0 -56 -15 -117.5t-44 -121.5t-72 -115t-99 -96.5t-125 -66t-149 -24.5 q-76 0 -133.5 21t-99.5 58l-154 -161zM395 427l200 209q-8 20 -17.5 40.5t-20.5 40.5h-86q-15 -18 -28.5 -45.5t-24 -61.5t-17 -73t-6.5 -80v-30zM423 277q19 -53 46 -99h86q15 18 28.5 45.5t24 61.5t17 73t6.5 80q0 14 -0.5 27t-1.5 26z" />
<glyph unicode="&#xf9;" horiz-adv-x="1176" d="M12 803l432 123l74 -119q-9 -58 -17 -115t-14.5 -110t-10 -100t-3.5 -83v-45q0 -17 2 -39q21 7 52.5 25t61 44t51 58.5t22.5 67.5l8 387h344q-9 -81 -17.5 -171t-14.5 -176t-10 -162t-3 -130l30 5q18 3 38.5 7t41 9.5t37.5 11.5l55 -158q-43 -30 -93 -56t-102.5 -46.5 t-103.5 -35.5t-96 -24l-74 119l50 193l-15 6q-32 -45 -74 -90.5t-94 -87.5t-114.5 -78.5t-137.5 -61.5l-137 60q-17 74 -21.5 138t-4.5 120q0 28 2 71t5 91.5t7 98.5t8 93q-21 -2 -43.5 -3t-42.5 -2.5t-36 -2t-25 -0.5zM315 1403q17 12 42.5 34t52 46t50 46.5t36.5 35.5 l270 -373l-111 -100z" />
<glyph unicode="&#xfa;" horiz-adv-x="1176" d="M12 803l432 123l74 -119q-9 -58 -17 -115t-14.5 -110t-10 -100t-3.5 -83v-45q0 -17 2 -39q21 7 52.5 25t61 44t51 58.5t22.5 67.5l8 387h344q-9 -81 -17.5 -171t-14.5 -176t-10 -162t-3 -130l30 5q18 3 38.5 7t41 9.5t37.5 11.5l55 -158q-43 -30 -93 -56t-102.5 -46.5 t-103.5 -35.5t-96 -24l-74 119l50 193l-15 6q-32 -45 -74 -90.5t-94 -87.5t-114.5 -78.5t-137.5 -61.5l-137 60q-17 74 -21.5 138t-4.5 120q0 28 2 71t5 91.5t7 98.5t8 93q-21 -2 -43.5 -3t-42.5 -2.5t-36 -2t-25 -0.5zM485 1186l252 379q14 -14 38.5 -36t52 -45t53.5 -42 t42 -27l-330 -323z" />
<glyph unicode="&#xfb;" horiz-adv-x="1176" d="M12 803l432 123l74 -119q-9 -58 -17 -115t-14.5 -110t-10 -100t-3.5 -83v-45q0 -17 2 -39q21 7 52.5 25t61 44t51 58.5t22.5 67.5l8 387h344q-9 -81 -17.5 -171t-14.5 -176t-10 -162t-3 -130l30 5q18 3 38.5 7t41 9.5t37.5 11.5l55 -158q-43 -30 -93 -56t-102.5 -46.5 t-103.5 -35.5t-96 -24l-74 119l50 193l-15 6q-32 -45 -74 -90.5t-94 -87.5t-114.5 -78.5t-137.5 -61.5l-137 60q-17 74 -21.5 138t-4.5 120q0 28 2 71t5 91.5t7 98.5t8 93q-21 -2 -43.5 -3t-42.5 -2.5t-36 -2t-25 -0.5zM272 1194l268 319h123l246 -319l-105 -102l-206 202 l-226 -202z" />
<glyph unicode="&#xfc;" horiz-adv-x="1176" d="M12 803l432 123l74 -119q-9 -58 -17 -115t-14.5 -110t-10 -100t-3.5 -83v-45q0 -17 2 -39q21 7 52.5 25t61 44t51 58.5t22.5 67.5l8 387h344q-9 -81 -17.5 -171t-14.5 -176t-10 -162t-3 -130l30 5q18 3 38.5 7t41 9.5t37.5 11.5l55 -158q-43 -30 -93 -56t-102.5 -46.5 t-103.5 -35.5t-96 -24l-74 119l50 193l-15 6q-32 -45 -74 -90.5t-94 -87.5t-114.5 -78.5t-137.5 -61.5l-137 60q-17 74 -21.5 138t-4.5 120q0 28 2 71t5 91.5t7 98.5t8 93q-21 -2 -43.5 -3t-42.5 -2.5t-36 -2t-25 -0.5zM282 1198q3 38 5 68t3 52q1 26 1 46l209 57l65 -104 q-4 -38 -6 -69t-3 -54q-1 -26 -1 -47l-207 -55zM663 1198q3 38 5 68t3 52q1 26 1 46l209 57l65 -104q-4 -38 -6 -69t-3 -54q-1 -26 -1 -47l-207 -55z" />
<glyph unicode="&#xfd;" horiz-adv-x="1004" d="M-49 -289q125 45 232 124t188 181q-39 80 -70.5 150t-59.5 142t-52.5 153t-49.5 182q-24 -2 -45 -4q-19 -2 -38 -3t-33 -1l-17 168l350 123l93 -97q4 -52 15.5 -116.5t26 -129t31.5 -124.5t33 -103q56 93 76 174t20 147q0 45 -6.5 80.5t-14.5 61.5q-9 30 -20 53l338 54 q20 -50 20 -108q0 -56 -18.5 -118.5t-52.5 -135t-82.5 -157t-109.5 -184.5l-136 -223q-48 -78 -101.5 -158t-111 -153t-117.5 -135.5t-120 -106.5zM391 1186l252 379q14 -14 38.5 -36t52 -45t53.5 -42t42 -27l-330 -323z" />
<glyph unicode="&#xfe;" horiz-adv-x="1006" d="M-27 1454l420 123l74 -119l-86 -784l14 -8q36 45 73 86t74.5 75t76 59.5t79.5 39.5l181 -58q17 -34 29.5 -71t21 -74.5t12.5 -73.5t4 -67q0 -81 -20.5 -158t-56.5 -144.5t-86.5 -124.5t-111 -97.5t-128.5 -63.5t-140 -23h-28q-1 -20 -2 -56.5t-2.5 -74t-2.5 -69t-1 -41.5 q21 1 46 2.5t49 3t44 2t29 0.5l16 -168l-440 -123l-74 119q13 122 25.5 254.5t24 269t21.5 274t17.5 270t11.5 257t4 235.5q0 15 -0.5 40t-1 50.5t-1 46.5t-1.5 29q-21 -2 -43 -3t-42 -2.5t-36.5 -2t-25.5 -0.5zM385 180q19 -5 40.5 -7.5t41.5 -2.5q42 0 75.5 25t56 66 t34.5 93t12 107q0 40 -5.5 78.5t-16.5 64.5q-26 -2 -64 -24t-74 -62t-63 -95.5t-31 -125.5z" />
<glyph unicode="&#xff;" horiz-adv-x="1004" d="M-49 -289q125 45 232 124t188 181q-39 80 -70.5 150t-59.5 142t-52.5 153t-49.5 182q-24 -2 -45 -4q-19 -2 -38 -3t-33 -1l-17 168l350 123l93 -97q4 -52 15.5 -116.5t26 -129t31.5 -124.5t33 -103q56 93 76 174t20 147q0 45 -6.5 80.5t-14.5 61.5q-9 30 -20 53l338 54 q20 -50 20 -108q0 -56 -18.5 -118.5t-52.5 -135t-82.5 -157t-109.5 -184.5l-136 -223q-48 -78 -101.5 -158t-111 -153t-117.5 -135.5t-120 -106.5zM215 1198q3 38 5 68t3 52q1 26 1 46l209 57l65 -104q-4 -38 -6 -69t-3 -54q-1 -26 -1 -47l-207 -55zM596 1198q3 38 5 68 t3 52q1 26 1 46l209 57l65 -104q-4 -38 -6 -69t-3 -54q-1 -26 -1 -47l-207 -55z" />
<glyph unicode="&#x131;" horiz-adv-x="680" d="M12 803l424 123l74 -119q-7 -59 -12.5 -110.5t-9.5 -100.5t-6.5 -97t-2.5 -100q0 -46 1.5 -79t4.5 -62q35 6 75 15t69 18l51 -158q-29 -21 -67.5 -41.5t-81.5 -38.5t-86.5 -33t-82 -26t-68.5 -17t-46 -6l-100 99q6 50 10.5 101.5t7.5 101t4.5 94.5t1.5 82v55 q0 27 -0.5 53t-1.5 48.5t-2 37.5q-20 -2 -40.5 -3t-39.5 -2.5t-34 -2t-23 -0.5z" />
<glyph unicode="&#x152;" horiz-adv-x="2195" d="M76 688q0 103 24 198.5t69 178.5t110 150.5t147.5 115.5t181.5 74.5t211 26.5q72 0 130.5 -11.5t115.5 -34.5q68 -4 167 -5t236 -1q134 0 302 3t344 14l-31 -471h-232l-26 213l-393 39l-17 -373l400 16l-11 -248l-397 27l-6 -377l403 29l66 227h239l-59 -499 q-165 14 -343.5 22t-369.5 8q-118 0 -201.5 -3.5t-140.5 -6.5q-51 -19 -107.5 -30t-113.5 -11q-176 0 -307 58t-218 157.5t-130 232t-43 281.5zM440 731q0 -114 23 -214t66.5 -174.5t107.5 -117.5t145 -43q85 0 146 41.5t100 108t57.5 151t18.5 170.5q0 113 -22.5 214 t-66 177.5t-107.5 121t-146 44.5q-84 0 -145 -43.5t-100.5 -112.5t-58 -154t-18.5 -169z" />
<glyph unicode="&#x153;" horiz-adv-x="1380" d="M51 385q0 59 16 122t46.5 123t75.5 114t103 94.5t128.5 64t152.5 23.5q75 0 129.5 -20t93.5 -55q51 34 109.5 53.5t124.5 19.5q20 0 53 -2t72 -10t79 -24.5t75 -45.5l-11 -322q-57 -37 -128 -73q-61 -31 -144.5 -66.5t-183.5 -65.5q1 -8 3 -19.5t4.5 -23.5t5.5 -23t5 -20 q38 3 87 11t100.5 18t101 21.5t88.5 23.5l57 -166q-26 -19 -65 -38.5t-84.5 -37.5t-95 -33.5t-96 -28t-87.5 -20.5t-69 -10l-174 55q-47 -24 -100 -38.5t-113 -14.5q-98 0 -166 34.5t-111 92.5t-62.5 132.5t-19.5 154.5zM367 457q0 -82 18 -148t55 -131h117q-8 35 -12 71.5 t-4 73.5q0 129 46 250q-9 38 -24 73.5t-35 70.5h-86q-15 -18 -28.5 -45.5t-24 -61.5t-16.5 -73t-6 -80zM836 510q60 26 105 54.5t74 54.5q34 29 58 59q-12 7 -29 14t-36.5 12t-39.5 8t-38 3h-12q-7 0 -13 -2q-31 -29 -48.5 -83.5t-20.5 -119.5z" />
<glyph unicode="&#x178;" horiz-adv-x="1444" d="M12 1219l11 178q66 -6 155 -11.5t182 -5.5q101 0 186 5.5t161 11.5l-11 -195q-52 -6 -90 -8l-76 -4l242 -424h39l199 340l-133 113l8 178q66 -8 136 -12.5t155 -4.5q83 0 162.5 4.5t144.5 12.5l-8 -193q-16 -3 -28.5 -5t-24.5 -3.5t-24.5 -2t-29.5 -1.5l-479 -688 q-1 -30 -1.5 -62t-1 -61.5t-1 -54.5t-0.5 -41l170 -115l-6 -176q-48 4 -103 8q-47 3 -107 5.5t-124 2.5q-71 0 -153 -2t-191 -14l6 194q26 3 54 6q24 2 53.5 4.5t58.5 2.5q1 21 3 52.5t4 67.5t4 75.5t4 77.5l-386 632zM450 1604q3 38 4.5 68t2.5 52q1 26 1 45l209 58 l66 -105q-4 -38 -6 -69t-3 -54q-1 -26 -1 -47l-207 -55zM872 1604q3 38 4.5 68t2.5 52q1 26 1 45l209 58l66 -105q-5 -38 -7 -69t-3 -54q-1 -26 -1 -47l-206 -55z" />
<glyph unicode="&#x2c6;" horiz-adv-x="801" d="M82 1194l268 319h123l246 -319l-105 -102l-206 202l-226 -202z" />
<glyph unicode="&#x2da;" horiz-adv-x="616" d="M57 1311q0 50 20 96t56.5 81t88.5 56t116 21q60 0 103.5 -17t72 -46t42 -67t13.5 -79q0 -56 -22 -104.5t-60 -84t-88.5 -55.5t-107.5 -20q-65 0 -109.5 19t-72 49.5t-40 70t-12.5 80.5zM213 1327q0 -19 6 -38.5t18.5 -35.5t31.5 -26t46 -10q47 0 73 28t26 82 q0 18 -5.5 38t-18 36.5t-31.5 27.5t-46 11q-49 0 -74.5 -33t-25.5 -80z" />
<glyph unicode="&#x2dc;" horiz-adv-x="897" d="M47 1196l205 227h90q31 -17 58 -30.5t53.5 -25t54 -22t59.5 -20.5l135 117l99 -101l-217 -235h-86q-65 25 -118 53t-101 55l-144 -122z" />
<glyph unicode="&#x2000;" horiz-adv-x="985" />
<glyph unicode="&#x2001;" horiz-adv-x="1970" />
<glyph unicode="&#x2002;" horiz-adv-x="985" />
<glyph unicode="&#x2003;" horiz-adv-x="1970" />
<glyph unicode="&#x2004;" horiz-adv-x="656" />
<glyph unicode="&#x2005;" horiz-adv-x="492" />
<glyph unicode="&#x2006;" horiz-adv-x="328" />
<glyph unicode="&#x2007;" horiz-adv-x="328" />
<glyph unicode="&#x2008;" horiz-adv-x="246" />
<glyph unicode="&#x2009;" horiz-adv-x="394" />
<glyph unicode="&#x200a;" horiz-adv-x="109" />
<glyph unicode="&#x2010;" horiz-adv-x="819" d="M119 389l10 229h565l-10 -229h-565z" />
<glyph unicode="&#x2011;" horiz-adv-x="819" d="M119 389l10 229h565l-10 -229h-565z" />
<glyph unicode="&#x2012;" horiz-adv-x="819" d="M119 389l10 229h565l-10 -229h-565z" />
<glyph unicode="&#x2013;" horiz-adv-x="1188" d="M130 410l8 188h911l-7 -188h-912z" />
<glyph unicode="&#x2014;" horiz-adv-x="1530" d="M130 410l8 188h1255l-7 -188h-1256z" />
<glyph unicode="&#x2018;" horiz-adv-x="530" d="M96 1007q2 73 26 147.5t64.5 147.5t94.5 142.5t116 132.5l145 -123q-32 -46 -55 -88t-38 -86t-22 -92.5t-7 -106.5q0 -20 1 -41.5t3 -44.5l-246 -67z" />
<glyph unicode="&#x2019;" horiz-adv-x="512" d="M72 1051q32 46 55 88t38 86t22 92t7 107q0 20 -1 41.5t-3 44.5l246 67l82 -79q-2 -73 -26 -147.5t-64.5 -147.5t-94.5 -142.5t-116 -132.5z" />
<glyph unicode="&#x201a;" horiz-adv-x="532" d="M-18 -166q32 46 55 88t38 86t22 92t7 107q0 20 -1 41.5t-3 44.5l246 67l82 -79q-2 -73 -26 -147.5t-64.5 -147.5t-94.5 -142.5t-116 -132.5z" />
<glyph unicode="&#x201c;" horiz-adv-x="938" d="M96 1007q2 73 26 147.5t64.5 147.5t94.5 142.5t116 132.5l145 -123q-32 -46 -55 -88t-38 -86t-22 -92.5t-7 -106.5q0 -20 1 -41.5t3 -44.5l-246 -67zM504 1007q2 73 26 147.5t64.5 147.5t94.5 142.5t116 132.5l145 -123q-32 -46 -55 -88t-38 -86t-22 -92.5t-7 -106.5 q0 -20 1 -41.5t3 -44.5l-246 -67z" />
<glyph unicode="&#x201d;" horiz-adv-x="922" d="M72 1051q32 46 55 88t38 86t22 92t7 107q0 20 -1 41.5t-3 44.5l246 67l82 -79q-2 -73 -26 -147.5t-64.5 -147.5t-94.5 -142.5t-116 -132.5zM480 1051q32 46 55 88t38 86t22 92t7 107q0 20 -1 41.5t-3 44.5l246 67l82 -79q-2 -73 -26 -147.5t-64.5 -147.5t-94.5 -142.5 t-116 -132.5z" />
<glyph unicode="&#x201e;" horiz-adv-x="944" d="M-18 -166q32 46 55 88t38 86t22 92t7 107q0 20 -1 41.5t-3 44.5l246 67l82 -79q-2 -73 -26 -147.5t-64.5 -147.5t-94.5 -142.5t-116 -132.5zM394 -166q32 46 55 88t38 86t22 92t7 107q0 20 -1 41.5t-3 44.5l246 67l82 -79q-2 -73 -26 -147.5t-64.5 -147.5t-94.5 -142.5 t-116 -132.5z" />
<glyph unicode="&#x2022;" horiz-adv-x="633" d="M92 694q0 42 16 79t43.5 64.5t65 43.5t80.5 16q42 0 78.5 -16t63.5 -43.5t43 -64.5t16 -79t-16 -79t-43 -64t-63.5 -43t-78.5 -16q-43 0 -80.5 16t-65 43t-43.5 64t-16 79z" />
<glyph unicode="&#x2026;" horiz-adv-x="1611" d="M1160 51q4 45 6 88t4 78q2 40 2 76l246 67l82 -79q-5 -45 -7.5 -88t-4.5 -78q-2 -40 -2 -76l-244 -68zM623 51q4 45 6 88t4 78q2 40 2 76l246 67l82 -79q-5 -45 -7.5 -88t-4.5 -78q-2 -40 -2 -76l-244 -68zM86 51q4 45 6 88t4 78q2 40 2 76l246 67l82 -79 q-5 -45 -7.5 -88t-4.5 -78q-2 -40 -2 -76l-244 -68z" />
<glyph unicode="&#x202f;" horiz-adv-x="394" />
<glyph unicode="&#x2039;" horiz-adv-x="733" d="M41 524l539 465l88 -86l-303 -379l274 -379l-88 -86z" />
<glyph unicode="&#x203a;" horiz-adv-x="731" d="M61 145l304 379l-275 379l88 86l510 -465l-538 -465z" />
<glyph unicode="&#x2044;" horiz-adv-x="1036" d="M-61 63l1003 1385l119 -90l-1004 -1393z" />
<glyph unicode="&#x205f;" horiz-adv-x="492" />
<glyph unicode="&#x2074;" horiz-adv-x="768" d="M84 1022l2 119l385 436l119 -39q-3 -26 -5 -69.5t-4 -96t-3.5 -110t-2.5 -110.5q29 2 52.5 3t40.5 3q20 2 37 3l-37 -139h-95v-47l91 -62l-5 -106q-35 2 -68 5q-29 2 -62 3.5t-60 1.5q-26 0 -75.5 -1t-112.5 -9l4 117q14 1 29 3q13 1 28 2t31 1q2 20 3 43t2 49h-294z M231 1141q35 0 74 0.5t78 2.5q1 46 1.5 89.5t0.5 75.5z" />
<glyph unicode="&#x20ac;" horiz-adv-x="1483" d="M42 408l8 204h200q-1 11 -1 22v24v24q0 11 1 24q-53 -3 -102.5 -6.5t-94.5 -7.5l8 205h213q31 133 98.5 233t160.5 167t206 101t236 34q67 0 123 -5t103.5 -13t89 -18.5t79.5 -21.5l-16 -448h-219l-23 213q-23 29 -65.5 50t-104.5 21q-45 0 -91.5 -20t-88 -59t-75 -97.5 t-52.5 -136.5h389l-8 -172q-54 0 -118 -1q-55 -1 -127.5 -2t-156.5 -3v-4q0 -55 6 -103h392l-6 -172q-43 -1 -96 -1q-45 -1 -105.5 -1t-131.5 -2q32 -62 77 -106t97 -72t108.5 -40.5t111.5 -12.5q77 0 144 13t112 30l47 -203q-41 -17 -90 -32.5t-104 -27.5t-114 -19t-118 -7 q-120 0 -226.5 29.5t-192.5 88t-148.5 145.5t-95.5 201q-64 -3 -124.5 -6.5t-114.5 -8.5z" />
<glyph unicode="&#x2122;" horiz-adv-x="3350" d="M1392 -6l8 194q17 3 38.5 5t44.5 4t44.5 3t38.5 1l148 1190l278 41l361 -861h41l321 820l328 41l104 -1147l162 -115l-6 -176q-66 6 -141 11t-168 5q-97 0 -187 -4t-166 -12l9 194q52 7 90 9l76 4l-52 649h-41l-313 -795h-201l-325 795h-41l-15 -565l170 -115l-8 -176 q-68 6 -145.5 11t-159.5 5q-81 0 -155.5 -5t-137.5 -11zM55 926l15 471q94 -5 193 -9q42 -2 89.5 -3t97 -2.5t100.5 -2t99 -0.5h213t180 2.5t166.5 7t171.5 13.5l-30 -477h-254l-27 182l-188 16q-11 -143 -16.5 -353t-10.5 -486l170 -115l-6 -176q-45 4 -98 8 q-46 3 -106.5 5.5t-131.5 2.5q-69 0 -153.5 -2t-192.5 -14l6 194q27 3 55 6l54 4q30 2 59 3q3 58 7 127t7 142.5t6 148t5 143t3 128t1 103.5v168l-197 17l-33 -252h-254z" />
<glyph unicode="&#xe000;" horiz-adv-x="925" d="M0 925h925v-925h-925v925z" />
<glyph unicode="&#xfb01;" horiz-adv-x="1260" d="M-188 -526l10 309q32 -21 71.5 -40.5t81.5 -34.5t84 -24.5t80 -9.5q12 32 20 79.5t13 103.5t8.5 116.5t5.5 118.5l25 632q-109 8 -176 17l4 156h179l3 68q6 139 44.5 252.5t108 193t168.5 123t226 43.5q21 0 43 -0.5t49.5 -3t62 -8t81.5 -15.5l-15 -311q-41 19 -96 38.5 t-113 35t-113.5 25.5t-97.5 10q-10 -32 -17.5 -80.5t-12.5 -105.5t-9 -117.5t-6 -116.5l-1 -28q72 2 152 5t150.5 6.5t123 7t69.5 7.5l74 -119q-8 -59 -14 -110.5t-9.5 -100.5t-5.5 -97t-2 -100q0 -46 1 -79t3 -62q34 6 74 15t69 18l54 -158q-29 -21 -67.5 -41.5 t-81.5 -38.5t-87 -33t-82.5 -26t-69.5 -17t-47 -6l-102 99q7 50 12 101.5t9 101t6 94.5t2 82q0 23 -0.5 56t-1.5 68t-2.5 67t-2.5 54q-54 2 -112 4.5t-119 6.5l-22 -646q-5 -129 -43.5 -241t-105.5 -194.5t-159.5 -129.5t-205.5 -47q-9 0 -22 0.5t-32.5 3t-47.5 8t-66 15.5z " />
<glyph unicode="&#xfb02;" horiz-adv-x="1423" d="M-188 -526l10 309q32 -21 71.5 -40.5t81.5 -34.5t84 -24.5t80 -9.5q12 32 20 79.5t13 103.5t8.5 116.5t5.5 118.5l25 630q-49 5 -93.5 9.5t-82.5 9.5l4 156h179l3 68q6 147 48 261t109.5 192t155 118.5t185.5 40.5q24 0 51 -2t59 -8.5t71 -19t89 -34.5l221 64l74 -119 q-29 -246 -42 -490.5t-13 -495.5q0 -54 0.5 -107t1.5 -107q35 6 73 14t66 19l55 -158q-32 -22 -72 -43t-83.5 -39t-86.5 -33t-81 -25.5t-68.5 -16t-46.5 -5.5l-100 99q13 79 22.5 172t16.5 191t11.5 195.5t7.5 186.5t4 164t1 127q0 26 -1 63.5t-2 69.5q-37 19 -86.5 38.5 t-102 35t-102.5 25.5t-87 10q-12 -32 -19.5 -80.5t-12.5 -105.5t-8 -117.5t-5 -116.5l-1 -26q45 2 88.5 5t81.5 6t67.5 6.5t44.5 6.5l-39 -238q-52 0 -116 2t-134 7l-22 -638q-5 -129 -43.5 -241t-105.5 -194.5t-159.5 -129.5t-205.5 -47q-9 0 -22 0.5t-32.5 3t-47.5 8 t-66 15.5z" />
<glyph unicode="&#xfb03;" horiz-adv-x="1946" d="M-188 -526l10 309q32 -21 71.5 -40.5t81.5 -34.5t84 -24.5t80 -9.5q12 32 20 79.5t13 103.5t8.5 116.5t5.5 118.5l26 636q-62 3 -107 6.5t-70 6.5l4 156h181q9 159 59 272t129 185.5t181.5 106.5t215.5 34q27 0 56 -1.5t63.5 -7t75.5 -15.5t92 -27q68 64 158.5 98.5 t203.5 34.5q21 0 43 -0.5t49.5 -3t62 -8t81.5 -15.5l-15 -311q-41 19 -96 38.5t-113 35t-113.5 25.5t-97.5 10q-11 -29 -18 -73.5t-12.5 -101t-9 -123.5t-6.5 -142q91 2 176 4t152 4.5t111.5 5t55.5 4.5l74 -119q-8 -59 -14 -110.5t-9.5 -100.5t-5.5 -97t-2 -100 q0 -46 1 -79t1 -62q35 6 75.5 15t69.5 18l54 -158q-29 -21 -67.5 -41.5t-81.5 -38.5t-87 -33t-82.5 -26t-69.5 -17t-47 -6l-100 99q6 50 11 101.5t8.5 101t5.5 94.5t2 82q0 23 -0.5 55t-1.5 66t-2 66t-2 55l-233 5l-21 -555q-6 -163 -56 -279t-130 -190t-183 -108.5 t-217 -34.5q-27 0 -56.5 1.5t-64 7t-76 16t-92.5 27.5q-64 -63 -146 -98.5t-179 -35.5q-9 0 -22 0.5t-32.5 3t-47.5 8t-66 15.5zM454 -172q41 -17 90 -33t99 -29t97.5 -20.5t84.5 -7.5q15 45 24 96.5t14.5 105.5t8 109t4.5 108l21 547q-98 2 -193.5 5.5t-186.5 6.5l-23 -657 q-2 -62 -12.5 -119.5t-27.5 -111.5zM524 897q19 0 56 0.5t87 1t110.5 1.5t126.5 2l3 63q2 63 11.5 120.5t25.5 110.5q-41 17 -91 33t-100 29t-97 20.5t-83 7.5q-12 -28 -20 -72.5t-14 -97t-9.5 -109.5t-5.5 -110z" />
<glyph unicode="&#xfb04;" horiz-adv-x="2109" d="M-188 -526l10 309q32 -21 71.5 -40.5t81.5 -34.5t84 -24.5t80 -9.5q12 32 20 79.5t13 103.5t8.5 116.5t5.5 118.5l26 635q-60 4 -105.5 7t-71.5 7l4 156h181q9 159 59 272t129 185.5t181.5 106.5t215.5 34q27 0 55.5 -1.5t62.5 -6.5t75 -15t91 -27q66 65 146 98.5 t170 33.5q24 0 51 -2t59 -8.5t71 -19t89 -34.5l221 64l74 -119q-29 -249 -42 -497t-13 -502q0 -51 0.5 -100.5t1.5 -100.5q34 6 72.5 14t66.5 19l55 -158q-32 -22 -72 -43t-83 -39t-86.5 -33t-81.5 -25.5t-68.5 -16t-46.5 -5.5l-100 99q12 79 21.5 172t16.5 191t12 195.5 t7.5 186.5t4 164t1.5 127q0 26 -1 63.5t-2 69.5q-37 19 -86.5 38.5t-102 35t-102.5 25.5t-87 10q-12 -32 -19.5 -80.5t-12.5 -107t-8 -123t-6 -126.5q54 2 101.5 4t85 3.5t62 3.5t33.5 4l-41 -238q-33 0 -98.5 1t-150.5 3l-21 -551q-6 -163 -56 -279t-130 -190t-183 -108.5 t-217 -34.5q-27 0 -56.5 1.5t-64 7t-76 16t-92.5 27.5q-64 -63 -146 -98.5t-179 -35.5q-9 0 -22 0.5t-32.5 3t-47.5 8t-66 15.5zM454 -172q41 -17 90 -33t99 -29t97.5 -20.5t84.5 -7.5q15 45 24 96.5t14.5 105.5t8 109t4.5 108l21 543q-95 3 -191 6t-189 7l-23 -654 q-2 -62 -12.5 -119.5t-27.5 -111.5zM524 897q22 0 60.5 0.5t88.5 1t109 1.5t122 3l3 62q2 64 12 121.5t26 109.5q-41 17 -91 33t-100.5 29t-97.5 20.5t-83 7.5q-12 -28 -20 -72.5t-14 -97t-9.5 -109.5t-5.5 -110z" />
<glyph horiz-adv-x="664" d="M393 1618l326 317q11 -16 30.5 -43t41 -54.5t42.5 -51.5t35 -35l-389 -248z" />
<glyph horiz-adv-x="682" d="M227 1733q12 15 31.5 42t39.5 56.5t38.5 56t28.5 41.5l350 -301l-86 -125z" />
<glyph horiz-adv-x="967" d="M344 1606l268 282h123l246 -282l-104 -103l-207 166l-226 -166z" />
<glyph horiz-adv-x="913" d="M350 1604q3 38 4.5 68t2.5 52q1 26 1 45l209 58l66 -105q-4 -38 -6 -69t-3 -54q-1 -26 -1 -47l-207 -55zM772 1604q3 38 4.5 68t2.5 52q1 26 1 45l209 58l66 -105q-5 -38 -7 -69t-3 -54q-1 -26 -1 -47l-206 -55z" />
<glyph horiz-adv-x="977" d="M213 1602l205 227h90q31 -17 58 -30.5t53.5 -25.5t54 -22t59.5 -20l135 116l99 -100l-217 -236h-86q-65 25 -118.5 53t-101.5 56l-143 -123z" />
<glyph horiz-adv-x="676" d="M82 1716q0 50 20 96t56.5 81t88.5 56t115 21q60 0 103.5 -17t72 -46t42.5 -66.5t14 -79.5q0 -56 -22 -104t-60.5 -83.5t-89 -56t-107.5 -20.5q-65 0 -109 19t-72 50t-40 70t-12 80zM238 1733q0 -20 6 -39.5t18 -35.5t31.5 -26t46.5 -10q46 0 72 28.5t26 82.5 q0 18 -5.5 38t-17.5 36.5t-31 27t-46 10.5q-50 0 -75 -33t-25 -79z" />
</font>
</defs>
</svg>
