<?xml version="1.0" standalone="no"?>
<!DOCTYPE svg PUBLIC "-//W3C//DTD SVG 1.1//EN" "http://www.w3.org/Graphics/SVG/1.1/DTD/svg11.dtd" >
<svg xmlns="http://www.w3.org/2000/svg">
<metadata>
This is a custom SVG webfont generated by Font Squirrel.
Copyright   : c 2002 Apostrophic Lab for Luc Devroye All rights reserved 
Designer    : Apostrophe
Foundry URL : wwwapostrophiclabcom
</metadata>
<defs>
<font id="webfonttdQjmitS" horiz-adv-x="546" >
<font-face units-per-em="1000" ascent="800" descent="-200" />
<missing-glyph horiz-adv-x="292" />
<glyph unicode=" "  horiz-adv-x="292" />
<glyph unicode="&#x09;" horiz-adv-x="292" />
<glyph unicode="&#xa0;" horiz-adv-x="292" />
<glyph unicode="!" horiz-adv-x="767" d="M91 598q3 -13 9 -25.5t15 -21.5t21.5 -12.5t29.5 1.5q8 3 17.5 8t17 12t12 16t2.5 18q-3 9 -10 15.5t-15 13t-15.5 15.5t-10.5 24q-5 21 -0.5 40.5t16.5 36.5t29.5 29.5t37.5 19.5q32 10 58.5 6.5t47 -18t34 -38t19.5 -51.5q9 -38 5 -79.5t-15 -84t-25.5 -85t-26 -83 t-16.5 -77.5t2 -69q6 -28 27.5 -42t52.5 -4q27 9 33 28.5t1 42.5q-5 29 -10.5 56l-11.5 55q-7 34 -1 68.5t17 68.5t25.5 68.5t25.5 69t15.5 69.5t-3.5 70q-9 38 -31 62t-52.5 35t-66.5 9.5t-72 -13.5q-41 -13 -79 -38t-66 -58.5t-41 -73.5t-2 -84zM377.5 -26.5 q0.5 -14.5 4.5 -27.5t12.5 -21.5t24.5 -8.5q15 0 25.5 9.5t17 23t10 29t4.5 26.5t1 26t-3.5 28.5t-11.5 22.5t-23 9q-16 0 -27 -9.5t-18 -23t-10.5 -29.5t-4.5 -28q-2 -12 -1.5 -26.5zM483 185.5q-1 -9.5 2 -17t13 -10.5q11 -5 18.5 2t13.5 16q19 27 33 56l28 58l99 194.5 t92 197.5l6 14q6 13 13.5 32t13.5 37t8 33t-4 21q-6 7 -13.5 10t-15.5 7q-19 6 -33.5 0t-26 -18.5t-20.5 -29t-15 -30.5q-58 -134 -104.5 -268l-96.5 -268q-3 -7 -6.5 -17t-4.5 -19.5z" />
<glyph unicode="#" horiz-adv-x="1031" d="M65 0h194l4 40h-75l61 588l15 -47q18 -57 40.5 -111.5l46.5 -108.5q28 -61 61.5 -127t78.5 -120.5t104.5 -89.5t139.5 -35h13q10 0 22 0.5t23.5 3.5t19 8.5t8.5 15.5q1 2 1 7q0 6 -4 6q-12 0 -24.5 -0.5t-25.5 -0.5q-16 0 -32 2t-31 8l70 677h70l5 40h-205l-5 -40h88 l-67 -645q-39 36 -72 84t-62 101t-54.5 107l-48.5 102l-73.5 146.5l-75.5 144.5h-131l-5 -40h74l-70 -676h-74zM816 172h189l8 68h-189zM846 459q-4 -39 13 -67.5t60 -28.5q28 0 49 13t36 33.5t23.5 45t11.5 48.5q2 19 -0.5 37t-11.5 31.5t-23.5 21.5t-36.5 8 q-27 0 -48.5 -13.5t-36.5 -34.5t-24 -46t-12 -48zM888 457.5q-1 17.5 1 31.5q1 13 4.5 28t11 27.5t18.5 21t28 8.5t27 -10.5t14.5 -25.5t5 -32t-0.5 -30q-1 -12 -4.5 -27t-10.5 -28.5t-17.5 -22.5t-26.5 -9q-18 0 -28.5 10.5t-15.5 25.5t-6 32.5z" />
<glyph unicode="0" horiz-adv-x="646" d="M109 434q-6 -56 2.5 -106.5t34 -89t67.5 -61t104 -22.5q75 0 135 27.5t104 74t71 108.5t35 132q7 57 -3 107t-37 88t-70.5 60t-104.5 22q-71 0 -130 -28.5t-102.5 -76t-70.5 -109t-35 -126.5zM212.5 381q-2.5 45 3.5 88q5 40 18 84.5t36.5 81.5t58.5 61.5t84 24.5 q53 0 84.5 -26t47 -65.5t18 -86.5t-2.5 -90q-5 -42 -18 -85t-36.5 -77t-59 -55.5t-86.5 -21.5t-82.5 24t-47 61t-18 82zM284.5 32.5q0.5 -9.5 4.5 -18t13 -14t26 -5.5q15 0 25.5 6t17 15t10 19t4.5 18q1 7 0.5 16.5t-4.5 18t-12.5 14.5t-23.5 6q-17 0 -28 -6t-18 -15 t-10 -19t-4 -18t-0.5 -17.5z" />
<glyph unicode="1" horiz-adv-x="580" d="M85 0h410q8 0 9.5 7t3.5 12q9 37 21 74.5t17 75.5q1 7 0.5 10t-8.5 3q-26 0 -39 -9.5t-20 -24.5t-12.5 -31.5t-17 -31.5t-32.5 -24.5t-59 -9.5q-28 0 -51 -1t-38 4t-21.5 19.5t-2.5 45.5q18 151 32.5 298.5l28.5 298.5h97l5 40h-231l-5 -40h67q-26 -117 -46 -232 t-34 -233q-6 -54 -10 -105.5l-8 -105.5h-52zM404 282h205l5 40h-66l8 56t6 37t6 37t7 56q4 32 6 51t2.5 31t0.5 20v21q0 13 1 31.5t4 51.5h64l4 40h-198l-4 -40h65q-1 -3 -1 -6t-1 -6t-1 -6t-1 -6q-8 -34 -13.5 -54l-9 -33.5l-6 -23.5t-5 -23.5l-6 -34t-8.5 -54.5 q-3 -31 -4 -46t-1 -27v-26t-2 -46h-52z" />
<glyph unicode="2" horiz-adv-x="972" d="M84 0h205l4 40h-66q8 42 14 82.5t11 82.5l21 165h315q-12 -54 -17.5 -108.5t-8.5 -108.5l-4 -56.5l-4 -55.5h-52l-4 -41l430 1q9 0 17 24t14.5 54t11.5 57.5t8 33.5q-25 11 -38 7t-21 -17.5t-15 -32t-19.5 -35t-33.5 -28.5t-58 -12q-51 0 -87 1.5t-44 11.5 q-5 16 -3.5 50.5t6.5 77.5t11.5 89t10.5 86h179q16 0 25 5.5t11 22.5l4 32h-212q4 66 11 135t12 138q5 0 15.5 1t22.5 1.5t24 1.5t20 1h74q34 0 47.5 -9.5t16.5 -44.5v-20q0 -11 2 -21.5t7.5 -18t17.5 -7.5q18 0 24.5 0.5t8.5 21.5q8 50 12 80t5.5 45.5t0.5 20t-4 4.5h-422 l1 -1h-1l-5 -39h65l2 -1q-17 -72 -31 -144.5t-24 -144.5h-319q16 144 27 288h63l5 40l-197 1l-5 -40h67q-24 -109 -43 -215t-33 -215q-7 -63 -12.5 -123t-9.5 -123h-52z" />
<glyph unicode="3" horiz-adv-x="1075" d="M85 0h205l4 40h-66q12 62 20 117t14 112q2 19 5 39t5 40h314q-6 -30 -10 -56.5t-6.5 -51t-4 -49.5t-3.5 -53l-4 -49.5t-3 -48.5h-52l-4 -40h206l4 40h-66q6 35 12 74.5l12 79.5t11 79.5t9 75.5q21 0 43 1t48 1l15.5 -70t20.5 -79.5t28 -79t38 -68.5t50.5 -48.5 t65.5 -18.5q20 0 39 4t38 10l-6 35q-12 -4 -29 -4q-29 0 -47 21t-29.5 54t-20 72.5t-19 77.5t-25.5 68.5t-40 44.5q78 30 125 78t57 130q7 54 -4.5 89.5t-37.5 56.5t-66 29.5t-89 8.5q-57 0 -113 -2.5t-113 -3.5h-25l-5 -40h67q-17 -73 -31.5 -156l-26.5 -155h-318 l16.5 155.5t14.5 155.5h64l5 40h-200l-5 -40h67q-13 -53 -23 -103t-19 -99.5t-16.5 -99.5t-14.5 -104q-7 -63 -14 -135t-11 -135h-52zM694 403q5 41 8.5 78.5t6.5 74t5.5 74.5t5.5 79q12 -1 24.5 0.5t25.5 1.5q91 0 131.5 -36t29.5 -129q-10 -80 -51.5 -113.5t-122.5 -33.5 q-16 0 -32 2.5t-31 1.5z" />
<glyph unicode="4" horiz-adv-x="850" d="M116 339q-9 -72 2.5 -136.5t44 -113.5t87 -78t132.5 -29q96 0 173.5 35t134 95t91 140t45.5 170q9 73 -4 138t-47.5 114t-90.5 77.5t-134 28.5q-92 0 -167.5 -37.5t-131.5 -99t-90.5 -141t-44.5 -163.5zM233.5 267q-3.5 61 4.5 119q6 54 24 114t50.5 110t80.5 83t115 33 q48 0 82.5 -16t58.5 -43.5t38 -63.5t20 -76t6 -82t-5 -81q-7 -57 -24.5 -114.5t-49.5 -104t-81 -75.5t-118 -29q-70 0 -112.5 32t-64 82.5t-25 111.5zM340 141h205l5 40h-66l8 56t6 37t6 37t7 56q6 48 8 74.5t2.5 45t0.5 36.5t2 50h64l5 40h-198l-5 -40h65q-1 -15 -5 -31 l-10 -39.5t-13 -57.5t-14 -84q-3 -30 -6 -52q-2 -16 -3 -29t-2.5 -27.5t-2.5 -31.5t-2 -40h-52z" />
<glyph unicode="5" horiz-adv-x="805" d="M96 0q54 0 107 -2.5t107 -2.5h29q93 0 171 29t136.5 82t95 128t47.5 167q12 96 -8.5 166.5t-67.5 116.5t-119 68t-163 22q-64 0 -127.5 -8t-127.5 -19v-39q17 4 36 6t40 2q-26 -118 -46.5 -232.5t-34.5 -232.5q-6 -54 -10 -105.5t-7 -105.5h-54zM257 99.5q1 19.5 3 32.5 q12 103 22.5 202.5t22.5 202.5q6 46 11 91.5t6 91.5q95 0 168 -21.5t120.5 -67.5t67 -117t7.5 -170q-8 -67 -31 -121.5t-61.5 -93t-93 -59.5t-124.5 -21q-9 0 -25.5 0.5t-34 2t-32.5 5.5t-20 12q-7 11 -6 30.5zM327 132h201l4 40h-66l9.5 56l6.5 37t5.5 37t6.5 56 q6 48 8 74.5t2.5 45t0.5 36.5t2 50h64l5 40h-194l-5 -40h65q-2 -15 -6.5 -31t-10.5 -39.5t-12.5 -57.5t-12.5 -84q-3 -30 -6 -52q-2 -16 -3 -29t-2.5 -27.5t-3 -31.5t-2.5 -40h-52z" />
<glyph unicode="6" horiz-adv-x="1003" d="M80 577q-2 -5 7 -6t16 -1h7q16 0 23.5 10t12 25t8.5 32t13.5 32t27.5 25t51 10q12 0 24.5 0.5t24.5 0.5h54q-23 -105 -42 -207.5t-32 -208.5q-8 -63 -13.5 -124.5t-8.5 -124.5h-70l-4 -40h233l4 40h-72q13 63 24 127t18 128q12 97 14 193.5t14 193.5l2 23h36h19t19 1 q36 2 59.5 3t38.5 1q16 0 26 -1t20 -1.5t23 -1t34 -0.5h54q-24 -105 -43 -207.5t-32 -208.5q-8 -63 -13 -124.5t-9 -124.5h-70l-4 -40h233l4 40h-72q13 63 24 127t19 128q11 97 13 193.5t14 193.5l3 23q18 0 36.5 0.5t36.5 0.5h24q10 0 21.5 -1t22 -3.5t19 -6t12.5 -9.5 q7 -11 8.5 -30t4 -38.5t8.5 -33.5t21 -14q8 0 19 -1t14 10q6 45 3.5 86.5t2.5 86.5q1 9 -7 9q-69 0 -138.5 -3.5t-138.5 -3.5h-56h-27t-27 1q-54 1 -83.5 1.5t-43.5 0.5q-15 0 -17 -1q-3 0 -38 -1.5t-104 -1.5q-63 0 -125.5 2t-125.5 2q-6 0 -7 -4.5t-2 -8.5 q-1 -12 -5.5 -25l-8.5 -25l-18.5 -59t-12.5 -59z" />
<glyph unicode="7" horiz-adv-x="931" d="M97 716h52q15 -172 41.5 -337t66.5 -330q2 -6 4 -15t5.5 -18t9 -15t14.5 -6q19 0 35 2t27 22l141 289h223l29 -135.5t32 -133.5h-59l-5 -40h227l5 40q-26 0 -41.5 8.5t-25 23t-14 33t-8.5 39.5l-66.5 287t-71.5 286h22l5 40h-129l-5 -41h34l-207 -413t-91 -175 q-30 153 -67.5 316l-75.5 313h-102zM519 360l138 284l48 -284h-186z" />
<glyph unicode="8" horiz-adv-x="901" d="M4 0h185l4 40h-68l124 269h225l29.5 -135.5t31.5 -133.5q1 -18 12 -29t34 -11q17 0 28 16t29 51l318 649h44l5 40l-230 1l-5 -41q18 0 35 -2t29.5 -9t19.5 -20t5 -35q-2 -17 -17 -54.5t-37 -85.5l-48.5 -102l-52 -103l-46.5 -89l-32 -60l-15 -26q0 4 -0.5 7t-1.5 7 l-68 307.5t-74 304.5h-148l-5 -40h89l-294 -595q-9 -18 -17.5 -32.5t-20 -25.5t-27 -17t-36.5 -6zM277 361l138 289l48 -289h-186z" />
<glyph unicode="9" horiz-adv-x="955" d="M20 393q0 -11 8.5 -30t26 -38t43.5 -33t62 -14q38 0 58 10t29 26t10 36.5t1.5 42.5t3 43t15 38t38 28.5t71.5 13.5q7 -15 16.5 -27l18.5 -23t15 -23.5t6 -30.5q-14 -27 -38 -52t-52 -49.5l-57 -48.5t-51.5 -48.5t-35.5 -49.5t-10 -52q17 -32 50.5 -39t68.5 16 q0 15 -1.5 27t-2 23t1.5 21.5t9 24.5l21 35q15 -36 18 -66t1 -56t-6.5 -49.5t-4.5 -46.5h75q6 28 4.5 56t-4.5 53.5t-4.5 47t5 37t23.5 24.5t51 9q19 0 27 0.5t10 -0.5t1.5 -4t2.5 -9q-11 -30 -5 -62.5t17.5 -65l23 -64t11.5 -60.5q41 -1 53.5 12t8.5 35t-17.5 49.5 t-24.5 56.5t-13 56t18 47q5 -5 12.5 -24.5t16.5 -45.5l20 -55.5t23 -54t24.5 -40.5t25.5 -16q19 0 29.5 3.5t16.5 8t10 8t12 3.5q-1 6 0.5 11.5t2.5 11t0 11.5t-8 14q-25 1 -44.5 8t-33.5 23.5t-24 44t-16 69.5q39 14 59 38t30 51t14.5 52.5t11.5 41.5l144 62q9 4 12 9 t0.5 8.5t-9.5 4t-16 -3.5l-66 -25.5t-45 -15t-29 -3t-17 10.5q-9 13 -24.5 25t-33 20t-36.5 13t-35 5q-19 0 -32 -3t-25 -7t-25 -7t-32 -3q-24 -2 -39 8t-24 28t-12 42.5t-3 52.5q0 38 4.5 58.5t19.5 35.5q16 -4 36 0t37 14.5t28 26t8 33.5q-7 25 -22.5 34.5t-37 11t-46 -1 t-49.5 -0.5t-48 12t-41 37q-12 18 -21.5 38.5t-25.5 30.5q-14 17 -27 18t-23.5 -5t-18.5 -15t-12 -13q-8 -8 -4.5 -23t10 -30.5l12.5 -29.5t4 -18q-31 -12 -47 -29.5t-22.5 -37.5t-6 -42t1.5 -43t0 -40.5t-10 -34.5q-15 -25 -39.5 -48t-47 -46.5t-36.5 -48.5t-7 -55zM85 373 q0 18 10 37t22.5 30t22.5 6q9 -5 5.5 -18.5t-13.5 -33.5t-19.5 -33.5t-18.5 -8.5q-9 4 -9 21zM127 347.5q3 12.5 14 30.5q10 19 21 31.5t20 7.5q10 -4 10 -22q0 -17 -10 -34q-11 -19 -24.5 -27.5t-23.5 -3.5t-7 17.5zM207.5 636q0.5 26 15.5 57q15 30 35.5 47t34.5 10 q14 -8 8.5 -29.5t-20.5 -52.5q-17 -30 -31 -51.5t-29 -14.5q-14 8 -13.5 34zM233 678q0 -8 5 -14t13 -6t13.5 6t5.5 14t-5.5 14t-13.5 6t-13 -6t-5 -14zM283 596q5 19 21 48q16 30 32.5 49.5t32.5 12.5q15 -8 15 -34q0 -27 -16 -55q-16 -29 -37.5 -42.5t-37.5 -5.5 q-15 8 -10 27zM314 630q0 -9 5 -15t13 -6t13 6t5 15t-5 15.5t-13 6.5t-13 -6.5t-5 -15.5z" />
<glyph unicode="&#x3c;" d="M45 237l49 63l351 -237l-52 -65zM60 447q1 3 1.5 6.5t3.5 5.5l501 297l41 -66l-409 -243l356 -240l-52 -65l-440 294q-2 3 -2 11z" />
<glyph unicode="=" horiz-adv-x="751" d="M72 112h217l-49 -112h72l49 112h340l9 80h-313l89 203h245l8 79h-218l50 114h-71l-50 -114h-340l-8 -79h313l-90 -203h-244z" />
<glyph unicode="&#x3e;" d="M49 207l38 -65l502 294q4 6 4 11q1 3 0.5 6.5t-3.5 5.5l-437 297l-55 -66l357 -243zM128 63l38 -65l398 239l-35 63z" />
<glyph unicode="?" horiz-adv-x="751" d="M72 112q29 -25 65 -36t75 -11t78.5 9.5t75.5 26.5q45 27 91.5 40.5t90 15t83 -10t71.5 -35.5l8 80q-30 21 -66 32.5t-74.5 13t-77.5 -7t-75 -26.5q-45 -24 -91.5 -38.5t-90.5 -17t-83.5 8t-70.5 36.5zM102 395q29 -24 65 -35t75 -11t78.5 9.5t75.5 26.5q91 48 179.5 50 t156.5 -41l8 79q-32 19 -68 29t-74 11.5t-76.5 -6t-75.5 -23.5q-45 -24 -91.5 -38t-90.5 -16t-83.5 8.5t-70.5 35.5z" />
<glyph unicode="A" horiz-adv-x="704" d="M-113 -10q6 -7 11 -15.5t10.5 -16.5t13 -13.5t18.5 -5.5q93 -29 192 -35t200.5 -3t203 8t199.5 -1q34 14 57 42t34.5 61t11.5 67q0 35 -11 64q-1 34 -11 66t-17.5 64t-7 65t19.5 68q4 25 9 51t7 51.5t-2 49.5t-17 45q-16 45 -42 87t-64 63q-11 11 -15 28.5t-17 28.5 q-30 33 -69 43t-82 10t-87.5 -4t-86.5 0q-26 -2 -50.5 -10.5t-50.5 -13.5h-7q-36 -6 -75.5 -6.5t-76.5 -7t-69 -25.5t-52 -61q0 -11 -3 -25.5t-2 -19.5q-6 -18 -21 -23q-14 -13 -20.5 -28.5t-10 -32t-6 -33t-8.5 -32.5q-5 -20 -5 -38t3 -35.5t7.5 -34.5t8.5 -34 q-3 -51 -3 -102q0 -50 -0.5 -101t-3.5 -102t-13 -103zM4 0l4 40q21 0 36.5 6t27 17t20 25.5t17.5 32.5l294 595h-89l5 40h147q43 -153 78 -304.5l70 -307.5q4 -21 8.5 -39.5t14 -33t25 -23t41.5 -8.5l-4 -40h-227l4 40h59q-17 67 -31.5 133.5l-29.5 135.5h-225l-124 -269h68 l-4 -40h-185zM277 361l138 289l48 -289h-186z" />
<glyph unicode="B" horiz-adv-x="652" d="M-9 26q0 -52 1 -97q45 -42 88.5 -60t87 -21.5t88.5 3.5t93.5 15.5t101.5 13.5t112 -2q25 -1 48.5 5.5t47.5 16.5q5 2 9 7t5 9l21.5 92.5t17 93t7.5 92.5t-7 91q2 60 12 119.5t22 118.5t22.5 118t13.5 119l-70.5 40t-73 35t-78 22.5t-85.5 2.5q-38 -1 -76 -2.5t-76 0.5 q-32 -17 -59.5 -22t-54.5 -4t-55 4.5t-61 3.5q-11 0 -17.5 -6t-7.5 -14q0 -7 3.5 -13.5t14.5 -6.5h11q-20 -37 -26.5 -76.5t-6.5 -80.5t3.5 -82.5t3.5 -82.5t-6.5 -80.5t-25.5 -75.5q-20 -41 -30 -90.5t-14 -101.5t-4 -104zM85 0l5 42h52q3 52 7 104t10 104 q14 118 33.5 233.5t48.5 232.5h-69l5 40q67 0 133 2t133 2q39 0 71.5 -9t54.5 -28.5t32.5 -50t5.5 -72.5q-7 -55 -39 -98.5t-86 -66.5h-3l-1 -6h4q75 -13 110 -64.5t25 -127.5q-7 -60 -39 -105.5t-78 -76t-101 -45.5t-109 -15h-26q-45 0 -89.5 2.5t-89.5 2.5zM246 127 l31 260q14 -1 28 0.5t28 1.5q45 0 80 -10.5t58.5 -32.5t33.5 -56t4 -81q-9 -75 -52.5 -118.5t-121.5 -43.5q-26 0 -44.5 2t-29.5 10.5t-14.5 24.5t-0.5 43zM282 437q8 69 14.5 136.5t11.5 136.5q16 0 32 1t32 1q70 0 105.5 -32.5t26.5 -105.5q-5 -44 -18.5 -70.5 t-35.5 -41.5t-52.5 -20t-69.5 -5h-46z" />
<glyph unicode="C" horiz-adv-x="639" d="M-55.5 49q0.5 -15 9.5 -29q5 -17 9 -36.5t11.5 -36.5t20 -29.5t34.5 -15.5q79 -10 159.5 -15t164.5 -5q167 0 332 33q24 22 28.5 47t1 52.5t-8 55.5t1.5 56q27 32 35.5 72.5t10.5 78.5q-2 16 -5.5 31.5t-7.5 31.5v-5q-1 12 1 24t3 24q5 25 -9 45q1 19 16 38.5l31 39.5 t26.5 39t2.5 36q1 26 -4.5 51.5t-9.5 51.5t-3 52t16 53q6 19 5 35q0 6 -4.5 11t-10.5 6q-23 4 -47 3t-48 -1q-23 0 -45 4.5t-41 18.5q-50 20 -103.5 23t-108.5 -1t-110 -10.5t-108 -6.5q-35 -10 -69 -11.5t-69 -6.5q-9 2 -18 -5.5t-7 -20.5q2 -30 2 -62t17 -57 q10 -29 3 -61.5t-28 -59.5q-17 -45 -23 -92t-14 -93q3 -17 13 -34t7 -35q-2 -12 -13 -22q-17 -18 -23 -38.5t-7 -42.5t-0.5 -44.5t-3.5 -43.5q0 -16 -4 -31.5t-6.5 -31t-2 -30.5zM99.5 197.5q-6.5 62.5 2.5 132.5q9 78 38 158t78.5 144.5t119.5 105.5t160 41q14 0 38 -2.5 t49.5 -7t47.5 -10.5t32 -12q9 -6 9.5 -12.5t-0.5 -17.5l-17 -141q-1 -11 -14 -11q-5 0 -10 0.5t-9 0.5q-10 0 -15.5 5t-8.5 13t-3.5 17t-0.5 17q-2 33 -11 54t-25.5 32.5t-41.5 16t-58 4.5q-67 0 -111.5 -32t-72.5 -81t-42.5 -107t-20.5 -110q-7 -57 -6 -117.5t20 -110.5 t59.5 -82.5t111.5 -32.5q31 0 57.5 8.5t50 22.5t46 33l46.5 40q6 3 14.5 -7t8.5 -17q-1 -6 -7.5 -15t-15 -18l-16.5 -17t-13 -12q-51 -43 -109.5 -64t-119.5 -21q-79 0 -129.5 27.5t-77.5 75t-33.5 110z" />
<glyph unicode="D" horiz-adv-x="805" d="M-43.5 63.5q-4.5 -49.5 0.5 -96.5q27 -29 59.5 -44.5t69 -23t75.5 -9.5t78 -4.5t77 -7.5t72 -18q66 -4 132.5 2.5t132.5 24.5q17 10 34 22t34 22.5t35.5 18t38.5 7.5q30 22 47.5 51t29 61.5t18.5 66.5t16 65q5 22 4 42.5t-3 40.5t-3 40.5t4 42.5q4 43 9 88t6.5 89.5 t-2 87.5t-15.5 84q-2 20 -0.5 41t4.5 42q-58 43 -128 56t-145 13t-151.5 -5.5t-148.5 -0.5q-38 -10 -75 -10t-73.5 0.5t-73 -1.5t-73.5 -15h-2q-8 2 -18 -4t-9 -18q-2 -10 0.5 -19.5t5.5 -18.5t4 -18.5t-3 -19.5q5 -30 -6 -61l-22 -61.5t-12.5 -59t22.5 -53.5q7 -64 -2 -134 q-5 -51 -14 -102.5t-17 -102.5t-12.5 -100.5zM96 0l4 40h54q3 54 7 105.5t10 105.5q14 118 34.5 232.5t46.5 232.5q-21 0 -40 -2t-36 -6v39q64 11 127.5 19t127.5 8q91 0 163 -22t119 -68t67.5 -116.5t8.5 -166.5q-11 -92 -47.5 -167t-95 -128t-136.5 -82t-171 -29h-29 q-54 0 -107 2.5t-107 2.5zM257 99.5q1 19.5 3 32.5q12 103 22.5 202.5t22.5 202.5q6 46 11 91.5t6 91.5q95 0 168 -21.5t120.5 -67.5t67 -117t7.5 -170q-8 -67 -31 -121.5t-61.5 -93t-93 -59.5t-124.5 -21q-9 0 -25.5 0.5t-34 2t-32.5 5.5t-20 12q-7 11 -6 30.5z" />
<glyph unicode="E" horiz-adv-x="620" d="M-41.5 104q-1.5 -15 5.5 -30q0 -7 2.5 -12.5t5.5 -11t5 -11.5t0 -13q-4 -15 -5.5 -31.5t2 -31t13.5 -24.5t28 -11q36 -21 78.5 -26.5t87.5 -6t90 -2.5t85 -17q63 0 126.5 -2.5t126.5 0.5q20 15 37 36t27.5 44.5t12.5 48t-8 47.5q12 44 22.5 88.5t18 89.5t10.5 89.5 t-1 88.5q-6 16 -10.5 31.5t-1.5 33.5q-13 45 -5.5 92t25.5 92q15 22 29.5 49t20.5 54t0 51t-32 40q-69 29 -144 34t-152 0t-154.5 -12.5t-152.5 -3.5q-11 -5 -21.5 -11t-22.5 -11q-10 -1 -16 -11q-3 -3 -4 -7l-38 -72.5t-28.5 -72t-11 -75.5t15.5 -82q6 -23 -2 -46.5 t-20 -47t-21.5 -47.5t-6.5 -47q-3 -20 -4.5 -40t0.5 -39.5t8.5 -37t19.5 -31.5q-9 -12 -18 -26t-15 -29t-7.5 -30zM85 0l4 40h52l8 105.5t10 105.5q14 118 34 233t46 232h-67l5 40h422q6 0 5.5 -8.5t-1.5 -12.5l-18 -129q-2 -21 -8.5 -21.5t-24.5 -0.5q-12 0 -17.5 7.5 t-8 18t-2 22t0.5 19.5q-3 35 -17 44.5t-48 9.5l-155 -5q-14 -137 -24 -273h213l-4 -32q-2 -17 -11 -22.5t-25 -5.5h-181l-10 -85q-2 -8 -3 -25q-2 -21 -5.5 -52.5t-5.5 -61.5t-2.5 -52.5t3.5 -26.5q8 -10 44 -11.5t87 -1.5q37 0 57.5 9.5t31.5 24.5t16.5 31.5t13 31.5 t20.5 24.5t38 9.5q8 0 8.5 -2.5t-0.5 -10.5q-3 -6 -8 -33.5t-11.5 -57.5t-14.5 -54t-17 -24h-430z" />
<glyph unicode="F" horiz-adv-x="536" d="M-54 175q6 -12 16.5 -24.5t19.5 -25.5t2 -25q-7 -14 -14.5 -27t-12 -24t-4 -19t10.5 -13q13 -7 25.5 -12.5t26.5 -12.5q-10 -12 -16 -27t-6 -29t7 -25.5t22 -17.5q13 -8 28 -11t30 -4.5t30 -4t29 -8.5q51 -5 105.5 -3.5t107 14.5t101 39.5t87.5 71.5q38 19 50 38.5t8 42 t-17.5 49.5t-26.5 62q6 51 28 116l43.5 132t35 130.5t2.5 112.5q1 12 -1.5 22.5l-5 21t-3.5 21t3 22.5q-6 32 -26 50.5t-46 30.5t-55 20.5t-53 20.5q-84 4 -166.5 -1.5t-163.5 -38.5q-8 0 -15 -5q-14 1 -21 -9l-37 -44t-36 -47.5t-24 -50.5t0 -54q-21 -109 -35.5 -217.5 t-24.5 -214.5q-14 -10 -8 -22zM22 -11q2 0 4 -2zM85 0l4 40h52q4 63 9.5 123t12.5 123q14 109 33 215t43 215h-67l5 40h401q5 0 4 -9t-1 -12l-16 -134q-2 -16 -10.5 -16.5t-19.5 -0.5q-17 0 -21 13.5t-4 31.5t-0.5 36.5t-12.5 28.5q-5 4 -13 6.5t-18 3.5t-20 1h-15h-56 q-7 0 -17 -1t-20.5 -1.5t-19.5 -1.5t-14 -1q-7 -69 -12.5 -136.5t-10.5 -136.5h213l-4 -32q-2 -17 -11 -22.5t-25 -5.5h-180q-10 -82 -21 -163.5t-25 -163.5h82l-4 -40h-221z" />
<glyph unicode="G" horiz-adv-x="732" d="M-51 12q-3 -28 12 -55q39 -51 95 -70.5t119 -23t129 -0.5t126 -3q33 7 66 10.5t66 6.5t65.5 7.5t64.5 13.5q33 24 55 56.5t37 69t25.5 75l20.5 74.5q6 72 14 142t25 142q0 19 -5 36.5l-10 35t-7 35.5t4 38q-3 30 1 61.5l8 61.5q4 31 4.5 61.5t-8.5 59.5q-55 36 -108 44 t-106 1t-105.5 -22t-106.5 -25.5t-109.5 -10t-113.5 25.5q-16 -5 -33 -3t-33 -6q-6 -5 -9 -6q-12 -2 -17 -13q-24 -40 -49 -86.5t-38.5 -91t-10.5 -83t35 -62.5q-21 -9 -34 -26t-19 -39t-7 -46.5t1 -46.5q-5 -24 -13.5 -45.5t-14 -42.5t-5 -40.5t14.5 -38.5q6 -20 3.5 -42 t-8.5 -43.5l-12.5 -43.5t-8.5 -42zM115 330q10 87 44 168t90 142.5t132.5 98.5t171.5 37q15 0 38 -1t47 -4t45.5 -8t32.5 -12q9 -6 10.5 -12.5t-0.5 -17.5l-17 -141q-1 -11 -14 -11q-5 0 -11 0.5t-9 0.5q-10 0 -15.5 5.5t-8 13t-3 16.5t-0.5 17q-2 31 -10 51.5t-24 32 t-39.5 16t-55.5 4.5q-75 0 -127.5 -31.5t-87 -81.5t-53.5 -112.5t-27 -124.5q-7 -57 -2 -116t27 -106.5t64.5 -78t110.5 -30.5q40 0 82 11.5t78 32.5h2q1 28 3.5 56t5.5 56q4 36 11 71.5l14 71.5h-84l5 40h169q-2 -35 -5.5 -69t-7.5 -68q-5 -42 -12 -81.5l-14 -81.5 q-138 -99 -298 -99q-78 0 -131.5 27t-84.5 73.5t-41 109.5t-1 135z" />
<glyph unicode="H" horiz-adv-x="790" d="M-3 145q9 -21 10 -43.5t-0.5 -45.5l-3 -46.5t2.5 -45.5q11 -12 11 -15q0 -4 -2 -5.5t-1 -4t13 -11.5q66 -3 128.5 -8t125.5 -20q54 -4 109.5 -9t111.5 -5.5t112 6.5t111 27q12 8 24.5 15.5t26.5 5.5q51 22 74.5 60t33.5 83.5t13 93.5t12 89q7 42 4 83t-8.5 81.5t-10 80.5 t-0.5 79q10 19 15 39.5t9 41t9 41t15 39.5q2 8 3 16l2 16q3 26 -3 49.5t-31 32.5q-108 12 -202 13t-186 -2.5t-187.5 -9t-204.5 -6.5q-8 0 -14.5 -6t-7.5 -14q-4 -12 3 -19.5t15 -11.5q-34 -46 -46 -97.5t-19 -105t-17 -106t-40 -100.5q0 -64 0.5 -126.5t-10.5 -128.5zM85 0 l4 40h52q4 63 9.5 123t12.5 123q14 109 33 215t43 215h-67l5 40h200l-5 -40h-64q-6 -73 -14 -144.5t-15 -144.5h319q15 72 26.5 144.5t29.5 144.5h-68l5 40h198l-5 -40h-63q-7 -99 -16 -196t-21 -194q-9 -72 -19.5 -143l-21.5 -143h66l-4 -40h-206l4 40h53l10.5 165 t22.5 165h-315l-21 -165q-5 -42 -11 -82.5t-14 -82.5h66l-4 -40h-205z" />
<glyph unicode="I" horiz-adv-x="375" d="M-67.5 12.5q1.5 -35.5 15 -64.5t48.5 -43l89.5 -16.5t94.5 -11t96 3.5t93 28q35 26 55.5 62.5l39.5 72.5q9 43 24 88l30.5 91t28 91.5t16.5 90t-4 87t-34 82.5q-3 22 -2 47l2 51t0.5 51t-7 46.5t-21 38t-40.5 25.5q-96 18 -196.5 13t-197.5 -27q-14 -9 -12 -21 q-21 -30 -39 -65.5t-27.5 -71.5t-6 -70.5t26.5 -64.5q3 -18 1.5 -36t-4 -36t-5.5 -36t-3 -36q-30 -54 -42.5 -112t0.5 -115q-7 -32 -14 -69.5t-5.5 -73zM85 0l4 40h52q4 63 9.5 123t12.5 123q13 103 30 203t40 203q2 8 2 12q1 3 1 6t1 6h-65l5 40h198l-5 -40h-64 q-7 -99 -16 -195.5t-21 -193.5q-8 -72 -19 -143.5l-22 -143.5h66l-4 -40h-205z" />
<glyph unicode="J" horiz-adv-x="477" d="M-120 5q5 -21 14 -40.5t11 -41.5q30 -35 70.5 -46t86.5 -12t93 2t89 -3q35 5 60.5 25t48 45l45.5 49t55 37q15 33 34.5 80.5t37 102.5t31 114t16.5 116q-1 30 0 63.5t1.5 67.5t-2 66.5t-10.5 60.5q2 21 0.5 42t-15.5 36q-2 12 -6.5 24.5t-11.5 22t-17.5 15.5t-25.5 5 q-48 1 -81.5 3t-63 0t-61 -10t-74.5 -27q-12 12 -30 15.5t-36 2.5q-15 0 -21 -12.5t1 -21.5q2 -39 5.5 -83t2.5 -89t-10 -87.5t-32 -76.5q-12 -39 -26 -68t-29 -56.5l-32 -56.5t-35 -68q-4 -27 -20 -50.5l-32.5 -46.5t-27 -47t-3.5 -52zM14.5 64.5q-0.5 10.5 0 21t1.5 19.5 q1 6 2 19t4.5 27t9.5 24.5t17 10.5q26 0 37 -12t15 -29.5t5 -38.5t7.5 -38.5t23 -29.5t51.5 -12q29 0 49 10t33 27.5t20 40t10 47.5q8 63 11.5 124t11.5 124q10 78 23.5 158.5t32.5 158.5h-87l5 40h150q-2 -106 -11 -211.5t-22 -213.5q-8 -63 -19 -125t-37.5 -112t-74.5 -81 t-130 -31q-38 0 -70 10t-56 37q-6 6 -9 15.5t-3.5 20z" />
<glyph unicode="K" horiz-adv-x="712" d="M-7 -61q8 -18 19 -27t25 -14t30 -8t34 -9q100 -9 202 -3.5l202 10.5q12 5 25 12.5t25 -0.5l37 -18.5t32.5 -11.5t31 3.5t31.5 26.5q30 21 47.5 54t27 73.5t12 85t1 87.5t-4 82t-3.5 68q2 66 20.5 126.5t34 118.5t18 115t-27.5 116q0 5 -4 9t-9 6q-81 26 -162.5 30 t-164 -3t-166.5 -20.5t-171 -22.5q-8 0 -12 -3q-13 -3 -17 -16q-26 -64 -35.5 -130t4.5 -129q-7 -76 -21 -152.5l-28 -152.5t-24 -152t-9 -151zM85 0l4 40h52q4 63 9.5 123t12.5 123q14 109 33 215t43 215h-67l5 40h132q-8 -85 -14.5 -168t-14.5 -168l-5 -20l288 246h1 q9 7 18 17t10 21q1 12 -5 18.5t-16 9.5t-21.5 3.5t-20.5 0.5l5 40h235l-5 -40h-49l-322 -267h1q11 -5 19.5 -10t16.5 -13q19 -18 36 -54t33.5 -80l34.5 -90t37.5 -84t42.5 -62.5t51 -24.5q17 0 29 4l2 -35q-15 -4 -30.5 -7t-30.5 -3q-52 0 -90.5 25.5t-66.5 64t-48.5 84 t-36.5 84.5q-16 36 -30 71.5l-28 72.5l-61 -47h-2q-10 -78 -21 -152.5l-23 -152.5h66l-4 -40h-205z" />
<glyph unicode="L" d="M-29.5 -7.5q-2.5 -31.5 18.5 -59.5q43 -16 91 -19t97 -3.5t96.5 -5.5t89.5 -26q25 -6 54.5 -11.5t58.5 -4t55 14t45 43.5q14 17 20 45t7 61.5t-1 69.5l-4 70t-1 64t8 50q6 35 0.5 56.5t-18.5 35.5t-30.5 24t-35.5 22.5t-34.5 31t-26.5 49.5q7 26 7.5 54t-20.5 45 q-15 13 -15.5 33.5t6 44.5t16.5 48.5t15 46.5t1.5 38.5t-23.5 23.5q-73 5 -146 7t-148 -12q-15 -3 -19 -16q-11 0 -17 -12q-21 -32 -32 -64.5t-16 -66.5t-5 -70q0 -35 1 -71q-5 -41 -5.5 -82.5l-1 -83t-4.5 -82.5t-16 -81q-6 -36 -22.5 -71.5t-29.5 -70t-15.5 -66zM85 0 l4 40h52l8 105.5t10 105.5q14 118 34 233t46 232h-67l5 40h231l-5 -40h-97l-28.5 -298.5t-32.5 -298.5q-4 -31 2.5 -45.5t21.5 -19.5t38 -4t51 1q38 0 59 9.5t32.5 24.5t17 31.5t13 31.5t20 24.5t38.5 9.5q8 0 8.5 -3t-0.5 -10q-5 -38 -17 -75.5t-21 -74.5q-2 -5 -3.5 -12 t-9.5 -7h-410z" />
<glyph unicode="M" horiz-adv-x="990" d="M-44 141q-2 -32 3 -61.5t13.5 -58t19 -56l21.5 -54.5q73 -25 142 -33t136 -8t133 5.5t134 8.5t139 0.5t148 -18.5q8 6 17.5 12t19.5 9.5t19 3t17 -9.5q9 -2 18.5 0.5t18.5 6t18 6t19 1.5q20 12 26 36t4 54t-10 63.5l-15 65.5t-10.5 59.5t2.5 45.5q17 32 30.5 67t4.5 70 q-8 30 -6 41.5t7.5 20.5t11 22.5t4.5 46.5q-3 27 -8 53t-19 49q-3 24 1.5 51t5.5 52.5t-6.5 47t-34.5 35.5q-29 27 -64 46t-64 46q-82 -2 -171 3.5t-176.5 7t-170 -7t-150.5 -37.5l-21 -6q-10 -3 -14 -10l-4.5 -4.5t-4.5 -6.5q-13 -35 -36.5 -79t-42.5 -89.5t-26.5 -91 t10.5 -83.5q4 -42 -12 -81.5t-35 -78.5t-33.5 -79t-8.5 -83zM25 0l4 40q22 0 37 6.5t25 18.5t17 28t13 34l197 569l-1 20h-76l5 40h126q24 -85 39.5 -171t29.5 -174l18.5 -113.5t21.5 -113.5q2 -8 5 -13.5t13 -5.5q12 0 14 6t6 14l121 255l119 256l2 20h-84l5 40h145 q9 -93 20 -183t20 -184l11.5 -132l11.5 -132q3 -26 4.5 -42.5t8.5 -26t22 -13t44 -3.5l-4 -40h-240l4 40h65q-6 64 -11.5 133.5t-10 140t-8 140t-4.5 133.5l-16 -36l-243 -531q-10 -21 -18.5 -23.5t-26.5 -2.5q-20 0 -28.5 3t-14.5 24q-16 58 -29 125t-22.5 136.5t-16.5 138 t-12 130.5l-7 50l-182 -561h71l-4 -40h-186z" />
<glyph unicode="N" horiz-adv-x="880" d="M-67.5 21.5q-10.5 -29.5 0.5 -62.5q18 -32 46.5 -47.5t62.5 -25t68.5 -17.5t64.5 -24q64 -18 133.5 -29t140 -9.5t140.5 18t137 53.5q8 4 17 4.5t18 0.5t18 1t18 6q51 7 92.5 36.5t59.5 80.5q11 24 14 46q5 36 -2.5 69t-19.5 63q-4 9 -12 13.5t-16.5 8.5t-14.5 9.5 t-6 16.5q-7 28 -2.5 56t14 56.5t21 57t17 56t2 55t-22.5 53.5q-13 29 -4 58t21.5 57.5t19 57t-9.5 56.5q-19 38 -58 55t-84 9q-168 -8 -331.5 -14t-331.5 -21q-11 -2 -17 -10l-2 -2q-31 -32 -51 -68t-32.5 -74t-20.5 -78l-15.5 -80t-17.5 -79t-27 -77q-6 -23 -6.5 -48t6 -47 t20.5 -39.5t37 -25.5q-3 -31 -20.5 -60l-35.5 -57.5t-28.5 -58zM65 0l4 40h74l83 676h-74l5 40h131l73 -144l71 -147l46.5 -102t52.5 -107t60.5 -101t70.5 -84l79 645h-88l5 40h205l-5 -40h-70l-83 -677q28 -11 56.5 -10t56.5 1q4 0 4 -6v-7q-3 -17 -24 -22.5t-42 -5.5h-21 q-80 0 -139 35t-103 89.5t-76.5 120t-59.5 127.5l-44.5 108.5t-38.5 111.5l-14 47l-72 -588h75l-4 -40h-194z" />
<glyph unicode="O" horiz-adv-x="850" d="M-79 75q-1 -10 3 -18.5t8.5 -17t7 -17.5t-1.5 -19q10 -34 33 -56.5t53.5 -36t65.5 -18.5t69 -4q52 -15 106 -20.5t109 -6.5t110.5 0t110.5 -1q36 22 76 35.5l80 27.5t76 32.5t64 50.5q28 36 44.5 75.5t23 81t5.5 82.5t-8 80q11 63 15 128t-5 126.5t-34 116t-72 96.5 q-14 16 -15 39q-1 4 -4.5 8t-7.5 6q-21 10 -44 12t-47 2h-48t-46 6q-66 0 -132 3t-132.5 2.5t-133 -7t-132.5 -25.5q-6 2 -12.5 1t-12.5 -9l-34 -41.5t-30.5 -44t-21 -46.5t-5.5 -50q-2 -33 -7.5 -67.5t-28.5 -63.5q-4 -30 -10 -60.5l-11.5 -61t-8.5 -60.5t-2 -60 q10 -19 27 -30.5l34 -22.5q-12 -2 -22.5 -3.5t-21.5 -4.5q-4 -1 -9 -5t-7 -7q-6 -13 -4.5 -25t3.5 -23q-1 -1 -1 -5q-1 -1 -1 -2l-1 -1q2 -17 2 -36q0 -18 -12 -35zM116 339q10 84 44.5 163.5t90.5 141t131.5 99t167.5 37.5q78 0 134 -28.5t90.5 -77.5t47.5 -114t4 -138 q-11 -90 -45.5 -170t-91 -140t-134 -95t-173.5 -35q-78 0 -132.5 29t-87 78t-44 113.5t-2.5 136.5zM233.5 267q-3.5 61 4.5 119q6 54 24 114t50.5 110t80.5 83t115 33q48 0 82.5 -16t58.5 -43.5t38 -63.5t20 -76t6 -82t-5 -81q-7 -57 -24.5 -114.5t-49.5 -104t-81 -75.5 t-118 -29q-70 0 -112.5 32t-64 82.5t-25 111.5z" />
<glyph unicode="P" horiz-adv-x="596" d="M-82 -38q18 -22 43.5 -32.5t54.5 -15t58.5 -7t55.5 -8.5q40 -2 83 -10t86 -10.5t84 7t78 43.5q20 13 42.5 20.5l45 14.5t44 17t39.5 28q46 43 63 95t21 106.5t3.5 110.5t11.5 108q7 63 16.5 123t25.5 123q-5 58 -31 100.5t-66 70t-91 41.5t-106 15t-110 -9.5t-104 -31.5 q-12 -4 -28 -4q-21 0 -42 2.5t-42 0.5q-8 0 -13.5 -4.5t-7.5 -9.5q-8 -2 -13 -8q-21 -22 -46.5 -46t-45 -50t-28.5 -55t3 -61q16 -24 22.5 -53.5t4 -60.5t-14 -61t-31.5 -56q-28 -52 -41 -106t-18 -108.5t-5 -109.5t-1 -109zM85 0l4 40h52q4 63 9.5 123t12.5 123 q14 109 33 215t43 215h-67l5 40q51 0 98.5 2t98.5 2q54 0 102 -8t82 -30.5t51 -63t9 -104.5q-7 -62 -36 -108.5t-72.5 -78t-97 -47.5t-109.5 -16q-9 0 -18 1t-18 0q-16 -132 -39 -265h66l-4 -40h-205zM273 356q10 88 17.5 172t14.5 172q8 -2 22 1t23 3q91 0 134 -43t31 -136 q-10 -85 -62 -127.5t-134 -42.5q-11 0 -23 0.5t-23 0.5z" />
<glyph unicode="Q" horiz-adv-x="852" d="M-55.5 65q-0.5 -37 12 -67.5t50.5 -46.5q16 -9 35 -15.5t36.5 -14.5t32 -19.5t22.5 -30.5q48 -21 94.5 -46.5t94 -49t97.5 -41.5t105 -24q40 -17 87.5 -16.5t93.5 7.5q14 12 30 21.5t30.5 20t26.5 23.5t18 31q21 30 22.5 59.5t-6 58t-18.5 56.5t-15 57q43 49 79.5 106.5 t62.5 120t39.5 126.5t9.5 124.5t-27 116t-70 100.5q-10 9 -16.5 21.5t-12.5 26t-13 26t-17 22.5q-6 15 -14 31t-19 29t-27 20t-37 4q-50 -7 -92 -6.5t-80 3t-74 4.5t-73 -1.5t-78 -16t-88 -38.5q-11 -7 -11 -18q-25 -21 -54 -49t-56 -60t-50 -65.5t-35.5 -66t-12 -61 t20.5 -50.5q1 -9 -2.5 -16.5t-9.5 -15l-12 -14.5t-10 -15q-14 -23 -26.5 -48t-20.5 -50.5t-10.5 -52t3.5 -51.5q-1 -33 -8 -72.5t-7.5 -76.5zM116 342q11 85 46 164t90.5 140.5t131 98.5t167.5 37q77 0 133.5 -28.5t92 -77t49 -113t4.5 -137.5q-17 -144 -86 -246t-206 -170 h1q18 -5 30 -19.5t21 -33t18 -39t21.5 -37.5t30.5 -28t46 -11q9 0 18 2t18 2q4 0 3.5 -9.5t-0.5 -12.5q-1 -9 -13.5 -14t-28 -7t-30.5 -2.5t-21 -0.5q-30 0 -63.5 7.5t-61 23.5t-44 41.5t-12.5 61.5q3 17 6 30.5t13 29.5h-6q-25 0 -51 -6.5t-52 -6.5q-75 0 -129 30.5 t-87 80.5t-45 115.5t-4 134.5zM229 265q-3 62 5 122q7 57 26 117.5t52.5 110.5t83 82t118.5 32q70 0 112 -35.5t63 -89.5t24 -118t-4 -120t-26 -114.5t-52 -106t-82 -78t-116 -30.5q-73 0 -116 32.5t-64 83t-24 112.5z" />
<glyph unicode="R" horiz-adv-x="669" d="M-110 55q0 -42 15 -72t40 -51t58.5 -34.5t69.5 -21.5t73 -11t70 -4q28 -1 55 -1h56q84 0 169 8.5t169 32.5q26 9 48 25t38 37.5t24 46.5t7 51q-1 12 1.5 24.5t-5.5 21.5q-2 18 -9.5 32t-18.5 25.5t-23.5 22l-24.5 21.5q-23 46 -26 96t3 102t16.5 104.5t15 103.5t-2 100.5 t-34.5 94.5q-56 33 -119 45.5t-129 15t-133.5 -1.5t-132.5 -4q-7 -1 -13 -9q-11 0 -19 -14q-17 -38 -44.5 -73.5t-52 -72.5t-38.5 -76t-3 -83l-8 -79t-11 -79t-19.5 -77.5t-33.5 -74.5q-13 -43 -16 -85.5t-12 -85.5zM85 0l4 40h52q4 63 9.5 123t12.5 123q14 109 33 215 t43 215h-67l5 40q63 0 125.5 3t125.5 3q50 0 89.5 -10.5t65.5 -34t36.5 -60.5t3.5 -91q-10 -82 -57.5 -136t-125.5 -84q20 -13 33.5 -41.5t24.5 -63t21 -72t24 -68t33 -50t48 -19.5q17 0 29 4l6 -35q-19 -6 -38 -10t-39 -4q-38 0 -67 17t-51 45.5t-38.5 64.5t-28.5 74 t-20.5 74l-15.5 65h-5q-22 0 -43.5 -1t-43.5 -1l-20 -142.5l-21 -142.5h66l-4 -40h-205zM276 379l16 165t13 165q12 -1 25 0.5t26 1.5q93 0 132 -41.5t28 -135.5q-10 -81 -52.5 -120t-123.5 -39q-16 0 -32 2.5t-32 1.5z" />
<glyph unicode="S" horiz-adv-x="535" d="M-47 22l7 -27q30 -16 57.5 -34.5t48.5 -44.5q11 -4 29 -4l2 -1q13 -4 26 -11l26.5 -14t27.5 -11.5t30 -2.5q36 -9 75 -7.5t77.5 10.5t75 24t68.5 34q1 1 4 1.5t0 0.5q17 2 32 14.5t32 19.5q14 7 23 17.5t15.5 23.5t12.5 26.5t13 25.5q37 63 46 127t4 127.5t-17.5 126.5 t-18.5 124q20 61 12.5 123t-37.5 110.5t-81.5 76t-119.5 19.5q-66 1 -130.5 -9t-127.5 -36h-8q-14 0 -20 -12q-6 -5 -9 -9l-35 -54.5t-30 -56.5t-20.5 -59t-5.5 -61q-6 -54 -15.5 -106.5t-34.5 -103.5q-4 -46 -11 -92t-13 -92t-9.5 -92t-0.5 -91zM81.5 40.5 q-0.5 9.5 1.5 26.5l15 123q2 21 12 24t26 3q20 0 25 -13.5t4.5 -33.5t-1 -44t8 -44t31.5 -33.5t69 -13.5q58 0 97 35.5t46 93.5q5 39 -9 68.5t-37.5 53t-53 43.5t-54.5 40l-47 39.5t-35 39.5t-19.5 48t-0.5 66q6 49 28.5 89t56.5 68t77.5 43t90.5 15q26 0 58 -6t53 -20h1 q11 -6 12 -17t-1 -22l-13 -108q-1 -7 -5.5 -9.5t-10 -3t-11.5 0t-10 0.5q-13 0 -17.5 10t-7 24.5t-5 31.5t-12 31.5t-28 24.5t-51.5 10q-49 0 -81 -26t-38 -77q-5 -44 14.5 -75t50.5 -56.5t68.5 -49.5t68 -54t48.5 -70t11 -97q-7 -55 -30.5 -99t-60 -74.5t-83.5 -47 t-101 -16.5q-35 0 -73 8t-64 30q-13 11 -13.5 20.5z" />
<glyph unicode="T" horiz-adv-x="604" d="M-77.5 520q-8.5 -39 1.5 -79q6 -44 23 -82t58 -57q6 -4 6.5 -10t-2 -12.5t-6 -14t-5.5 -15.5q2 -20 -4.5 -36.5l-13.5 -33t-10 -33.5t5 -38q-7 -40 -9 -80t4 -78q53 -53 124.5 -88t150 -45.5t160.5 5.5t156 66q23 10 48.5 26t45 36.5t28.5 44.5t-1 51q-5 9 -12 16.5 l-14 14.5t-12.5 15t-7.5 20q-13 22 -8.5 45t15.5 47t24.5 47.5t18.5 47.5q15 10 20.5 26t7.5 34q3 18 4.5 36.5t9.5 33.5q15 51 26 104.5t15.5 106.5t1 104t-16.5 98q-74 22 -152 32.5t-157.5 12t-160.5 -3t-161 -12.5q-4 -1 -10 -3t-10 -6q-14 -12 -30.5 -24t-30 -26 t-21.5 -30t-6 -37q-12 -37 -31.5 -74.5t-36 -75t-25 -76.5zM80 577q3 29 12.5 59l18.5 59l8.5 25t5.5 25q1 4 2 8.5t7 4.5q63 0 125.5 -2t125.5 -2q69 0 139 3.5t139 3.5q8 0 7 -9q-5 -45 -3 -86.5t-3 -86.5q-3 -11 -14 -10t-19 1q-15 0 -21 14t-8.5 33.5t-4 38.5t-8.5 30 q-4 6 -12.5 9.5t-19 6t-22 3.5t-21.5 1h-24q-18 0 -37 -0.5t-37 -0.5l-2 -23q-12 -97 -14 -193.5t-14 -193.5q-7 -64 -18 -128t-24 -127h72l-4 -40h-233l4 40h70q3 63 8.5 124.5t13.5 124.5q13 106 32 208.5t42 207.5h-54q-12 0 -24.5 -0.5t-24.5 -0.5q-33 0 -51 -10 t-27.5 -25t-13.5 -32t-8.5 -32t-12 -25t-23.5 -10h-7q-7 0 -16 1t-7 6z" />
<glyph unicode="U" horiz-adv-x="836" d="M9 168q-1 -24 3 -48t9.5 -49t2.5 -50q17 -75 57 -112.5t115 -32.5q30 -5 60.5 -8.5t61.5 -3.5t61.5 4.5t59.5 16.5q21 -7 41 -16t41 -16t43 -9.5t47 3.5q21 -2 43 -2.5t44 2.5t42 11.5t38 25.5q17 5 35.5 9t35.5 10.5t31.5 17.5t23.5 31q14 22 12 51t-12.5 59t-24.5 58 t-23 49q-24 24 -23 44q2 12 8 27.5t14 40.5q28 114 28.5 226.5t-13.5 221.5q4 36 -5.5 69t-30 58.5t-50.5 41t-66 15.5q-48 6 -96.5 -1.5t-93.5 -34.5q-29 7 -59 12.5t-61 7t-62 -3t-62 -17.5q-22 5 -45.5 7t-46.5 -3q-14 5 -24 -7q-12 -12 -19 -24t-10 -24.5t-4.5 -26.5 t-3.5 -31q-32 -63 -40 -134t7 -138q-3 -33 -11.5 -64.5t-20.5 -62.5q-2 -15 -5 -30.5t-16 -27.5q-4 -13 -9 -25.5t-8.5 -24.5t-4.5 -23t4 -21q-17 -24 -18 -48zM147.5 179.5q-0.5 38.5 4 78.5l8.5 77q12 97 34 190.5t40 190.5h-62l5 40h127q-4 -104 -18 -208l-12 -103.5 t-13 -104.5q-5 -43 -8 -91t6.5 -88.5t37.5 -67t86 -26.5q39 0 78 16t72 43.5t56.5 63t31.5 74.5q10 48 17 96.5t16 96.5q12 66 25 129.5t23 129.5h-69l5 40h135q-1 -29 -7 -87.5t-14.5 -130.5l-17 -149.5t-14.5 -144.5t-8 -114.5t3 -60.5q6 -14 12.5 -21t23.5 -7 q12 0 25 1.5t24 6.5l2 -33q-33 -12 -68.5 -20.5t-69.5 -8.5q-26 0 -38 15.5t-16 38t-2.5 47t3.5 43.5l10 46q-24 -40 -62 -74.5t-81 -59.5t-87 -39.5t-79 -14.5q-50 0 -82 15.5t-50.5 41.5t-25 60.5t-7 73z" />
<glyph unicode="V" horiz-adv-x="655" d="M-25.5 156.5q0.5 -23.5 5.5 -47.5q6 -13 11 -28.5t12.5 -29.5t17.5 -24.5t27 -14.5q49 -20 86 -55t54 -86q29 -13 65.5 -16t72 5.5t66.5 29.5t49 56q26 21 57.5 38t61 36.5t54 43.5t37.5 59q20 24 24.5 48t1.5 50.5t-9.5 55.5t-7.5 62q9 35 19 69t15 69q1 11 0.5 23 t-2.5 24q-3 28 7.5 53.5t26 49.5t32.5 47.5t27.5 47.5t10.5 48q0 25 -18 51q-24 37 -42.5 47.5t-37.5 10.5q-17 0 -41 2.5t-56 22.5q-18 -10 -37.5 -18t-39 -11t-38 -0.5t-34.5 12.5q-16 -2 -31.5 -1.5t-30.5 -0.5t-29.5 -4.5t-29.5 -12.5l-12 -2t-12 -3q1 1 -1.5 2t-4.5 3 q-17 7 -37.5 11.5t-39.5 -7.5q-36 4 -73 5t-74 -10q-7 1 -16 -3q-19 -11 -20 -27t4.5 -34l11 -37t-0.5 -35q-41 -80 -45 -162q-19 -29 -26 -60.5t2 -62.5q1 -18 -0.5 -36.5t-2 -37t0.5 -36t7 -33.5l-9.5 -51.5t-6.5 -48t-1.5 -47zM97 716l5 40h102l75.5 -313t67.5 -316 l16 29q11 20 31 60l44 89.5l49 103.5l47.5 102.5l39 85.5t22.5 53q9 26 3 39.5t-20.5 19.5t-34 6.5t-37.5 0.5l5 41l230 -1l-5 -40h-44l-341 -697q-11 -20 -27 -22t-35 -2q-9 0 -14.5 6t-9 15t-5.5 18t-4 15q-40 165 -66.5 330t-41.5 337h-52z" />
<glyph unicode="W" horiz-adv-x="971" d="M-12 100q-6 -10 1 -14l9 -16q17 -2 21 -8.5t3 -17.5t-1.5 -26t7.5 -33q-7 -16 -5 -29.5t9 -25t16.5 -22t17.5 -20.5q6 -13 17.5 -21t26 -13.5t30 -9t29.5 -8.5q28 -4 57 0.5t56 15.5q39 3 79 18t65 49q-4 5 -6.5 9.5t-4.5 8.5q3 -3 7 -5.5t8 -5.5q1 2 3 5.5t4 7.5l-6 -14 q14 -7 26.5 -12.5t23.5 -15.5q26 -17 55 -19t59 0.5t60 4t59 -8.5q15 -3 29 -1t28.5 5t29 4.5t29.5 -2.5q34 -3 64.5 13.5t47.5 46.5q31 43 54 86.5t32.5 89t3.5 94t-33 101.5q-21 46 -19 92.5t17.5 93.5t39 93t43.5 90q6 18 10.5 39t5 41t-4 38.5t-16.5 32.5q-24 14 -33 21 t-15.5 8.5t-17 -0.5t-37.5 -5q-38 23 -81 28.5t-88.5 4t-91.5 -4.5t-89 3q-60 1 -102 5.5t-81 7.5t-82 1.5t-104 -12.5q-17 -3 -20 -17q-26 -12 -54.5 -20.5t-52.5 -20.5t-38.5 -30.5t-11.5 -49.5q-5 -24 -15.5 -54.5l-22 -64t-21.5 -68t-14 -66.5q-3 -31 2 -58t24 -44 q-2 -29 -12.5 -60.5t-18 -62t-5.5 -59.5t26 -52q6 -5 -0.5 -16t-15.5 -23t-15 -22zM102 716l5 40h107q17 -69 28 -140t20 -143q10 -77 23 -158.5l31 -185.5l207 505q-5 26 -10.5 52t-1.5 53q0 11 14.5 14t27.5 3h14q12 0 20 -9t12.5 -21.5t7.5 -26.5l5 -23l20.5 -132.5 l20.5 -140l19.5 -140.5l17.5 -134l17 37q9 21 27.5 60.5l40.5 87l45.5 99l43 97.5t33 82t15.5 52q3 21 -3.5 34.5t-19 22t-29 12t-34.5 3.5l5 40h222l-5 -40h-45l-310 -701q-7 -17 -21 -19t-28 -2q-16 0 -20 3t-9 18q-10 38 -16 78.5t-13 79.5q-16 85 -29 176.5t-26 200.5 l-216 -536q-9 -24 -32 -24q-20 0 -32 6.5t-18 25.5q-20 77 -34.5 164.5t-23.5 177.5t-13 179.5t-4 172.5h-56zM426 -81q2 2 2.5 3.5t1.5 3.5q1 0 1 -1l-3 -9z" />
<glyph unicode="X" horiz-adv-x="695" d="M-186 101q2 -48 23.5 -89t67.5 -65q55 -29 116 -40.5t125 -16t129 -5.5t128 -8q51 -1 97 -0.5t88.5 10t82 33t77.5 68.5q12 27 6.5 51t-15.5 48t-18.5 48.5t-3.5 52.5q-14 45 -24.5 83t-32.5 79q1 12 6.5 40t14 62.5l19 73.5l20.5 73.5t19.5 61.5t16.5 39q-1 29 -1.5 45 t-2.5 25t-6.5 14t-12.5 12l-21 19t-33 35q-26 18 -35.5 23t-15.5 4.5t-16 -2.5t-37 3q-11 11 -27.5 8t-31.5 -3q-88 -3 -177 -5t-173 -6q-14 5 -25 4q-10 0 -15.5 -5t-7.5 -12l-66 -82.5t-59.5 -86t-37.5 -92t1 -98.5q-2 -57 -28.5 -109t-60.5 -98q-26 -43 -40.5 -93.5 t-12.5 -98.5zM15 0l4 40q19 0 32 4t24 12t20.5 19.5l20.5 25.5l220 281h1l-56.5 167l-53.5 167h-69l5 40h121q4 -10 14 -33l23 -51.5l28 -60l28.5 -58.5t24 -45.5t14.5 -21.5q7 4 21.5 19.5l33 37t38 46.5l35.5 46.5t26.5 38t10.5 21.5q1 6 -3 10.5t-10 6.5t-13 3t-14 1h-15 l5 40h187l-5 -40h-60l-224 -290l23 -49.5l30 -67l34 -75l35 -72.5t32.5 -59.5t27.5 -36.5q16 -15 33 -20.5t40 -5.5l-4 -40h-295l4 40h96q-35 72 -65.5 143t-58.5 146l-29.5 -31l-42 -47.5l-46.5 -56.5l-44 -56t-33 -46t-14 -27q-1 -13 8.5 -18.5t23 -7t27.5 -0.5t23 1 l-4 -40h-215z" />
<glyph unicode="Y" horiz-adv-x="625" d="M-12 557q-5 -48 19 -89q21 -33 20.5 -64t-9 -62.5t-18.5 -65t-9 -70.5q10 -39 37 -67.5t56 -53.5l-33 -49.5t-30.5 -53.5t-14 -54.5t16.5 -53.5q0 -23 11.5 -35.5t29 -18.5t38 -7t38.5 0q46 0 96.5 9.5t101.5 23t101.5 28.5t97.5 26q20 32 20.5 58t-6.5 51.5l-15 54 t-4 65.5q13 42 34.5 77t45 67l45 62t35 63t15 70t-14.5 82q-6 20 9 49.5t36 61l41.5 61.5t27.5 51q2 13 -6 19q-41 42 -94 61.5t-111.5 22.5t-119.5 -7t-117 -28q-9 -1 -17 1.5t-15 6.5t-14.5 6.5t-16.5 1.5q-22 0 -35 -2t-23 -2t-21 3t-28 14q-17 2 -33.5 -5t-33.5 -10 q-17 -4 -19 -18l-2 -2q0 -1 -1 -2q-12 -30 -30 -64t-35 -69.5t-30 -71.5t-16 -71zM92 716l5 40h106q54 -87 95 -186t76 -196l14 13q9 10 27 33l40.5 53.5l46.5 64l44 63.5t33 53t14 32q3 20 -10.5 25t-28.5 5h-20l5 40h183l-5 -40h-37l-287 -401h-1q-4 -32 -6.5 -64 t-6.5 -64q-4 -37 -10 -73.5t-11 -73.5h68l-4 -40h-241l4 40h69l8 79.5t9 79.5q3 29 8.5 58t9.5 58h-1q-45 97 -83 196t-66 205h-47z" />
<glyph unicode="Z" horiz-adv-x="587" d="M-40.5 101q-1.5 -20 3 -38t18.5 -30v2q3 -59 19 -88.5t43 -43.5t65 -18.5t85 -11.5q53 -11 88.5 -13.5t67.5 1t68 12l90 20.5q22 10 36.5 28.5t25 40t19.5 43.5t21 41q18 36 31 78.5t13.5 83t-14 75.5t-50.5 58q1 17 22 35.5t45 37t42 36.5t14 34q14 24 22.5 50t-5.5 49 q-4 10 -11 20t2 17q21 20 30 44.5t8 49.5t-11 48.5t-26 40.5q-8 31 -28.5 48.5t-47.5 24.5t-57.5 4.5t-59.5 -12.5q-32 -10 -58 -12t-50 -0.5t-46.5 5t-46.5 3.5q-23 0 -49.5 -4.5t-57.5 -18.5q-1 -1 -5 -1q-3 0 -4 -1q-7 7 -19 8.5t-22 0.5q-11 0 -17 -6.5t-7 -14.5 q-33 -47 -65.5 -103t-52.5 -115t-20.5 -118.5t31.5 -114.5q0 -26 -8.5 -50.5t-19 -48.5t-20 -48.5t-11.5 -50.5q-7 -17 -13 -37t-7.5 -40zM48 25q2 16 20.5 49.5t48 78t68 97l79.5 107l83 108l78.5 99.5l65 81.5l44.5 54.5l-12 -4q-43 0 -85.5 1.5t-85.5 1.5q-8 0 -25 -0.5 t-36 -2.5t-35 -6t-21 -11q-12 -16 -14 -32t-6.5 -28.5t-17 -20.5t-44.5 -8q-5 0 -4 7q-2 29 3.5 61.5t8.5 61.5q3 23 10 31.5t31 8.5q94 0 184 -3.5t184 -3.5q21 0 46 11l20 -22l-8 -12t-9 -12q-22 -30 -40 -61.5t-38 -62.5l-64.5 -102l-66.5 -102q-57 -85 -116 -164.5 l-117 -163.5q51 -5 99 -6t97 -1q35 0 55.5 9.5t32.5 23.5t18.5 30.5t13.5 30.5t18 23.5t31 9.5q4 0 10 0.5t11 -0.5t8.5 -3.5t2.5 -8.5q-1 -9 -7.5 -29l-14.5 -42.5l-16 -43l-12 -30.5q-8 -17 -24.5 -21.5t-33.5 -4.5h-21q-93 0 -182.5 0.5t-182.5 0.5q-14 0 -24.5 4 t-7.5 21z" />
<glyph unicode="a" horiz-adv-x="1084" d="M88 147.5q4 -45.5 22 -81.5t52.5 -58t89.5 -22q57 0 107 25t87 70q9 10 18 22.5t10 25.5q1 7 -9 15t-16 10q-23 -42 -53.5 -68.5t-79.5 -26.5q-43 0 -69 24t-39 59.5t-15 77t3 76.5q4 33 14 76t29 81.5t49 65.5t74 27q33 0 46.5 -17t19 -37.5t9.5 -37.5t18 -17 q4 0 7 -0.5t7 -0.5q17 0 19.5 5.5t4.5 24.5l9 75q4 26 -13 37.5t-38 17.5q-17 5 -42.5 11.5t-53.5 16t-56 22t-50 28t-34.5 34t-9.5 41.5q2 21 13.5 33.5t27.5 18.5t34.5 8t34.5 2q46 0 92 -2.5t92 -2.5h36h29q14 0 29.5 0.5t36.5 2.5q13 2 35.5 7t35.5 5q-20 -42 -28 -85 t-17 -86q-5 -26 -10 -57.5t-10 -68.5l-67 -506q-1 -9 1 -14.5t12 -5.5q27 0 43.5 2t25.5 10t13 24t7 45q12 97 42 188t87 176q9 13 22.5 30.5t29.5 33t33.5 26t34.5 10.5q15 0 23 -6t11 -15t2.5 -20.5t-1.5 -23.5q-12 -94 -30.5 -186.5t-30.5 -186.5q-2 -20 -2.5 -40.5 t5 -37t18.5 -27t39 -10.5q32 0 63 7.5t63 13.5l-1 34q-2 -1 -1 -0.5t-1 0.5q-10 0 -20.5 -2.5t-21.5 -2.5q-18 0 -26 15t-10 36t-0.5 42.5t3.5 33.5l29 243q4 29 6 62.5t-5.5 61.5t-27 46.5t-58.5 18.5q-35 0 -70.5 -23.5t-68 -60.5t-61 -84t-49.5 -93q16 90 23 169.5 t9 142.5q7 49 15.5 98t21.5 98q24 11 37 30.5t16 43.5q1 9 -1.5 20.5t-14.5 11.5t-24.5 -9.5t-23.5 -22.5t-20.5 -27l-16.5 -24q-11 -2 -23 -5.5t-24 -5.5q-34 -7 -68 -9t-68 -2q-32 0 -58 1t-51 1.5t-51 1.5t-58 1q-26 0 -50.5 -5t-44.5 -16.5t-33.5 -31t-17.5 -49.5 q-4 -33 9 -58t35.5 -43.5t50.5 -31.5t54 -23h3l-1 -9h-2q-33 -17 -57.5 -33.5t-51.5 -44.5q-54 -57 -83 -126t-38 -141q-6 -47 -2 -92.5z" />
<glyph unicode="b" horiz-adv-x="1084" d="M88 147.5q4 -45.5 22 -81.5t52.5 -58t89.5 -22q57 0 107 25t87 70q9 10 18 22.5t10 25.5q1 7 -9 15t-16 10q-23 -42 -53.5 -68.5t-79.5 -26.5q-43 0 -69 24t-39 59.5t-15 77t3 76.5q4 33 14 76t29 81.5t49 65.5t74 27q33 0 46.5 -17t19 -37.5t9.5 -37.5t18 -17 q4 0 7 -0.5t7 -0.5q17 0 19.5 5.5t4.5 24.5l9 75q4 26 -13 37.5t-38 17.5q-17 5 -42.5 11.5t-53.5 16t-56 22t-50 28t-34.5 34t-9.5 41.5q2 21 13.5 33.5t27.5 18.5t34.5 8t34.5 2q46 0 92 -2.5t92 -2.5h36h29q14 0 29.5 0.5t36.5 2.5q13 2 35.5 7t35.5 5q-20 -42 -28 -85 t-17 -86q-5 -26 -10 -57.5t-10 -68.5l-67 -506q-1 -9 1 -14.5t12 -5.5q27 0 43.5 2t25.5 10t13 24t7 45q7 61 10.5 97t6.5 56q2 21 3 30.5t2 16.5h2l53 40q13 -46 34 -102.5t53 -106.5t75.5 -84t101.5 -34q48 0 95 22l-6 30q-15 -5 -32 -5q-36 0 -62.5 21t-47.5 53t-38 70 t-35 73.5t-38.5 63t-47.5 37.5h-1l239 194h58l4 36h-234l-4 -36q8 0 21 1.5t24 0.5t17 -6.5t1 -19.5q-3 -7 -18 -22.5t-37 -35l-47.5 -40.5l-49.5 -39.5t-44 -31.5t-30 -16l31 308q7 49 15 98t21 98q24 11 37 30.5t16 43.5q1 9 -1.5 20.5t-14.5 11.5t-24.5 -9.5t-23.5 -22.5 t-20.5 -27l-16.5 -24q-11 -2 -23 -5.5t-24 -5.5q-34 -7 -68 -9t-68 -2q-32 0 -58 1t-51 1.5t-51 1.5t-58 1q-26 0 -50.5 -5t-44.5 -16.5t-33.5 -31t-17.5 -49.5q-4 -33 9 -58t35.5 -43.5t50.5 -31.5t54 -23h3l-1 -9h-2q-33 -17 -57.5 -33.5t-51.5 -44.5q-54 -57 -83 -126 t-38 -141q-6 -47 -2 -92.5z" />
<glyph unicode="c" horiz-adv-x="789" d="M88 147.5q4 -45.5 22 -81.5t52.5 -58t89.5 -22q57 0 107 25t87 70q9 10 18 22.5t10 25.5q1 7 -9 15t-16 10q-23 -42 -53.5 -68.5t-79.5 -26.5q-43 0 -69 24t-39 59.5t-15 77t3 76.5q4 33 14 76t29 81.5t49 65.5t74 27q33 0 46.5 -17t19 -37.5t9.5 -37.5t18 -17 q4 0 7 -0.5t7 -0.5q17 0 19.5 5.5t4.5 24.5l9 75q4 26 -13 37.5t-38 17.5q-17 5 -42.5 11.5t-53.5 16t-56 22t-50 28t-34.5 34t-9.5 41.5q2 21 13.5 33.5t27.5 18.5t34.5 8t34.5 2q46 0 92 -2.5t92 -2.5q42 0 76 -0.5t77 3.5q6 1 15.5 3l19 4t18 3.5t12.5 1.5h6 q-20 -46 -29 -92.5t-20 -94.5l-21 -104l-33.5 -193t-28.5 -193q-3 -21 -6 -47t1 -49.5t17.5 -39.5t42.5 -16q38 0 75.5 9.5l74.5 18.5l-3 35q-14 -4 -29 -6.5t-30 -2.5q-16 0 -27 3.5t-15 20.5q-3 13 -2.5 36.5t2 49t4 50t3.5 39.5l18.5 142.5l18.5 142.5l13 98l11.5 81.5 t11.5 71t13 65.5h3q24 11 37 30.5t16 43.5q1 9 -1.5 20.5t-14.5 11.5q-13 0 -25 -9.5t-22.5 -22.5t-19 -27l-14.5 -24h-4q-11 -2 -23 -5.5t-24 -5.5q-34 -7 -68 -9t-68 -2q-65 0 -120 2.5t-120 2.5q-26 0 -50.5 -5t-44.5 -16.5t-33.5 -31t-17.5 -49.5q-4 -33 9 -58 t35.5 -43.5t50.5 -31.5t54 -23h3l-1 -9h-2q-33 -17 -57.5 -33.5t-51.5 -44.5q-54 -57 -83 -126t-38 -141q-6 -47 -2 -92.5zM792 56h1v1h-1v-1z" />
<glyph unicode="d" horiz-adv-x="823" d="M88 147.5q4 -45.5 22 -81.5t52.5 -58t89.5 -22q57 0 107 25t87 70q9 10 18 22.5t10 25.5q1 7 -9 15t-16 10q-23 -42 -53.5 -68.5t-79.5 -26.5q-43 0 -69 24t-39 59.5t-15 77t3 76.5q4 33 14 76t29 81.5t49 65.5t74 27q33 0 46.5 -17t19 -37.5t9.5 -37.5t18 -17 q4 0 7 -0.5t7 -0.5q17 0 19.5 5.5t4.5 24.5l9 75q4 26 -13 37.5t-38 17.5q-17 5 -42.5 11.5t-53.5 16t-56 22t-50 28t-34.5 34t-9.5 41.5q2 21 13.5 33.5t27.5 18.5t34.5 8t34.5 2q46 0 92 -2.5t92 -2.5q42 0 76 -0.5t77 3.5q6 1 15.5 3l19 4t18 3.5t12.5 1.5h6 q-20 -46 -29 -92.5t-20 -94.5q-5 -25 -16.5 -36.5t-37.5 -11.5h-10l-7 -56h50l-33.5 -193t-28.5 -193q-3 -21 -6 -47t1 -49.5t17.5 -39.5t42.5 -16q38 0 75.5 9.5l74.5 18.5l-3 35q-14 -4 -29 -6.5t-30 -2.5q-16 0 -27 3.5t-15 20.5q-3 13 -2.5 36.5t2 49t4 50t3.5 39.5 l18.5 142.5l18.5 142.5h120q30 0 35 30l3 27h-151l18.5 129.5t23.5 129.5h3q24 11 37 30.5t16 43.5q1 9 -1.5 20.5t-14.5 11.5q-13 0 -25 -9.5t-22.5 -22.5t-19 -27l-14.5 -24h-4q-11 -2 -23 -5.5t-24 -5.5q-34 -7 -68 -9t-68 -2q-65 0 -120 2.5t-120 2.5q-26 0 -50.5 -5 t-44.5 -16.5t-33.5 -31t-17.5 -49.5q-4 -33 9 -58t35.5 -43.5t50.5 -31.5t54 -23h3l-1 -9h-2q-33 -17 -57.5 -33.5t-51.5 -44.5q-54 -57 -83 -126t-38 -141q-6 -47 -2 -92.5zM792 56h1v1h-1v-1z" />
<glyph unicode="e" horiz-adv-x="607" d="M98 20q0 -12 1.5 -16t15.5 -4h18q14 0 27.5 3.5t21.5 17.5q5 9 10 32.5t9.5 50.5t8 52.5t4.5 37.5q10 78 16.5 155.5t15.5 155.5l4 31h230q-9 -34 -16 -68l-14 -69q-15 -73 -28.5 -145.5t-22.5 -147.5q-2 -20 -2.5 -40.5t5 -37.5t18.5 -27.5t39 -10.5q32 0 63 7.5 t64 12.5l-1 35q-25 -5 -44 -5q-17 0 -25.5 20.5t-10.5 52t0 69.5t6 73t8 62.5t5 38.5q7 58 10.5 115.5t3.5 115.5h-281q4 39 14 92t31 101.5t56 82t90 33.5q31 0 43 -15.5t17 -34.5t9.5 -34.5t20.5 -15.5q17 0 25 2t10 21q5 36 9 62t-1 42.5t-24 24.5t-61 8 q-59 0 -105.5 -24t-82.5 -62.5t-61.5 -87.5t-42.5 -100q-3 -7 -6.5 -18l-7 -22.5t-8 -21.5t-9.5 -15q-10 -14 -23.5 -16t-28.5 -2l-7 -56h49q-6 -30 -11 -60t-8 -60l-31 -251q-4 -33 -10 -70t-5 -70z" />
<glyph unicode="f" horiz-adv-x="587" d="M98 20q-1 -12 10 -17t25.5 -4.5t28.5 6.5t20 16q5 9 10 32.5t9.5 50.5t8 52.5t4.5 37.5q10 78 16.5 155.5t15.5 155.5l3 26h170q-14 -65 -21 -129l-28 -230q-4 -37 -10 -76t-6 -76q-1 -12 10 -17t25.5 -4.5t28.5 6.5t20 16q5 9 10 32.5t9.5 50.5t8 52.5t4.5 37.5 q10 78 16.5 155.5t15.5 155.5l3 26h121q14 0 17.5 6t4.5 19l4 31h-139q7 57 18.5 112t35.5 103q4 3 4 7q22 38 53.5 62.5t79.5 24.5q31 0 43 -15.5t17 -34.5t9.5 -34.5t20.5 -15.5q17 0 25 2t10 21q5 36 9 62t-1 42.5t-24 24.5t-61 8q-52 0 -94 -18.5t-75 -49.5 q4 35 -12 51.5t-75 16.5t-105.5 -24t-82.5 -62.5t-61.5 -87.5t-42.5 -100q-3 -7 -6.5 -18l-7 -22.5t-8 -21.5t-9.5 -15q-10 -14 -23.5 -16t-28.5 -2l-7 -56h49q-14 -65 -21 -129l-28 -230q-4 -37 -10 -76t-6 -76zM257 587l2 20q3 25 8.5 56.5t14.5 63.5t23 62.5t34 54 t46.5 38t62.5 14.5q24 0 36 -10t18 -23.5t8.5 -28.5t7.5 -25q-18 -29 -32.5 -62t-25.5 -65q-3 -7 -6.5 -18l-7 -22.5t-8 -21.5t-9.5 -15q-10 -14 -23.5 -16t-28.5 -2h-120z" />
<glyph unicode="g" horiz-adv-x="550" d="M89 -311q-3 -21 5.5 -36t24 -24.5t34.5 -14t37 -4.5q64 0 111.5 29.5t82 78t57 110t37.5 124.5t23 122.5t13 104.5q13 103 17.5 204t12.5 204h-287q4 39 14 92t31 101.5t56 82t90 33.5q31 0 43 -15.5t17 -34.5t9.5 -34.5t20.5 -15.5q17 0 25 2t10 21q5 36 9 62t-1 42.5 t-24 24.5t-61 8q-59 0 -105.5 -24t-82.5 -62.5t-61.5 -87.5t-42.5 -100q-3 -7 -6.5 -18l-7 -22.5t-8 -21.5t-9.5 -15q-10 -14 -23.5 -16t-28.5 -2l-7 -56h49q-6 -30 -11 -60t-8 -60l-31 -251q-4 -33 -10 -70t-5 -70q0 -12 1.5 -16t15.5 -4h18q14 0 27.5 3.5t21.5 17.5 q5 9 10 32.5t9.5 50.5t8 52.5t4.5 37.5q10 78 16.5 155.5t15.5 155.5l4 31h220q-3 -13 -5.5 -26t-4.5 -27q-2 -13 -3 -26t-3 -26q-7 -57 -16.5 -111t-16.5 -111q-9 -70 -14.5 -139.5t-14.5 -139.5q-2 -11 -3 -23.5t-3 -26.5q-5 -35 -14 -71.5t-25.5 -67.5t-43.5 -50.5 t-67 -19.5q-28 0 -43.5 13.5t-25 30t-14.5 30.5t-12 14q-11 0 -20 -7.5t-16 -18.5t-11 -23t-5 -21z" />
<glyph unicode="h" horiz-adv-x="629" d="M98 20q1 -11 2.5 -15.5t14.5 -4.5h18q14 0 27.5 3.5t21.5 17.5q5 9 10 32.5t9.5 51t8 52.5t4.5 37q10 78 16.5 155.5t15.5 155.5l3 26h137q14 0 18 5.5t5 19.5l4 31h-156q3 27 8.5 61t14.5 68t23 66.5t35 58t49.5 40.5t65.5 15q31 0 47 -10t22 -27t5 -39.5t-4 -47.5 q-6 -42 -13.5 -81.5t-14.5 -81.5q-22 -118 -38.5 -234t-30.5 -234q-3 -21 -5.5 -47t1 -49t16.5 -38.5t42 -15.5q32 0 63.5 7t63.5 12l-1 35q-22 -5 -42 -5q-18 0 -26.5 19t-11 47t-0.5 58t4 53q1 19 3 28q1 8 3 20.5t4 30.5l12 104.5l14.5 132l14.5 139.5t11.5 127.5t5.5 95 t-3 41.5q-6 6 -19 10t-27.5 6.5t-28.5 3.5t-23 1q-60 0 -107 -23.5t-82.5 -62.5t-61 -88.5t-42.5 -100.5q-3 -7 -6.5 -18l-7 -22.5t-8 -21.5t-9.5 -15q-10 -14 -23.5 -16t-28.5 -2l-7 -56h49q-7 -32 -11.5 -63t-8.5 -63l-28 -231q-5 -37 -11.5 -77.5t-5.5 -76.5z" />
<glyph unicode="i" horiz-adv-x="630" d="M98 20q-1 -12 10 -17t25.5 -4.5t28.5 6.5t20 16q5 9 10 32.5t9.5 50.5t8 52.5t4.5 37.5q10 78 16.5 155.5t15.5 155.5l3 26h225l-36 -211.5t-31 -211.5q-3 -20 -3.5 -40.5t4.5 -37t18.5 -27t39.5 -10.5q37 0 76 9t75 19l-4 35q-14 -4 -29 -6.5t-29 -2.5q-15 0 -27 4 t-16 20q-3 13 -2.5 39.5t2.5 56t5 57t5 43.5q8 66 17.5 132t17.5 132h107q29 0 34 30l3 27h-137l4.5 32.5t6 52.5t2.5 48q0 22 -7 22q-25 0 -37.5 -11.5t-19.5 -29t-10.5 -37.5t-9.5 -37.5t-17.5 -29t-34.5 -11.5h-184l2 20q3 25 8.5 56.5t14.5 63.5t23 62.5t34 54t46.5 38 t62.5 14.5q31 0 43 -15.5t17 -34.5t9.5 -34.5t20.5 -15.5q17 0 25 2t10 21q5 36 9 62t-1 42.5t-24 24.5t-61 8q-59 0 -105.5 -24t-82.5 -62.5t-61.5 -87.5t-42.5 -100q-3 -7 -6.5 -18l-7 -22.5t-8 -21.5t-9.5 -15q-10 -14 -23.5 -16t-28.5 -2l-7 -56h49q-14 -65 -21 -129 l-28 -230q-4 -37 -10 -76t-6 -76zM612 57h1l1 1h-1z" />
<glyph unicode="j" horiz-adv-x="840" d="M98 20q-1 -12 10 -17t25.5 -4.5t28.5 6.5t20 16q5 9 10 32.5t9.5 50.5t8 52.5t4.5 37.5q10 78 16.5 155.5t15.5 155.5l3 26l174 -1q-7 -30 -11.5 -60t-8.5 -60l-30 -251q-4 -33 -10 -70t-5 -70q0 -12 1 -16t15 -4h18q15 0 28.5 3.5t21.5 17.5q5 9 10 32.5t9.5 50.5 t8 52.5t4.5 37.5q10 78 16 155.5t16 155.5l4 31h230q-9 -34 -16 -68l-14 -69q-15 -73 -28.5 -145.5t-22.5 -147.5q-2 -20 -2.5 -40.5t5 -37.5t18.5 -27.5t39 -10.5q32 0 63 7.5t64 12.5l-1 35q-25 -5 -44 -5q-17 0 -25 20.5t-10.5 52t-0.5 69.5t5.5 73t7.5 62.5t6 38.5 q7 58 10.5 115.5t3.5 115.5h-281q3 26 8 59t14 67.5t22.5 67t34 58.5t48 41.5t64.5 15.5q31 0 43 -15.5t17 -34.5l9 -34.5t20 -15.5q17 0 25.5 2t10.5 21q5 36 9 62t-1 42.5t-24 24.5t-61 8q-54 0 -97 -20t-77 -52q2 19 0.5 32.5t-10.5 22.5t-27 13.5t-49 4.5 q-59 0 -105.5 -24t-82.5 -62.5t-61.5 -87.5t-42.5 -100q-3 -7 -6.5 -18l-7 -22.5t-8 -21.5t-9.5 -15q-10 -14 -23.5 -16t-28.5 -2l-7 -56h49q-14 -65 -21 -129l-28 -230q-4 -37 -10 -76t-6 -76zM257 587l2 20q3 25 8.5 56.5t14.5 63.5t23 62.5t34 54t46.5 38t62.5 14.5 q25 0 37 -10.5t18 -25.5t9 -30.5t9 -24.5q-18 -29 -32.5 -60.5t-25.5 -63.5l-32 -92z" />
<glyph unicode="k" horiz-adv-x="902" d="M111 20q-1 -12 10 -17t25.5 -4.5t28.5 6.5t20 16q5 9 10 32.5t9.5 50.5t8 52.5t4.5 37.5q10 78 16.5 155.5t15.5 155.5l3 26h174q-7 -32 -11.5 -63t-8.5 -63l-28 -231q-5 -37 -11.5 -77.5t-5.5 -76.5q1 -11 2.5 -15.5t14.5 -4.5h18q14 0 27.5 3.5t21.5 17.5q5 9 10 32.5 t9.5 51t8 52.5t4.5 37q10 78 16.5 155.5t15.5 155.5l3 26h137q14 0 18 5.5t5 19.5l4 31h-156q3 27 8.5 61t14.5 68t23 66.5t35 58t49 40.5t66 15q31 0 47 -10t22 -27t5 -39.5t-4 -47.5q-6 -42 -13.5 -81.5t-14.5 -81.5q-22 -118 -38.5 -234t-30.5 -234q-3 -21 -5.5 -47 t1 -49t16.5 -38.5t42 -15.5q32 0 63.5 7t63.5 12l-1 35q-22 -5 -42 -5q-18 0 -26.5 19t-11 47t-0.5 58t4 53q1 19 3 28q1 8 3 20.5t4 30.5l12 104.5l14.5 132l14.5 139.5t11.5 127.5t5.5 95t-3 41.5q-6 6 -19 10t-27.5 6.5t-28.5 3.5t-23 1q-54 0 -97.5 -19.5t-77.5 -51.5 q6 36 -10.5 53t-75.5 17t-105.5 -24t-82.5 -62.5t-61.5 -87.5t-42.5 -100q-3 -7 -6.5 -18l-7 -22.5t-8 -21.5t-9.5 -15q-10 -14 -23.5 -16t-28.5 -2l-7 -56h49q-14 -65 -21 -129l-28 -230q-4 -37 -10 -76t-6 -76zM270 587l2 20q3 25 8.5 56.5t14.5 63.5t23 62.5t34 54 t46.5 38t62.5 14.5q25 0 37 -10.5t18 -25t8.5 -29.5t8.5 -25q-18 -29 -31.5 -60.5t-24.5 -63.5q-3 -7 -6.5 -18l-7 -22.5t-8 -21.5t-9.5 -15q-10 -14 -23.5 -16t-28.5 -2h-124z" />
<glyph unicode="l" horiz-adv-x="903" d="M113 20q-1 -12 10 -17t25.5 -4.5t28.5 6.5t20 16q5 9 10 32.5t9.5 50.5t8 52.5t4.5 37.5q10 78 16.5 155.5t15.5 155.5l3 26h72h38q13 0 16 0.5t4 0.5v-1h49q-14 -65 -21 -129l-28 -230q-4 -37 -10 -76t-6 -76q-1 -12 10 -17t25.5 -4.5t28.5 6.5t20 16q5 9 10 32.5 t9.5 50.5t8 52.5t4.5 37.5q10 78 16.5 155.5t15.5 155.5l3 26h216l-36 -211.5t-31 -211.5q-3 -20 -3.5 -40.5t4.5 -37t18.5 -27t39.5 -10.5q37 0 76 9t75 19l-4 35q-14 -4 -29 -6.5t-29 -2.5q-15 0 -27 4t-16 20q-3 13 -2.5 39.5t2.5 56t5 57t5 43.5q8 66 17.5 132t17.5 132 h107q29 0 34 30l3 27h-137l4.5 32.5t6 52.5t2.5 48q0 22 -7 22q-25 0 -37.5 -11.5t-19.5 -29t-10.5 -37.5t-9.5 -37.5t-17.5 -29t-34.5 -11.5h-175l2 20q3 25 8.5 56.5t14.5 63.5t23 62.5t34 54t46.5 38t62.5 14.5q31 0 43 -15.5t17 -34.5t9.5 -34.5t20.5 -15.5q17 0 25 2 t10 21q5 36 9 62t-1 42.5t-24 24.5t-61 8q-57 0 -100.5 -21.5t-78.5 -56.5q2 20 1 34.5t-9.5 24.5t-27 14.5t-50.5 4.5q-59 0 -105.5 -24t-82.5 -62.5t-61.5 -87.5t-42.5 -100q-3 -7 -6.5 -18l-7 -22.5t-8 -21.5t-9.5 -15q-10 -14 -23.5 -16t-28.5 -2l-7 -56h49 q-14 -65 -21 -129l-28 -230q-4 -37 -10 -76t-6 -76zM272 587l2 20q3 25 8.5 56.5t14.5 63.5t23 62.5t34 54t46.5 38t62.5 14.5q26 0 38 -11.5t17.5 -27t8 -31.5t10.5 -24q-17 -29 -30 -59t-23 -61q-3 -7 -6.5 -18l-7 -22.5t-8 -21.5t-9.5 -15q-10 -14 -23.5 -16t-28.5 -2 h-129zM883 57h1l1 1h-1z" />
<glyph unicode="m" horiz-adv-x="707" d="M33 59q-3 -24 11.5 -39.5t37 -24t47.5 -12t43 -3.5q42 0 81.5 14.5t71 40t52 61.5t25.5 79q5 41 -9 72t-37.5 55.5t-51.5 45t-52.5 41t-39.5 42.5t-12 50q4 35 30.5 52.5t58.5 17.5q25 0 38.5 -7t19.5 -17.5t7.5 -23t4.5 -23t9 -17.5t21 -7q7 0 12 5.5t8 13t5 16.5t3 17 q1 5 1.5 9.5t0.5 6.5q2 14 2 31q0 18 -12 27q-8 7 -19.5 9.5t-22.5 4.5l-40 11t-53.5 17t-57 23t-51 28.5t-35.5 34t-10 39.5q2 21 16 33.5t33 19t39.5 8t36.5 1.5q60 0 118.5 -2.5t118.5 -2.5q29 0 58 0.5t58 4.5q2 0 11.5 2t20 4.5t18 3t6.5 -2.5q-23 -32 -40 -69t-29 -74 q-3 -7 -6.5 -18l-7 -22.5t-8 -21.5t-9.5 -15q-10 -14 -23.5 -16t-28.5 -2l-7 -56h49q-7 -32 -11.5 -64.5t-8.5 -64.5l-28 -230l-10.5 -76t-6.5 -76q0 -12 11 -17t25 -4.5t28 6.5t20 16q5 9 10 32.5t9.5 50.5t8 52.5t4.5 37.5q10 78 16.5 155.5t15.5 155.5l3 26h121 q14 0 17.5 6t4.5 19l4 31h-139l3 20q3 25 8 56.5t14 63.5t23 62.5t34 54t47 38t62 14.5q31 0 43 -15.5t17 -34.5t9.5 -34.5t20.5 -15.5q17 0 25 2t10 21q5 36 9 62t-1 42.5t-24 24.5t-61 8t-77.5 -12.5t-66.5 -34.5q-18 -8 -31 -15t-25 -12.5t-24.5 -10t-29.5 -7.5 q-34 -7 -67 -8.5t-66 -1.5q-63 0 -126.5 2.5t-126.5 2.5q-25 0 -50 -4.5t-46 -16t-36 -31t-19 -48.5q-4 -33 10 -58.5t38 -45t52.5 -33t53.5 -23.5h3l-1 -8h-3q-54 -25 -85 -63t-38 -95q-5 -41 9.5 -70.5t38.5 -52.5t53 -42t53.5 -39t39.5 -44t11 -56q-4 -41 -36 -64 t-70 -23q-37 0 -59.5 15t-36 33.5t-20.5 33.5t-13 15q-10 0 -19 -8.5t-16.5 -20t-12 -24t-5.5 -20.5z" />
<glyph unicode="n" horiz-adv-x="1012" d="M33 59q-3 -24 11.5 -39.5t37 -24t47.5 -12t43 -3.5q42 0 81.5 14.5t71 40t52 61.5t25.5 79q5 41 -9 72t-37.5 55.5t-51.5 45t-52.5 41t-39.5 42.5t-12 50q4 35 30.5 52.5t58.5 17.5q25 0 38.5 -7t19.5 -17.5t7.5 -23t4.5 -23t9 -17.5t21 -7q7 0 12 5.5t8 13t5 16.5t3 17 q1 5 1.5 9.5t0.5 6.5q2 14 2 31q0 18 -12 27q-8 7 -19.5 9.5t-22.5 4.5l-40 11t-53.5 17t-57 23t-51 28.5t-35.5 34t-10 39.5q2 21 16 33.5t33 19t39.5 8t36.5 1.5q30 0 55 -1t49.5 -1.5t49.5 -1.5t55 -1q29 0 58 0.5t58 4.5q11 1 27.5 5.5t30.5 4.5q-11 -24 -18 -48 q-7 -18 -11.5 -35t-8 -36.5t-6.5 -42t-6 -50.5q-2 -19 -5 -41t-7 -48l-68 -506q-1 -9 1.5 -14.5t12.5 -5.5q27 0 43 2t25 10t13 24t8 45q11 97 41.5 188t87.5 176q9 13 22.5 30.5t29.5 33t33 26t34 10.5q15 0 23 -6t11.5 -15t3 -20.5t-2.5 -23.5q-11 -94 -30 -186.5 t-30 -186.5q-3 -20 -3.5 -40.5t5 -37t19 -27t39.5 -10.5q32 0 63 7.5t62 13.5l-1 34q-2 -1 -1 -0.5t-1 0.5q-10 0 -20 -2.5t-21 -2.5q-18 0 -26 15t-10 36t-0.5 42.5t2.5 33.5l30 243q4 29 6 62.5t-5.5 61.5t-27 46.5t-58.5 18.5q-36 0 -71.5 -23.5t-68 -60.5t-60.5 -84 t-50 -93q11 82 17 138.5t10 97.5t6.5 71.5t6 60t9 63t15.5 81.5h3q24 11 37 30.5t16 43.5q1 9 -1.5 20.5t-14.5 11.5q-13 0 -25 -9.5t-22.5 -22.5t-19 -27l-14.5 -24h-4q-12 -2 -25 -6t-25 -6q-34 -7 -67 -8.5t-66 -1.5q-32 0 -59 1t-53.5 1.5t-54 1.5t-58.5 1 q-25 0 -50 -4.5t-46 -16t-36 -31t-19 -48.5q-4 -33 10 -58.5t38 -45t52.5 -33t53.5 -23.5h3q-57 -31 -88.5 -70t-38.5 -96q-5 -41 9.5 -70.5t38.5 -52.5t53 -42t53.5 -39t39.5 -44t11 -56q-4 -41 -36 -64t-70 -23q-37 0 -59.5 15t-36 33.5t-20.5 33.5t-13 15q-10 0 -19 -8.5 t-16.5 -20t-12 -24t-5.5 -20.5z" />
<glyph unicode="o" horiz-adv-x="1029" d="M33 59q-3 -24 11.5 -39.5t37 -24t47.5 -12t43 -3.5q42 0 79.5 14.5t67 40t48.5 61.5t24 79q5 41 -8.5 72t-36 55.5t-49.5 45t-49.5 41t-36.5 42.5t-11 50q4 35 30.5 52.5t58.5 17.5q25 0 38.5 -7t19.5 -17.5t7.5 -23t4.5 -23t9 -17.5t21 -7q7 0 12 5.5t8 13t5 16.5t3 17 q1 5 1.5 9.5t0.5 6.5q2 14 2 31q0 18 -12 27q-8 7 -19.5 9.5t-22.5 4.5l-40 11t-53.5 17t-57 23t-51 28.5t-35.5 34t-10 39.5q2 21 16 33.5t33 19t39.5 8t36.5 1.5q30 0 55 -1t49 -1.5t49 -1.5t55 -1q29 0 58 0.5t58 4.5q11 1 27.5 5.5t30.5 4.5q-11 -24 -18 -48 q-7 -18 -11.5 -35t-8 -36.5t-6.5 -42t-6 -50.5q-2 -19 -5 -41t-7 -48l-68 -506q-1 -9 1.5 -14.5t12.5 -5.5q27 0 43 2t25 10t13 24t8 45l20 208h1l54 40q12 -46 33 -102.5t53 -106.5t76 -84t101 -34q48 0 96 22l-7 30q-15 -5 -31 -5q-36 0 -62.5 21t-47.5 53t-38.5 70 l-35.5 73.5t-38.5 63t-47.5 37.5h-1l239 194h58l5 36h-234l-5 -36q8 0 19.5 0.5t22 -1t17 -6.5t4.5 -17q-1 -8 -15 -23t-35 -34.5t-47 -40l-50.5 -38.5t-45 -31.5t-31.5 -17.5l16.5 133.5t10 94.5l6 69.5t6 58.5t9 62.5t14.5 81.5h3q24 11 37 30.5t16 43.5q1 9 -1.5 20.5 t-14.5 11.5q-13 0 -25 -9.5t-22.5 -22.5t-19 -27l-14.5 -24h-4q-12 -2 -25 -6t-25 -6q-34 -7 -67 -8.5t-66 -1.5q-32 0 -59 1t-53.5 1.5t-53.5 1.5t-58 1q-25 0 -50 -4.5t-46 -16t-36 -31t-19 -48.5q-4 -33 10 -58.5t38 -45t52.5 -33t53.5 -23.5h3q-57 -31 -88.5 -70 t-38.5 -96q-5 -41 9.5 -70.5t38.5 -52.5t53 -42t53.5 -39t39.5 -44t11 -56q-4 -41 -36 -64t-70 -23q-37 0 -59.5 15t-36 33.5t-20.5 33.5t-13 15q-10 0 -19 -8.5t-16.5 -20t-12 -24t-5.5 -20.5z" />
<glyph unicode="p" horiz-adv-x="683" d="M33 59q-3 -24 11.5 -39.5t37 -24t47.5 -12t43 -3.5q42 0 81.5 14.5t71 40t52 61.5t25.5 79q5 41 -9 72t-37.5 55.5t-51.5 45t-52.5 41t-39.5 42.5t-12 50q4 35 30.5 52.5t58.5 17.5q25 0 38.5 -7t19.5 -17.5t7.5 -23t4.5 -23t9 -17.5t21 -7q7 0 12 5.5t8 13t5 16.5t3 17 q1 5 1.5 9.5t0.5 6.5q2 14 2 31q0 18 -12 27q-8 7 -19.5 9.5t-22.5 4.5l-40 11t-53.5 17t-57 23t-51 28.5t-35.5 34t-10 39.5q2 21 16 33.5t33 19t39.5 8t36.5 1.5q30 0 54 -1t47.5 -1.5t47.5 -1.5t54 -1q29 0 58 0.5t58 4.5q5 0 14 1t19 2.5t18.5 4t13.5 6.5 q-13 -30 -21.5 -55t-14.5 -49t-10.5 -50.5l-10.5 -59.5l-38 -233.5t-32 -233.5q-3 -21 -6 -47t1 -49.5t17 -39.5t43 -16q32 0 63.5 8t63.5 13l-1 35l-21.5 -4t-21.5 -2q-17 0 -25.5 10t-11.5 24t-2 30.5t3 28.5l17 188t19 188l6 58t7 58q7 58 12 119q4 21 8 45t11 55h3 q24 11 37 30.5t16 43.5q1 9 -1.5 20.5t-14.5 11.5t-24.5 -9.5t-23.5 -22.5t-20.5 -27l-16.5 -24q-12 -2 -25 -6t-25 -6q-34 -7 -67 -8.5t-66 -1.5q-32 0 -58 1t-51.5 1.5t-52 1.5t-57.5 1q-25 0 -50 -4.5t-46 -16t-36 -31t-19 -48.5q-4 -33 10 -58.5t38 -45t52.5 -33 t53.5 -23.5h3q-57 -31 -88.5 -70t-38.5 -96q-5 -41 9.5 -70.5t38.5 -52.5t53 -42t53.5 -39t39.5 -44t11 -56q-4 -41 -36 -64t-70 -23q-37 0 -59.5 15t-36 33.5t-20.5 33.5t-13 15q-10 0 -19 -8.5t-16.5 -20t-12 -24t-5.5 -20.5z" />
<glyph unicode="q" horiz-adv-x="960" d="M33 59q-3 -24 11.5 -39.5t37 -24t47.5 -12t43 -3.5q42 0 80.5 14.5t68.5 40t49.5 61.5t24.5 79q5 41 -8.5 72t-36 55.5t-50 45t-51 41t-38 42.5t-11.5 50q4 35 30.5 52.5t58.5 17.5q25 0 38.5 -7t19.5 -17.5t7.5 -23t4.5 -23t9 -17.5t21 -7q7 0 12 5.5t8 13t5 16.5t3 17 q1 5 1.5 9.5t0.5 6.5q2 14 2 31q0 18 -12 27q-8 7 -19.5 9.5t-22.5 4.5l-40 11t-53.5 17t-57 23t-51 28.5t-35.5 34t-10 39.5q2 21 16 33.5t33 19t39.5 8t36.5 1.5q60 0 111.5 -2.5t111.5 -2.5q29 0 58 0.5t58 4.5q11 1 27 5.5t25 4.5h6q-9 -20 -15.5 -39t-11.5 -39 q-12 -70 -19 -117t-11 -65h-2q-45 -25 -80 -53t-70 -64l24 -28q25 26 54 47.5t66 40.5l-35.5 -211.5t-30.5 -213.5l-28 -225l-29 -225v-13q0 -9 8 -9q24 0 32.5 13t18.5 33q19 33 30.5 61t18.5 55t11.5 56t8.5 64q2 13 3 26t3 26t3 26t3 26q8 1 26.5 -2.5t30.5 -3.5 q63 0 113 29.5t86 75.5t58 103t29 112q7 60 -1.5 113t-35 92.5t-71.5 62.5t-111 23q-12 0 -25 -2t-30 -2l11 84.5t9.5 65.5t9.5 53.5t11 48.5q27 11 40 30.5t16 43.5q1 9 -1.5 20.5t-14.5 11.5q-13 0 -25 -9.5t-22.5 -22.5t-19 -27l-14.5 -24h-4q-12 -2 -25 -6t-25 -6 q-34 -7 -67 -8.5t-66 -1.5q-63 0 -119.5 2.5t-119.5 2.5q-25 0 -50 -4.5t-46 -16t-36 -31t-19 -48.5q-4 -33 10 -58.5t38 -45t52.5 -33t53.5 -23.5h3l-1 -8h-3q-54 -25 -85 -63t-38 -95q-5 -41 9.5 -70.5t38.5 -52.5t53 -42t53.5 -39t39.5 -44t11 -56q-4 -41 -36 -64 t-70 -23q-37 0 -59.5 15t-36 33.5t-20.5 33.5t-13 15q-10 0 -19 -8.5t-16.5 -20t-12 -24t-5.5 -20.5zM601 55l60 487q8 -1 19 1t21 2q49 0 78 -29.5t42.5 -72t15.5 -91t-3 -86.5q-4 -35 -13 -75.5t-27.5 -75t-48 -58t-74.5 -23.5q-19 0 -36.5 5t-33.5 16z" />
<glyph unicode="r" horiz-adv-x="762" d="M33 59q-3 -24 11.5 -39.5t37 -24t47.5 -12t43 -3.5q42 0 81.5 14.5t71 40t52 61.5t25.5 79q5 41 -9 72t-37.5 55.5t-51.5 45t-52.5 41t-39.5 42.5t-12 50q4 35 30.5 52.5t58.5 17.5q25 0 38.5 -7t19.5 -17.5t7.5 -23t4.5 -23t9 -17.5t21 -7h8q4 0 7.5 5.5t6 13t4 16.5 t2.5 17q1 5 1.5 9.5t0.5 6.5q2 14 2 31q0 18 -12 27q-8 7 -19.5 9.5t-22.5 4.5l-40 11t-53.5 17t-57 23t-51 28.5t-35.5 34t-10 39.5q2 21 16 33.5t33 19t39.5 8t36.5 1.5q60 0 118.5 -2.5t118.5 -2.5q29 0 58 0.5t58 4.5q11 1 27 5.5t25 4.5h6q-20 -46 -29 -92.5t-20 -94.5 q-7 -32 -20.5 -40t-43.5 -8l-7 -56h50l-36.5 -211.5t-30.5 -211.5q-3 -20 -3.5 -40.5t5 -37t19 -27t39.5 -10.5q37 0 75.5 9.5l74.5 18.5l-2 34v1q-13 0 -29 -4.5t-31 -4.5q-16 0 -27 4t-15 20q-2 11 -3 26.5t0 33.5t2.5 37t3.5 37q2 12 3 22t2 18l18 143l18 143h120 q30 0 35 30l3 27h-151l18.5 129.5t23.5 129.5h3q24 11 37 30.5t16 43.5q1 9 -1.5 20.5t-14.5 11.5q-13 0 -25 -9.5t-22.5 -22.5t-19 -27l-14.5 -24h-4q-12 -2 -25 -6t-25 -6q-34 -7 -67 -8.5t-66 -1.5q-63 0 -126.5 2.5t-126.5 2.5q-25 0 -50 -4.5t-46 -16t-36 -31 t-19 -48.5q-4 -33 10 -58.5t38 -45t52.5 -33t53.5 -23.5h3l-1 -8h-3q-54 -25 -85 -63t-38 -95q-5 -41 9.5 -70.5t38.5 -52.5t53 -42t53.5 -39t39.5 -44t11 -56q-4 -41 -36 -64t-70 -23q-37 0 -59.5 15t-36 33.5t-20.5 33.5t-13 15q-10 0 -19 -8.5t-16.5 -20t-12 -24 t-5.5 -20.5z" />
<glyph unicode="s" horiz-adv-x="320" d="M98 20q-1 -12 10 -17t25.5 -4.5t28.5 6.5t20 16q5 9 10 32.5t9.5 50.5t8 52.5t4.5 37.5q10 78 16.5 155.5t15.5 155.5l13 102q3 25 8.5 56.5t14.5 63.5t23 62.5t34 54t46.5 38t62.5 14.5q31 0 43 -15.5t17 -34.5t9.5 -34.5t20.5 -15.5q17 0 25 2t10 21q5 36 9 62t-1 42.5 t-24 24.5t-61 8q-59 0 -106 -24t-83 -62.5t-61.5 -87.5t-42.5 -100q-12 -35 -22.5 -78t-18.5 -83.5t-13 -73l-7 -45.5l-28 -230q-4 -37 -10 -76t-6 -76z" />
<glyph unicode="t" horiz-adv-x="636" d="M105.5 66.5q-0.5 -20.5 4.5 -37t18.5 -27t39.5 -10.5q37 0 76 9t75 19l-4 35q-14 -4 -29 -6.5t-29 -2.5q-15 0 -27 4t-16 20q-3 13 -2.5 39.5t2.5 56t5 57t5 43.5q8 66 17.5 132t17.5 132h113h60q20 0 24 0.5t6 0.5l27 1l-36 -212t-31 -212q-3 -20 -3.5 -40.5t4.5 -37 t18.5 -27t39.5 -10.5q37 0 76 9t75 19l-4 35q-14 -4 -29 -6.5t-29 -2.5q-15 0 -27 4t-16 20q-3 13 -2.5 39.5t2.5 56t5 57t5 43.5q8 66 17.5 132t17.5 132h107q29 0 34 30l3 27h-137l4.5 32.5t6 52.5t2.5 48q0 22 -7 22q-25 0 -37.5 -11.5t-19.5 -29t-10.5 -37.5t-9.5 -37.5 t-17.5 -29t-34.5 -11.5h-190l4.5 32.5t6 52.5t2.5 48q0 22 -7 22q-25 0 -37.5 -11.5t-19.5 -29t-10.5 -37.5t-9.5 -37.5t-17.5 -29t-34.5 -11.5h-11l-7 -56h51l-36.5 -211.5t-30.5 -211.5q-3 -20 -3.5 -40.5zM314 56h1v1h-1v-1zM627 57h1l1 1h-1z" />
<glyph unicode="u" horiz-adv-x="1240" d="M70 577q-1 -5 6.5 -6t14.5 -1h9q16 0 23.5 10t11.5 25t7.5 32t13 32t27.5 25t51 10q12 0 24.5 0.5t24.5 0.5h54q-22 -104 -39 -207.5t-28 -208.5q-7 -63 -11 -124.5t-6 -124.5h-70l-4 -40h233l4 40h-72q11 63 20.5 127t16.5 128q5 48 7 96.5t3.5 97t3.5 97t7 96.5l2 23 q18 0 36.5 0.5t36.5 0.5h7q10 0 24 -0.5t27.5 -2.5t25 -6t16.5 -11q7 -11 9 -30t5 -38.5t9 -33.5t21 -14q4 0 8 -0.5t9 -0.5q12 0 16 10q-1 5 -0.5 20t1.5 35.5t1.5 42.5t0.5 41t-1.5 31t-5.5 12h-11q-8 5 -19 7.5t-21 4.5q-16 4 -41 11t-53.5 17t-57 23t-51 29t-36 34 t-11.5 39t16 33.5t33 19t39.5 8t36.5 1.5q60 0 111 -2.5t111 -2.5h25q12 0 23 0.5t22.5 1.5t26.5 3q11 1 25.5 3t30.5 10q-35 -118 -53 -237t-32 -239l-59 -506q-1 -9 1.5 -14.5t12.5 -5.5q27 0 43 2t25 10t13 24t7 45q10 96 38.5 188t84.5 176l22 30.5t28.5 33t32.5 26 t34 10.5q15 0 23 -6t11.5 -15t3.5 -21q0 -11 -1 -23q-10 -94 -27 -186.5t-27 -186.5q-2 -20 -2.5 -40.5t5.5 -37t19.5 -27t39.5 -10.5q32 0 62.5 7.5t62.5 13.5q-3 25 -2.5 29.5t-1.5 4.5q-10 0 -20 -2.5t-21 -2.5q-18 0 -26.5 15t-11 36t-1 42.5t2.5 33.5l25 243 q3 29 4.5 62.5t-6 61.5t-27.5 46.5t-59 18.5q-36 0 -71 -23.5t-66.5 -60.5t-59 -84t-48.5 -93q5 28 8.5 55t5.5 53q10 95 14 180t13 168q5 57 15 113t27 115q27 11 40 30.5t15 43.5q1 9 -1.5 20.5t-14.5 11.5t-24 -9.5t-23 -22.5t-20.5 -27t-15.5 -24q-12 -2 -25 -6t-25 -6 q-17 -3 -30.5 -5t-26.5 -3t-26.5 -1.5t-29.5 -0.5q-63 0 -119.5 2.5t-119.5 2.5q-24 0 -49.5 -4.5t-46.5 -16t-35.5 -31t-17.5 -48.5q-4 -33 10.5 -58.5t38.5 -44.5t53 -33t54 -24l12 -6t12 -7q-32 -1 -62.5 -1.5t-61.5 -0.5q-63 0 -125.5 2t-125.5 2q-8 0 -8 -10l-1 -3 q-1 -12 -5 -25l-8 -25l-17.5 -59t-11.5 -59z" />
<glyph unicode="x" horiz-adv-x="1036" d="M85 146q1 -43 13.5 -78.5t41 -58.5t79.5 -23q54 0 105 24t88 66l16.5 19.5t10.5 21.5q0 4 -2.5 10t-6.5 10t-8.5 5t-8.5 -4q-24 -32 -57 -54.5t-73 -22.5q-29 0 -47.5 10.5t-28.5 28.5t-13 41t-1 48q56 0 108.5 18t94.5 52t70 81.5t35 106.5q8 69 -24 111.5t-102 42.5 q-68 0 -118.5 -38t-85.5 -94.5t-55.5 -121t-27.5 -118.5q-4 -40 -3 -83zM195 275q2 18 6.5 46t12 59t18.5 62t26.5 56t36.5 40.5t47 15.5q24 0 39 -12.5t23 -31t10 -41t0 -42.5q-5 -37 -21.5 -71.5t-42.5 -61t-59.5 -42.5t-72.5 -16q-19 0 -22 12t-1 27zM469 -5l38 3.5 t29.5 6t26 13t27.5 23.5q5 4 16.5 18l26.5 33l31 40l30.5 38.5t25 29t13.5 11.5q6 0 14.5 -16.5t20 -41.5t27.5 -54t37.5 -54t49 -41.5t62.5 -16.5q26 0 50.5 5t50.5 11l-5 36q-16 -4 -36 -4q-23 0 -38.5 11t-26.5 28q-38 55 -64 117l-51 125l187 230h55l4 36h-176l-3 -36 h10q12 0 23.5 -2.5t11.5 -8.5q-1 -5 -10.5 -19t-23 -32t-30 -37l-31.5 -35t-26 -26.5t-14 -10.5q-10 0 -12 11q-22 51 -47.5 99l-49.5 97h-113l-4 -36h62q19 -69 40 -135.5t38 -135.5h-1l-167 -205q-9 -11 -16.5 -19t-15.5 -12.5t-18 -6.5t-24 -2z" />
<glyph unicode="&#xaa;" horiz-adv-x="1084" d="M88 147.5q4 -45.5 22 -81.5t52.5 -58t89.5 -22q57 0 107 25t87 70q9 10 18 22.5t10 25.5q1 7 -9 15t-16 10q-23 -42 -53.5 -68.5t-79.5 -26.5q-43 0 -69 24t-39 59.5t-15 77t3 76.5q4 33 14 76t29 81.5t49 65.5t74 27q33 0 46.5 -17t19 -37.5t9.5 -37.5t18 -17 q4 0 7 -0.5t7 -0.5q17 0 19.5 5.5t4.5 24.5l9 75q4 26 -13 37.5t-38 17.5q-17 5 -42.5 11.5t-53.5 16t-56 22t-50 28t-34.5 34t-9.5 41.5q2 21 13.5 33.5t27.5 18.5t34.5 8t34.5 2q46 0 92 -2.5t92 -2.5h36h29q14 0 29.5 0.5t36.5 2.5q13 2 35.5 7t35.5 5q-20 -42 -28 -85 t-17 -86q-5 -26 -10 -57.5t-10 -68.5l-67 -506q-1 -9 1 -14.5t12 -5.5q27 0 43.5 2t25.5 10t13 24t7 45q12 97 42 188t87 176q9 13 22.5 30.5t29.5 33t33.5 26t34.5 10.5q15 0 23 -6t11 -15t2.5 -20.5t-1.5 -23.5q-12 -94 -30.5 -186.5t-30.5 -186.5q-2 -20 -2.5 -40.5 t5 -37t18.5 -27t39 -10.5q32 0 63 7.5t63 13.5l-1 34q-2 -1 -1 -0.5t-1 0.5q-10 0 -20.5 -2.5t-21.5 -2.5q-18 0 -26 15t-10 36t-0.5 42.5t3.5 33.5l29 243q4 29 6 62.5t-5.5 61.5t-27 46.5t-58.5 18.5q-35 0 -70.5 -23.5t-68 -60.5t-61 -84t-49.5 -93q16 90 23 169.5 t9 142.5q7 49 15.5 98t21.5 98q24 11 37 30.5t16 43.5q1 9 -1.5 20.5t-14.5 11.5t-24.5 -9.5t-23.5 -22.5t-20.5 -27l-16.5 -24q-11 -2 -23 -5.5t-24 -5.5q-34 -7 -68 -9t-68 -2q-32 0 -58 1t-51 1.5t-51 1.5t-58 1q-26 0 -50.5 -5t-44.5 -16.5t-33.5 -31t-17.5 -49.5 q-4 -33 9 -58t35.5 -43.5t50.5 -31.5t54 -23h3l-1 -9h-2q-33 -17 -57.5 -33.5t-51.5 -44.5q-54 -57 -83 -126t-38 -141q-6 -47 -2 -92.5z" />
<glyph unicode="&#xac;" horiz-adv-x="1024" d="M18 658h49l4 58h109v-313h-139v-407h824q33 0 59 8.5t44 23.5t27.5 34.5t9.5 41.5q0 43 -22.5 68t-59.5 37q25 12 40.5 34.5t15.5 53.5q0 17 -4 31.5t-15 27.5h3v140h-47l-4 -93h-292v188h-231v125h53v48h-415zM90 44v312h140v360h108v-173h232v-139h-53v-48h2l75 -186 h-192l-20 -47h230l32 -79h-554zM338 405l13 -178h48l12 178h-73zM568 356h266q30 0 48 -6.5t28.5 -16t14 -20t3.5 -18.5q0 -28 -25 -46.5t-60 -18.5h-114v-48h103q8 0 28 -1.5t40.5 -8t36.5 -21t16 -40.5t-12.5 -39.5t-32 -20t-42 -7.5t-43.5 -1h-124v1h-3zM663 542h153v-51 h47v151h-47v-52h-103v125h193l8 -92h46l-3 140h-294v-221z" />
<glyph unicode="&#xb2;" horiz-adv-x="972" d="M84 0h205l4 40h-66q8 42 14 82.5t11 82.5l21 165h315q-12 -54 -17.5 -108.5t-8.5 -108.5l-4 -56.5l-4 -55.5h-52l-4 -41l430 1q9 0 17 24t14.5 54t11.5 57.5t8 33.5q-25 11 -38 7t-21 -17.5t-15 -32t-19.5 -35t-33.5 -28.5t-58 -12q-51 0 -87 1.5t-44 11.5 q-5 16 -3.5 50.5t6.5 77.5t11.5 89t10.5 86h179q16 0 25 5.5t11 22.5l4 32h-212q4 66 11 135t12 138q5 0 15.5 1t22.5 1.5t24 1.5t20 1h74q34 0 47.5 -9.5t16.5 -44.5v-20q0 -11 2 -21.5t7.5 -18t17.5 -7.5q18 0 24.5 0.5t8.5 21.5q8 50 12 80t5.5 45.5t0.5 20t-4 4.5h-422 l1 -1h-1l-5 -39h65l2 -1q-17 -72 -31 -144.5t-24 -144.5h-319q16 144 27 288h63l5 40l-197 1l-5 -40h67q-24 -109 -43 -215t-33 -215q-7 -63 -12.5 -123t-9.5 -123h-52z" />
<glyph unicode="&#xb3;" horiz-adv-x="1075" d="M85 0h205l4 40h-66q12 62 20 117t14 112q2 19 5 39t5 40h314q-6 -30 -10 -56.5t-6.5 -51t-4 -49.5t-3.5 -53l-4 -49.5t-3 -48.5h-52l-4 -40h206l4 40h-66q6 35 12 74.5l12 79.5t11 79.5t9 75.5q21 0 43 1t48 1l15.5 -70t20.5 -79.5t28 -79t38 -68.5t50.5 -48.5 t65.5 -18.5q20 0 39 4t38 10l-6 35q-12 -4 -29 -4q-29 0 -47 21t-29.5 54t-20 72.5t-19 77.5t-25.5 68.5t-40 44.5q78 30 125 78t57 130q7 54 -4.5 89.5t-37.5 56.5t-66 29.5t-89 8.5q-57 0 -113 -2.5t-113 -3.5h-25l-5 -40h67q-17 -73 -31.5 -156l-26.5 -155h-318 l16.5 155.5t14.5 155.5h64l5 40h-200l-5 -40h67q-13 -53 -23 -103t-19 -99.5t-16.5 -99.5t-14.5 -104q-7 -63 -14 -135t-11 -135h-52zM694 403q5 41 8.5 78.5t6.5 74t5.5 74.5t5.5 79q12 -1 24.5 0.5t25.5 1.5q91 0 131.5 -36t29.5 -129q-10 -80 -51.5 -113.5t-122.5 -33.5 q-16 0 -32 2.5t-31 1.5z" />
<glyph unicode="&#xb6;" horiz-adv-x="955" d="M20 393q0 -11 8.5 -30t26 -38t43.5 -33t62 -14q38 0 58 10t29 26t10 36.5t1.5 42.5t3 43t15 38t38 28.5t71.5 13.5q7 -15 16.5 -27l18.5 -23t15 -23.5t6 -30.5q-14 -27 -38 -52t-52 -49.5l-57 -48.5t-51.5 -48.5t-35.5 -49.5t-10 -52q17 -32 50.5 -39t68.5 16 q0 15 -1.5 27t-2 23t1.5 21.5t9 24.5l21 35q15 -36 18 -66t1 -56t-6.5 -49.5t-4.5 -46.5h75q6 28 4.5 56t-4.5 53.5t-4.5 47t5 37t23.5 24.5t51 9q19 0 27 0.5t10 -0.5t1.5 -4t2.5 -9q-11 -30 -5 -62.5t17.5 -65l23 -64t11.5 -60.5q41 -1 53.5 12t8.5 35t-17.5 49.5 t-24.5 56.5t-13 56t18 47q5 -5 12.5 -24.5t16.5 -45.5l20 -55.5t23 -54t24.5 -40.5t25.5 -16q19 0 29.5 3.5t16.5 8t10 8t12 3.5q-1 6 0.5 11.5t2.5 11t0 11.5t-8 14q-25 1 -44.5 8t-33.5 23.5t-24 44t-16 69.5q39 14 59 38t30 51t14.5 52.5t11.5 41.5l144 62q9 4 12 9 t0.5 8.5t-9.5 4t-16 -3.5l-66 -25.5t-45 -15t-29 -3t-17 10.5q-9 13 -24.5 25t-33 20t-36.5 13t-35 5q-19 0 -32 -3t-25 -7t-25 -7t-32 -3q-24 -2 -39 8t-24 28t-12 42.5t-3 52.5q0 38 4.5 58.5t19.5 35.5q16 -4 36 0t37 14.5t28 26t8 33.5q-7 25 -22.5 34.5t-37 11t-46 -1 t-49.5 -0.5t-48 12t-41 37q-12 18 -21.5 38.5t-25.5 30.5q-14 17 -27 18t-23.5 -5t-18.5 -15t-12 -13q-8 -8 -4.5 -23t10 -30.5l12.5 -29.5t4 -18q-31 -12 -47 -29.5t-22.5 -37.5t-6 -42t1.5 -43t0 -40.5t-10 -34.5q-15 -25 -39.5 -48t-47 -46.5t-36.5 -48.5t-7 -55zM85 373 q0 18 10 37t22.5 30t22.5 6q9 -5 5.5 -18.5t-13.5 -33.5t-19.5 -33.5t-18.5 -8.5q-9 4 -9 21zM127 347.5q3 12.5 14 30.5q10 19 21 31.5t20 7.5q10 -4 10 -22q0 -17 -10 -34q-11 -19 -24.5 -27.5t-23.5 -3.5t-7 17.5zM207.5 636q0.5 26 15.5 57q15 30 35.5 47t34.5 10 q14 -8 8.5 -29.5t-20.5 -52.5q-17 -30 -31 -51.5t-29 -14.5q-14 8 -13.5 34zM233 678q0 -8 5 -14t13 -6t13.5 6t5.5 14t-5.5 14t-13.5 6t-13 -6t-5 -14zM283 596q5 19 21 48q16 30 32.5 49.5t32.5 12.5q15 -8 15 -34q0 -27 -16 -55q-16 -29 -37.5 -42.5t-37.5 -5.5 q-15 8 -10 27zM314 630q0 -9 5 -15t13 -6t13 6t5 15t-5 15.5t-13 6.5t-13 -6.5t-5 -15.5z" />
<glyph unicode="&#xb9;" horiz-adv-x="580" d="M85 0h410q8 0 9.5 7t3.5 12q9 37 21 74.5t17 75.5q1 7 0.5 10t-8.5 3q-26 0 -39 -9.5t-20 -24.5t-12.5 -31.5t-17 -31.5t-32.5 -24.5t-59 -9.5q-28 0 -51 -1t-38 4t-21.5 19.5t-2.5 45.5q18 151 32.5 298.5l28.5 298.5h97l5 40h-231l-5 -40h67q-26 -117 -46 -232 t-34 -233q-6 -54 -10 -105.5l-8 -105.5h-52zM404 282h205l5 40h-66l8 56t6 37t6 37t7 56q4 32 6 51t2.5 31t0.5 20v21q0 13 1 31.5t4 51.5h64l4 40h-198l-4 -40h65q-1 -3 -1 -6t-1 -6t-1 -6t-1 -6q-8 -34 -13.5 -54l-9 -33.5l-6 -23.5t-5 -23.5l-6 -34t-8.5 -54.5 q-3 -31 -4 -46t-1 -27v-26t-2 -46h-52z" />
<glyph unicode="&#xba;" horiz-adv-x="1029" d="M33 59q-3 -24 11.5 -39.5t37 -24t47.5 -12t43 -3.5q42 0 79.5 14.5t67 40t48.5 61.5t24 79q5 41 -8.5 72t-36 55.5t-49.5 45t-49.5 41t-36.5 42.5t-11 50q4 35 30.5 52.5t58.5 17.5q25 0 38.5 -7t19.5 -17.5t7.5 -23t4.5 -23t9 -17.5t21 -7q7 0 12 5.5t8 13t5 16.5t3 17 q1 5 1.5 9.5t0.5 6.5q2 14 2 31q0 18 -12 27q-8 7 -19.5 9.5t-22.5 4.5l-40 11t-53.5 17t-57 23t-51 28.5t-35.5 34t-10 39.5q2 21 16 33.5t33 19t39.5 8t36.5 1.5q30 0 55 -1t49 -1.5t49 -1.5t55 -1q29 0 58 0.5t58 4.5q11 1 27.5 5.5t30.5 4.5q-11 -24 -18 -48 q-7 -18 -11.5 -35t-8 -36.5t-6.5 -42t-6 -50.5q-2 -19 -5 -41t-7 -48l-68 -506q-1 -9 1.5 -14.5t12.5 -5.5q27 0 43 2t25 10t13 24t8 45l20 208h1l54 40q12 -46 33 -102.5t53 -106.5t76 -84t101 -34q48 0 96 22l-7 30q-15 -5 -31 -5q-36 0 -62.5 21t-47.5 53t-38.5 70 l-35.5 73.5t-38.5 63t-47.5 37.5h-1l239 194h58l5 36h-234l-5 -36q8 0 19.5 0.5t22 -1t17 -6.5t4.5 -17q-1 -8 -15 -23t-35 -34.5t-47 -40l-50.5 -38.5t-45 -31.5t-31.5 -17.5l16.5 133.5t10 94.5l6 69.5t6 58.5t9 62.5t14.5 81.5h3q24 11 37 30.5t16 43.5q1 9 -1.5 20.5 t-14.5 11.5q-13 0 -25 -9.5t-22.5 -22.5t-19 -27l-14.5 -24h-4q-12 -2 -25 -6t-25 -6q-34 -7 -67 -8.5t-66 -1.5q-32 0 -59 1t-53.5 1.5t-53.5 1.5t-58 1q-25 0 -50 -4.5t-46 -16t-36 -31t-19 -48.5q-4 -33 10 -58.5t38 -45t52.5 -33t53.5 -23.5h3q-57 -31 -88.5 -70 t-38.5 -96q-5 -41 9.5 -70.5t38.5 -52.5t53 -42t53.5 -39t39.5 -44t11 -56q-4 -41 -36 -64t-70 -23q-37 0 -59.5 15t-36 33.5t-20.5 33.5t-13 15q-10 0 -19 -8.5t-16.5 -20t-12 -24t-5.5 -20.5z" />
<glyph unicode="&#x152;" horiz-adv-x="1470" d="M808.5 104q-1.5 -15 5.5 -30q0 -7 2.5 -12.5t5.5 -11t5 -11.5t0 -13q-4 -15 -5.5 -31.5t2 -31t13.5 -24.5t28 -11q36 -21 78.5 -26.5t87.5 -6t90 -2.5t85 -17q63 0 126.5 -2.5t126.5 0.5q20 15 37 36t27.5 44.5t12.5 48t-8 47.5q12 44 22.5 88.5t18 89.5t10.5 89.5 t-1 88.5q-6 16 -10.5 31.5t-1.5 33.5q-13 45 -5.5 92t25.5 92q15 22 29.5 49t20.5 54t0 51t-32 40q-69 29 -144 34t-152 0t-154.5 -12.5t-152.5 -3.5q-11 -5 -21.5 -11t-22.5 -11q-10 -1 -16 -11q-3 -3 -4 -7l-38 -72.5t-28.5 -72t-11 -75.5t15.5 -82q6 -23 -2 -46.5 t-20 -47t-21.5 -47.5t-6.5 -47q-3 -20 -4.5 -40t0.5 -39.5t8.5 -37t19.5 -31.5q-9 -12 -18 -26t-15 -29t-7.5 -30zM935 0l4 40h52l8 105.5t10 105.5q14 118 34 233t46 232h-67l5 40h422q6 0 5.5 -8.5t-1.5 -12.5l-18 -129q-2 -21 -8.5 -21.5t-24.5 -0.5q-12 0 -17.5 7.5 t-8 18t-2 22t0.5 19.5q-3 35 -17 44.5t-48 9.5l-155 -5q-14 -137 -24 -273h213l-4 -32q-2 -17 -11 -22.5t-25 -5.5h-181l-10 -85q-2 -8 -3 -25q-2 -21 -5.5 -52.5t-5.5 -61.5t-2.5 -52.5t3.5 -26.5q8 -10 44 -11.5t87 -1.5q37 0 57.5 9.5t31.5 24.5t16.5 31.5t13 31.5 t20.5 24.5t38 9.5q8 0 8.5 -2.5t-0.5 -10.5q-3 -6 -8 -33.5t-11.5 -57.5t-14.5 -54t-17 -24h-430zM-79 75q-1 -10 3 -18.5t8.5 -17t7 -17.5t-1.5 -19q10 -34 33 -56.5t53.5 -36t65.5 -18.5t69 -4q52 -15 106 -20.5t109 -6.5t110.5 0t110.5 -1q36 22 76 35.5l80 27.5t76 32.5 t64 50.5q28 36 44.5 75.5t23 81t5.5 82.5t-8 80q11 63 15 128t-5 126.5t-34 116t-72 96.5q-14 16 -15 39q-1 4 -4.5 8t-7.5 6q-21 10 -44 12t-47 2h-48t-46 6q-66 0 -132 3t-132.5 2.5t-133 -7t-132.5 -25.5q-6 2 -12.5 1t-12.5 -9l-34 -41.5t-30.5 -44t-21 -46.5t-5.5 -50 q-2 -33 -7.5 -67.5t-28.5 -63.5q-4 -30 -10 -60.5l-11.5 -61t-8.5 -60.5t-2 -60q10 -19 27 -30.5l34 -22.5q-12 -2 -22.5 -3.5t-21.5 -4.5q-4 -1 -9 -5t-7 -7q-6 -13 -4.5 -25t3.5 -23q-1 -1 -1 -5q-1 -1 -1 -2l-1 -1q2 -17 2 -36q0 -18 -12 -35zM116 339q10 84 44.5 163.5 t90.5 141t131.5 99t167.5 37.5q78 0 134 -28.5t90.5 -77.5t47.5 -114t4 -138q-11 -90 -45.5 -170t-91 -140t-134 -95t-173.5 -35q-78 0 -132.5 29t-87 78t-44 113.5t-2.5 136.5zM233.5 267q-3.5 61 4.5 119q6 54 24 114t50.5 110t80.5 83t115 33q48 0 82.5 -16t58.5 -43.5 t38 -63.5t20 -76t6 -82t-5 -81q-7 -57 -24.5 -114.5t-49.5 -104t-81 -75.5t-118 -29q-70 0 -112.5 32t-64 82.5t-25 111.5z" />
<glyph unicode="&#x153;" horiz-adv-x="1636" d="M1127 20q0 -12 1.5 -16t15.5 -4h18q14 0 27.5 3.5t21.5 17.5q5 9 10 32.5t9.5 50.5t8 52.5t4.5 37.5q10 78 16.5 155.5t15.5 155.5l4 31h230q-9 -34 -16 -68l-14 -69q-15 -73 -28.5 -145.5t-22.5 -147.5q-2 -20 -2.5 -40.5t5 -37.5t18.5 -27.5t39 -10.5q32 0 63 7.5 t64 12.5l-1 35q-25 -5 -44 -5q-17 0 -25.5 20.5t-10.5 52t0 69.5t6 73t8 62.5t5 38.5q7 58 10.5 115.5t3.5 115.5h-281q4 39 14 92t31 101.5t56 82t90 33.5q31 0 43 -15.5t17 -34.5t9.5 -34.5t20.5 -15.5q17 0 25 2t10 21q5 36 9 62t-1 42.5t-24 24.5t-61 8 q-59 0 -105.5 -24t-82.5 -62.5t-61.5 -87.5t-42.5 -100q-3 -7 -6.5 -18l-7 -22.5t-8 -21.5t-9.5 -15q-10 -14 -23.5 -16t-28.5 -2l-7 -56h49q-6 -30 -11 -60t-8 -60l-31 -251q-4 -33 -10 -70t-5 -70zM33 59q-3 -24 11.5 -39.5t37 -24t47.5 -12t43 -3.5q42 0 79.5 14.5t67 40 t48.5 61.5t24 79q5 41 -8.5 72t-36 55.5t-49.5 45t-49.5 41t-36.5 42.5t-11 50q4 35 30.5 52.5t58.5 17.5q25 0 38.5 -7t19.5 -17.5t7.5 -23t4.5 -23t9 -17.5t21 -7q7 0 12 5.5t8 13t5 16.5t3 17q1 5 1.5 9.5t0.5 6.5q2 14 2 31q0 18 -12 27q-8 7 -19.5 9.5t-22.5 4.5 l-40 11t-53.5 17t-57 23t-51 28.5t-35.5 34t-10 39.5q2 21 16 33.5t33 19t39.5 8t36.5 1.5q30 0 55 -1t49 -1.5t49 -1.5t55 -1q29 0 58 0.5t58 4.5q11 1 27.5 5.5t30.5 4.5q-11 -24 -18 -48q-7 -18 -11.5 -35t-8 -36.5t-6.5 -42t-6 -50.5q-2 -19 -5 -41t-7 -48l-68 -506 q-1 -9 1.5 -14.5t12.5 -5.5q27 0 43 2t25 10t13 24t8 45l20 208h1l54 40q12 -46 33 -102.5t53 -106.5t76 -84t101 -34q48 0 96 22l-7 30q-15 -5 -31 -5q-36 0 -62.5 21t-47.5 53t-38.5 70l-35.5 73.5t-38.5 63t-47.5 37.5h-1l239 194h58l5 36h-234l-5 -36q8 0 19.5 0.5 t22 -1t17 -6.5t4.5 -17q-1 -8 -15 -23t-35 -34.5t-47 -40l-50.5 -38.5t-45 -31.5t-31.5 -17.5l16.5 133.5t10 94.5l6 69.5t6 58.5t9 62.5t14.5 81.5h3q24 11 37 30.5t16 43.5q1 9 -1.5 20.5t-14.5 11.5q-13 0 -25 -9.5t-22.5 -22.5t-19 -27l-14.5 -24h-4q-12 -2 -25 -6 t-25 -6q-34 -7 -67 -8.5t-66 -1.5q-32 0 -59 1t-53.5 1.5t-53.5 1.5t-58 1q-25 0 -50 -4.5t-46 -16t-36 -31t-19 -48.5q-4 -33 10 -58.5t38 -45t52.5 -33t53.5 -23.5h3q-57 -31 -88.5 -70t-38.5 -96q-5 -41 9.5 -70.5t38.5 -52.5t53 -42t53.5 -39t39.5 -44t11 -56 q-4 -41 -36 -64t-70 -23q-37 0 -59.5 15t-36 33.5t-20.5 33.5t-13 15q-10 0 -19 -8.5t-16.5 -20t-12 -24t-5.5 -20.5z" />
<glyph unicode="&#x2000;" horiz-adv-x="564" />
<glyph unicode="&#x2001;" horiz-adv-x="1129" />
<glyph unicode="&#x2002;" horiz-adv-x="564" />
<glyph unicode="&#x2003;" horiz-adv-x="1129" />
<glyph unicode="&#x2004;" horiz-adv-x="376" />
<glyph unicode="&#x2005;" horiz-adv-x="282" />
<glyph unicode="&#x2006;" horiz-adv-x="188" />
<glyph unicode="&#x2007;" horiz-adv-x="188" />
<glyph unicode="&#x2008;" horiz-adv-x="141" />
<glyph unicode="&#x2009;" horiz-adv-x="225" />
<glyph unicode="&#x200a;" horiz-adv-x="62" />
<glyph unicode="&#x2013;" horiz-adv-x="500" d="M100 250v100h300v-100h-300z" />
<glyph unicode="&#x2014;" horiz-adv-x="1000" d="M100 250v100h800v-100h-800z" />
<glyph unicode="&#x202f;" horiz-adv-x="225" />
<glyph unicode="&#x2039;" d="M45 237l49 63l351 -237l-52 -65zM60 447q1 3 1.5 6.5t3.5 5.5l501 297l41 -66l-409 -243l356 -240l-52 -65l-440 294q-2 3 -2 11z" />
<glyph unicode="&#x203a;" d="M49 207l38 -65l502 294q4 6 4 11q1 3 0.5 6.5t-3.5 5.5l-437 297l-55 -66l357 -243zM128 63l38 -65l398 239l-35 63z" />
<glyph unicode="&#x205f;" horiz-adv-x="282" />
<glyph unicode="&#x2122;" horiz-adv-x="1594" d="M560 141q-2 -32 3 -61.5t13.5 -58t19 -56l21.5 -54.5q73 -25 142 -33t136 -8t133 5.5t134 8.5t139 0.5t148 -18.5q8 6 17.5 12t19.5 9.5t19 3t17 -9.5q9 -2 18.5 0.5t18.5 6t18 6t19 1.5q20 12 26 36t4 54t-10 63.5l-15 65.5t-10.5 59.5t2.5 45.5q17 32 30.5 67t4.5 70 q-8 30 -6 41.5t7.5 20.5t11 22.5t4.5 46.5q-3 27 -8 53t-19 49q-3 24 1.5 51t5.5 52.5t-6.5 47t-34.5 35.5q-29 27 -64 46t-64 46q-82 -2 -171 3.5t-176.5 7t-170 -7t-150.5 -37.5l-21 -6q-10 -3 -14 -10l-4.5 -4.5t-4.5 -6.5q-13 -35 -36.5 -79t-42.5 -89.5t-26.5 -91 t10.5 -83.5q4 -42 -12 -81.5t-35 -78.5t-33.5 -79t-8.5 -83zM629 0l4 40q22 0 37 6.5t25 18.5t17 28t13 34l197 569l-1 20h-76l5 40h126q24 -85 39.5 -171t29.5 -174l18.5 -113.5t21.5 -113.5q2 -8 5 -13.5t13 -5.5q12 0 14 6t6 14l121 255l119 256l2 20h-84l5 40h145 q9 -93 20 -183t20 -184l11.5 -132l11.5 -132q3 -26 4.5 -42.5t8.5 -26t22 -13t44 -3.5l-4 -40h-240l4 40h65q-6 64 -11.5 133.5t-10 140t-8 140t-4.5 133.5l-16 -36l-243 -531q-10 -21 -18.5 -23.5t-26.5 -2.5q-20 0 -28.5 3t-14.5 24q-16 58 -29 125t-22.5 136.5t-16.5 138 t-12 130.5l-7 50l-182 -561h71l-4 -40h-186zM-77.5 520q-8.5 -39 1.5 -79q6 -44 23 -82t58 -57q6 -4 6.5 -10t-2 -12.5t-6 -14t-5.5 -15.5q2 -20 -4.5 -36.5l-13.5 -33t-10 -33.5t5 -38q-7 -40 -9 -80t4 -78q53 -53 124.5 -88t150 -45.5t160.5 5.5t156 66q23 10 48.5 26 t45 36.5t28.5 44.5t-1 51q-5 9 -12 16.5l-14 14.5t-12.5 15t-7.5 20q-13 22 -8.5 45t15.5 47t24.5 47.5t18.5 47.5q15 10 20.5 26t7.5 34q3 18 4.5 36.5t9.5 33.5q15 51 26 104.5t15.5 106.5t1 104t-16.5 98q-74 22 -152 32.5t-157.5 12t-160.5 -3t-161 -12.5q-4 -1 -10 -3 t-10 -6q-14 -12 -30.5 -24t-30 -26t-21.5 -30t-6 -37q-12 -37 -31.5 -74.5t-36 -75t-25 -76.5zM80 577q3 29 12.5 59l18.5 59l8.5 25t5.5 25q1 4 2 8.5t7 4.5q63 0 125.5 -2t125.5 -2q69 0 139 3.5t139 3.5q8 0 7 -9q-5 -45 -3 -86.5t-3 -86.5q-3 -11 -14 -10t-19 1 q-15 0 -21 14t-8.5 33.5t-4 38.5t-8.5 30q-4 6 -12.5 9.5t-19 6t-22 3.5t-21.5 1h-24q-18 0 -37 -0.5t-37 -0.5l-2 -23q-12 -97 -14 -193.5t-14 -193.5q-7 -64 -18 -128t-24 -127h72l-4 -40h-233l4 40h70q3 63 8.5 124.5t13.5 124.5q13 106 32 208.5t42 207.5h-54 q-12 0 -24.5 -0.5t-24.5 -0.5q-33 0 -51 -10t-27.5 -25t-13.5 -32t-8.5 -32t-12 -25t-23.5 -10h-7q-7 0 -16 1t-7 6z" />
<glyph unicode="&#xe000;" horiz-adv-x="600" d="M0 600h600v-600h-600v600z" />
<glyph unicode="&#xfb01;" horiz-adv-x="1217" d="M685 20q-1 -12 10 -17t25.5 -4.5t28.5 6.5t20 16q5 9 10 32.5t9.5 50.5t8 52.5t4.5 37.5q10 78 16.5 155.5t15.5 155.5l3 26h225l-36 -211.5t-31 -211.5q-3 -20 -3.5 -40.5t4.5 -37t18.5 -27t39.5 -10.5q37 0 76 9t75 19l-4 35q-14 -4 -29 -6.5t-29 -2.5q-15 0 -27 4 t-16 20q-3 13 -2.5 39.5t2.5 56t5 57t5 43.5q8 66 17.5 132t17.5 132h107q29 0 34 30l3 27h-137l4.5 32.5t6 52.5t2.5 48q0 22 -7 22q-25 0 -37.5 -11.5t-19.5 -29t-10.5 -37.5t-9.5 -37.5t-17.5 -29t-34.5 -11.5h-184l2 20q3 25 8.5 56.5t14.5 63.5t23 62.5t34 54t46.5 38 t62.5 14.5q31 0 43 -15.5t17 -34.5t9.5 -34.5t20.5 -15.5q17 0 25 2t10 21q5 36 9 62t-1 42.5t-24 24.5t-61 8q-59 0 -105.5 -24t-82.5 -62.5t-61.5 -87.5t-42.5 -100q-3 -7 -6.5 -18l-7 -22.5t-8 -21.5t-9.5 -15q-10 -14 -23.5 -16t-28.5 -2l-7 -56h49q-14 -65 -21 -129 l-28 -230q-4 -37 -10 -76t-6 -76zM1199 57h1l1 1h-1zM98 20q-1 -12 10 -17t25.5 -4.5t28.5 6.5t20 16q5 9 10 32.5t9.5 50.5t8 52.5t4.5 37.5q10 78 16.5 155.5t15.5 155.5l3 26h170q-14 -65 -21 -129l-28 -230q-4 -37 -10 -76t-6 -76q-1 -12 10 -17t25.5 -4.5t28.5 6.5 t20 16q5 9 10 32.5t9.5 50.5t8 52.5t4.5 37.5q10 78 16.5 155.5t15.5 155.5l3 26h121q14 0 17.5 6t4.5 19l4 31h-139q7 57 18.5 112t35.5 103q4 3 4 7q22 38 53.5 62.5t79.5 24.5q31 0 43 -15.5t17 -34.5t9.5 -34.5t20.5 -15.5q17 0 25 2t10 21q5 36 9 62t-1 42.5t-24 24.5 t-61 8q-52 0 -94 -18.5t-75 -49.5q4 35 -12 51.5t-75 16.5t-105.5 -24t-82.5 -62.5t-61.5 -87.5t-42.5 -100q-3 -7 -6.5 -18l-7 -22.5t-8 -21.5t-9.5 -15q-10 -14 -23.5 -16t-28.5 -2l-7 -56h49q-14 -65 -21 -129l-28 -230q-4 -37 -10 -76t-6 -76zM257 587l2 20 q3 25 8.5 56.5t14.5 63.5t23 62.5t34 54t46.5 38t62.5 14.5q24 0 36 -10t18 -23.5t8.5 -28.5t7.5 -25q-18 -29 -32.5 -62t-25.5 -65q-3 -7 -6.5 -18l-7 -22.5t-8 -21.5t-9.5 -15q-10 -14 -23.5 -16t-28.5 -2h-120z" />
<glyph unicode="&#xfb02;" horiz-adv-x="1490" d="M700 20q-1 -12 10 -17t25.5 -4.5t28.5 6.5t20 16q5 9 10 32.5t9.5 50.5t8 52.5t4.5 37.5q10 78 16.5 155.5t15.5 155.5l3 26h72h38q13 0 16 0.5t4 0.5v-1h49q-14 -65 -21 -129l-28 -230q-4 -37 -10 -76t-6 -76q-1 -12 10 -17t25.5 -4.5t28.5 6.5t20 16q5 9 10 32.5 t9.5 50.5t8 52.5t4.5 37.5q10 78 16.5 155.5t15.5 155.5l3 26h216l-36 -211.5t-31 -211.5q-3 -20 -3.5 -40.5t4.5 -37t18.5 -27t39.5 -10.5q37 0 76 9t75 19l-4 35q-14 -4 -29 -6.5t-29 -2.5q-15 0 -27 4t-16 20q-3 13 -2.5 39.5t2.5 56t5 57t5 43.5q8 66 17.5 132t17.5 132 h107q29 0 34 30l3 27h-137l4.5 32.5t6 52.5t2.5 48q0 22 -7 22q-25 0 -37.5 -11.5t-19.5 -29t-10.5 -37.5t-9.5 -37.5t-17.5 -29t-34.5 -11.5h-175l2 20q3 25 8.5 56.5t14.5 63.5t23 62.5t34 54t46.5 38t62.5 14.5q31 0 43 -15.5t17 -34.5t9.5 -34.5t20.5 -15.5q17 0 25 2 t10 21q5 36 9 62t-1 42.5t-24 24.5t-61 8q-57 0 -100.5 -21.5t-78.5 -56.5q2 20 1 34.5t-9.5 24.5t-27 14.5t-50.5 4.5q-59 0 -105.5 -24t-82.5 -62.5t-61.5 -87.5t-42.5 -100q-3 -7 -6.5 -18l-7 -22.5t-8 -21.5t-9.5 -15q-10 -14 -23.5 -16t-28.5 -2l-7 -56h49 q-14 -65 -21 -129l-28 -230q-4 -37 -10 -76t-6 -76zM859 587l2 20q3 25 8.5 56.5t14.5 63.5t23 62.5t34 54t46.5 38t62.5 14.5q26 0 38 -11.5t17.5 -27t8 -31.5t10.5 -24q-17 -29 -30 -59t-23 -61q-3 -7 -6.5 -18l-7 -22.5t-8 -21.5t-9.5 -15q-10 -14 -23.5 -16t-28.5 -2 h-129zM1470 57h1l1 1h-1zM98 20q-1 -12 10 -17t25.5 -4.5t28.5 6.5t20 16q5 9 10 32.5t9.5 50.5t8 52.5t4.5 37.5q10 78 16.5 155.5t15.5 155.5l3 26h170q-14 -65 -21 -129l-28 -230q-4 -37 -10 -76t-6 -76q-1 -12 10 -17t25.5 -4.5t28.5 6.5t20 16q5 9 10 32.5t9.5 50.5 t8 52.5t4.5 37.5q10 78 16.5 155.5t15.5 155.5l3 26h121q14 0 17.5 6t4.5 19l4 31h-139q7 57 18.5 112t35.5 103q4 3 4 7q22 38 53.5 62.5t79.5 24.5q31 0 43 -15.5t17 -34.5t9.5 -34.5t20.5 -15.5q17 0 25 2t10 21q5 36 9 62t-1 42.5t-24 24.5t-61 8q-52 0 -94 -18.5 t-75 -49.5q4 35 -12 51.5t-75 16.5t-105.5 -24t-82.5 -62.5t-61.5 -87.5t-42.5 -100q-3 -7 -6.5 -18l-7 -22.5t-8 -21.5t-9.5 -15q-10 -14 -23.5 -16t-28.5 -2l-7 -56h49q-14 -65 -21 -129l-28 -230q-4 -37 -10 -76t-6 -76zM257 587l2 20q3 25 8.5 56.5t14.5 63.5t23 62.5 t34 54t46.5 38t62.5 14.5q24 0 36 -10t18 -23.5t8.5 -28.5t7.5 -25q-18 -29 -32.5 -62t-25.5 -65q-3 -7 -6.5 -18l-7 -22.5t-8 -21.5t-9.5 -15q-10 -14 -23.5 -16t-28.5 -2h-120z" />
<glyph unicode="&#xfb03;" horiz-adv-x="1804" d="M1272 20q-1 -12 10 -17t25.5 -4.5t28.5 6.5t20 16q5 9 10 32.5t9.5 50.5t8 52.5t4.5 37.5q10 78 16.5 155.5t15.5 155.5l3 26h225l-36 -211.5t-31 -211.5q-3 -20 -3.5 -40.5t4.5 -37t18.5 -27t39.5 -10.5q37 0 76 9t75 19l-4 35q-14 -4 -29 -6.5t-29 -2.5q-15 0 -27 4 t-16 20q-3 13 -2.5 39.5t2.5 56t5 57t5 43.5q8 66 17.5 132t17.5 132h107q29 0 34 30l3 27h-137l4.5 32.5t6 52.5t2.5 48q0 22 -7 22q-25 0 -37.5 -11.5t-19.5 -29t-10.5 -37.5t-9.5 -37.5t-17.5 -29t-34.5 -11.5h-184l2 20q3 25 8.5 56.5t14.5 63.5t23 62.5t34 54t46.5 38 t62.5 14.5q31 0 43 -15.5t17 -34.5t9.5 -34.5t20.5 -15.5q17 0 25 2t10 21q5 36 9 62t-1 42.5t-24 24.5t-61 8q-59 0 -105.5 -24t-82.5 -62.5t-61.5 -87.5t-42.5 -100q-3 -7 -6.5 -18l-7 -22.5t-8 -21.5t-9.5 -15q-10 -14 -23.5 -16t-28.5 -2l-7 -56h49q-14 -65 -21 -129 l-28 -230q-4 -37 -10 -76t-6 -76zM1786 57h1l1 1h-1zM685 20q-1 -12 10 -17t25.5 -4.5t28.5 6.5t20 16q5 9 10 32.5t9.5 50.5t8 52.5t4.5 37.5q10 78 16.5 155.5t15.5 155.5l3 26h170q-14 -65 -21 -129l-28 -230q-4 -37 -10 -76t-6 -76q-1 -12 10 -17t25.5 -4.5t28.5 6.5 t20 16q5 9 10 32.5t9.5 50.5t8 52.5t4.5 37.5q10 78 16.5 155.5t15.5 155.5l3 26h121q14 0 17.5 6t4.5 19l4 31h-139q7 57 18.5 112t35.5 103q4 3 4 7q22 38 53.5 62.5t79.5 24.5q31 0 43 -15.5t17 -34.5t9.5 -34.5t20.5 -15.5q17 0 25 2t10 21q5 36 9 62t-1 42.5t-24 24.5 t-61 8q-52 0 -94 -18.5t-75 -49.5q4 35 -12 51.5t-75 16.5t-105.5 -24t-82.5 -62.5t-61.5 -87.5t-42.5 -100q-3 -7 -6.5 -18l-7 -22.5t-8 -21.5t-9.5 -15q-10 -14 -23.5 -16t-28.5 -2l-7 -56h49q-14 -65 -21 -129l-28 -230q-4 -37 -10 -76t-6 -76zM844 587l2 20 q3 25 8.5 56.5t14.5 63.5t23 62.5t34 54t46.5 38t62.5 14.5q24 0 36 -10t18 -23.5t8.5 -28.5t7.5 -25q-18 -29 -32.5 -62t-25.5 -65q-3 -7 -6.5 -18l-7 -22.5t-8 -21.5t-9.5 -15q-10 -14 -23.5 -16t-28.5 -2h-120zM98 20q-1 -12 10 -17t25.5 -4.5t28.5 6.5t20 16 q5 9 10 32.5t9.5 50.5t8 52.5t4.5 37.5q10 78 16.5 155.5t15.5 155.5l3 26h170q-14 -65 -21 -129l-28 -230q-4 -37 -10 -76t-6 -76q-1 -12 10 -17t25.5 -4.5t28.5 6.5t20 16q5 9 10 32.5t9.5 50.5t8 52.5t4.5 37.5q10 78 16.5 155.5t15.5 155.5l3 26h121q14 0 17.5 6t4.5 19 l4 31h-139q7 57 18.5 112t35.5 103q4 3 4 7q22 38 53.5 62.5t79.5 24.5q31 0 43 -15.5t17 -34.5t9.5 -34.5t20.5 -15.5q17 0 25 2t10 21q5 36 9 62t-1 42.5t-24 24.5t-61 8q-52 0 -94 -18.5t-75 -49.5q4 35 -12 51.5t-75 16.5t-105.5 -24t-82.5 -62.5t-61.5 -87.5 t-42.5 -100q-3 -7 -6.5 -18l-7 -22.5t-8 -21.5t-9.5 -15q-10 -14 -23.5 -16t-28.5 -2l-7 -56h49q-14 -65 -21 -129l-28 -230q-4 -37 -10 -76t-6 -76zM257 587l2 20q3 25 8.5 56.5t14.5 63.5t23 62.5t34 54t46.5 38t62.5 14.5q24 0 36 -10t18 -23.5t8.5 -28.5t7.5 -25 q-18 -29 -32.5 -62t-25.5 -65q-3 -7 -6.5 -18l-7 -22.5t-8 -21.5t-9.5 -15q-10 -14 -23.5 -16t-28.5 -2h-120z" />
<glyph unicode="&#xfb04;" horiz-adv-x="2077" d="M1287 20q-1 -12 10 -17t25.5 -4.5t28.5 6.5t20 16q5 9 10 32.5t9.5 50.5t8 52.5t4.5 37.5q10 78 16.5 155.5t15.5 155.5l3 26h72h38q13 0 16 0.5t4 0.5v-1h49q-14 -65 -21 -129l-28 -230q-4 -37 -10 -76t-6 -76q-1 -12 10 -17t25.5 -4.5t28.5 6.5t20 16q5 9 10 32.5 t9.5 50.5t8 52.5t4.5 37.5q10 78 16.5 155.5t15.5 155.5l3 26h216l-36 -211.5t-31 -211.5q-3 -20 -3.5 -40.5t4.5 -37t18.5 -27t39.5 -10.5q37 0 76 9t75 19l-4 35q-14 -4 -29 -6.5t-29 -2.5q-15 0 -27 4t-16 20q-3 13 -2.5 39.5t2.5 56t5 57t5 43.5q8 66 17.5 132t17.5 132 h107q29 0 34 30l3 27h-137l4.5 32.5t6 52.5t2.5 48q0 22 -7 22q-25 0 -37.5 -11.5t-19.5 -29t-10.5 -37.5t-9.5 -37.5t-17.5 -29t-34.5 -11.5h-175l2 20q3 25 8.5 56.5t14.5 63.5t23 62.5t34 54t46.5 38t62.5 14.5q31 0 43 -15.5t17 -34.5t9.5 -34.5t20.5 -15.5q17 0 25 2 t10 21q5 36 9 62t-1 42.5t-24 24.5t-61 8q-57 0 -100.5 -21.5t-78.5 -56.5q2 20 1 34.5t-9.5 24.5t-27 14.5t-50.5 4.5q-59 0 -105.5 -24t-82.5 -62.5t-61.5 -87.5t-42.5 -100q-3 -7 -6.5 -18l-7 -22.5t-8 -21.5t-9.5 -15q-10 -14 -23.5 -16t-28.5 -2l-7 -56h49 q-14 -65 -21 -129l-28 -230q-4 -37 -10 -76t-6 -76zM1446 587l2 20q3 25 8.5 56.5t14.5 63.5t23 62.5t34 54t46.5 38t62.5 14.5q26 0 38 -11.5t17.5 -27t8 -31.5t10.5 -24q-17 -29 -30 -59t-23 -61q-3 -7 -6.5 -18l-7 -22.5t-8 -21.5t-9.5 -15q-10 -14 -23.5 -16t-28.5 -2 h-129zM2057 57h1l1 1h-1zM685 20q-1 -12 10 -17t25.5 -4.5t28.5 6.5t20 16q5 9 10 32.5t9.5 50.5t8 52.5t4.5 37.5q10 78 16.5 155.5t15.5 155.5l3 26h170q-14 -65 -21 -129l-28 -230q-4 -37 -10 -76t-6 -76q-1 -12 10 -17t25.5 -4.5t28.5 6.5t20 16q5 9 10 32.5t9.5 50.5 t8 52.5t4.5 37.5q10 78 16.5 155.5t15.5 155.5l3 26h121q14 0 17.5 6t4.5 19l4 31h-139q7 57 18.5 112t35.5 103q4 3 4 7q22 38 53.5 62.5t79.5 24.5q31 0 43 -15.5t17 -34.5t9.5 -34.5t20.5 -15.5q17 0 25 2t10 21q5 36 9 62t-1 42.5t-24 24.5t-61 8q-52 0 -94 -18.5 t-75 -49.5q4 35 -12 51.5t-75 16.5t-105.5 -24t-82.5 -62.5t-61.5 -87.5t-42.5 -100q-3 -7 -6.5 -18l-7 -22.5t-8 -21.5t-9.5 -15q-10 -14 -23.5 -16t-28.5 -2l-7 -56h49q-14 -65 -21 -129l-28 -230q-4 -37 -10 -76t-6 -76zM844 587l2 20q3 25 8.5 56.5t14.5 63.5t23 62.5 t34 54t46.5 38t62.5 14.5q24 0 36 -10t18 -23.5t8.5 -28.5t7.5 -25q-18 -29 -32.5 -62t-25.5 -65q-3 -7 -6.5 -18l-7 -22.5t-8 -21.5t-9.5 -15q-10 -14 -23.5 -16t-28.5 -2h-120zM98 20q-1 -12 10 -17t25.5 -4.5t28.5 6.5t20 16q5 9 10 32.5t9.5 50.5t8 52.5t4.5 37.5 q10 78 16.5 155.5t15.5 155.5l3 26h170q-14 -65 -21 -129l-28 -230q-4 -37 -10 -76t-6 -76q-1 -12 10 -17t25.5 -4.5t28.5 6.5t20 16q5 9 10 32.5t9.5 50.5t8 52.5t4.5 37.5q10 78 16.5 155.5t15.5 155.5l3 26h121q14 0 17.5 6t4.5 19l4 31h-139q7 57 18.5 112t35.5 103 q4 3 4 7q22 38 53.5 62.5t79.5 24.5q31 0 43 -15.5t17 -34.5t9.5 -34.5t20.5 -15.5q17 0 25 2t10 21q5 36 9 62t-1 42.5t-24 24.5t-61 8q-52 0 -94 -18.5t-75 -49.5q4 35 -12 51.5t-75 16.5t-105.5 -24t-82.5 -62.5t-61.5 -87.5t-42.5 -100q-3 -7 -6.5 -18l-7 -22.5 t-8 -21.5t-9.5 -15q-10 -14 -23.5 -16t-28.5 -2l-7 -56h49q-14 -65 -21 -129l-28 -230q-4 -37 -10 -76t-6 -76zM257 587l2 20q3 25 8.5 56.5t14.5 63.5t23 62.5t34 54t46.5 38t62.5 14.5q24 0 36 -10t18 -23.5t8.5 -28.5t7.5 -25q-18 -29 -32.5 -62t-25.5 -65 q-3 -7 -6.5 -18l-7 -22.5t-8 -21.5t-9.5 -15q-10 -14 -23.5 -16t-28.5 -2h-120z" />
</font>
</defs>
</svg>
