<?xml version="1.0" standalone="no"?>
<!DOCTYPE svg PUBLIC "-//W3C//DTD SVG 1.1//EN" "http://www.w3.org/Graphics/SVG/1.1/DTD/svg11.dtd" >
<svg xmlns="http://www.w3.org/2000/svg">
<metadata>
This is a custom SVG webfont generated by Font Squirrel.
Copyright   :  1993 Jeroen Klaver 2000 Shamrock Int
</metadata>
<defs>
<font id="webfontvAF2lDMC" horiz-adv-x="1138" >
<font-face units-per-em="2048" ascent="1638" descent="-410" />
<missing-glyph horiz-adv-x="454" />
<glyph unicode=" "  horiz-adv-x="454" />
<glyph unicode="&#x09;" horiz-adv-x="454" />
<glyph unicode="&#xa0;" horiz-adv-x="454" />
<glyph unicode="!" horiz-adv-x="720" d="M201 1493h274l-47 -1061h-182zM205 119q0 57 40 96t97 39t97 -39t40 -96t-40 -97t-97 -40t-97 40t-40 97z" />
<glyph unicode="&#x22;" horiz-adv-x="894" d="M238 1128v402h145v-152l-45 -250h-100zM537 1128v402h145v-152l-45 -250h-100z" />
<glyph unicode="$" horiz-adv-x="1167" d="M172 1073q0 365 373 400v102h108v-100q221 -12 330 -109v-182h-137v90q-16 23 -43 39q-59 43 -150 51v-490q199 -84 267 -141q129 -109 129 -297q0 -211 -125 -332q-104 -100 -271 -118v-105h-108v103q-225 12 -369 118v217h137v-120q31 -23 66 -39q82 -41 166 -49v501 q-180 74 -252 144q-121 114 -121 317zM389 1147q0 -139 156 -221v432q-156 -39 -156 -211zM653 119q74 23 120 84t46 143q0 139 -166 219v-446z" />
<glyph unicode="%" horiz-adv-x="1705" d="M188 1133q0 135 60 223q80 119 252 119q170 0 250 -119q59 -88 59 -223q0 -147 -45 -224q-72 -117 -264 -116q-195 0 -267 116q-45 77 -45 224zM352 1133q0 -113 19 -160q31 -80 129 -80q96 0 127 80q18 47 18 160t-18 159q-31 82 -127 82t-129 -82q-19 -46 -19 -159z M436 8l692 1485l101 -45l-694 -1485zM854 324q0 135 59 223q80 117 250 117q172 0 252 -117q59 -88 60 -223q0 -150 -45 -224q-72 -119 -267 -118q-193 0 -264 118q-45 74 -45 224zM1018 324q0 -113 18 -160q31 -82 127 -82t129 82q18 47 19 160q0 113 -19 159 q-33 82 -129 82t-127 -82q-18 -46 -18 -159z" />
<glyph unicode="'" horiz-adv-x="583" d="M238 1128v402h145v-152l-45 -250h-100z" />
<glyph unicode="(" horiz-adv-x="774" d="M188 547q0 395 123 661q133 285 357 285v-174q-121 0 -185 -250q-53 -211 -53 -522q0 -313 53 -524q63 -250 185 -250v-174q-223 0 -357 286q-123 265 -123 662z" />
<glyph unicode=")" horiz-adv-x="774" d="M123 -227q119 0 184 250q53 213 53 524t-53 522q-66 250 -184 250v174q223 0 354 -285q123 -266 123 -661q0 -397 -123 -662q-131 -287 -354 -286v174z" />
<glyph unicode="*" horiz-adv-x="1036" d="M188 1352l230 -6l-117 196l96 55l111 -200l113 200l96 -55l-119 -196l229 4v-113l-229 4l119 -199l-94 -53l-115 203l-111 -201l-94 56l115 194l-228 -4z" />
<glyph unicode="+" horiz-adv-x="954" d="M139 655v109h283v283h110v-283h281v-109h-281v-282h-110v282h-283z" />
<glyph unicode="," horiz-adv-x="681" d="M197 119q0 57 38.5 96t96.5 39q70 0 112 -45q47 -51 48 -141q0 -215 -213 -324l-50 74q150 92 150 200q-25 -37 -68 -36q-53 0 -83.5 39t-30.5 98z" />
<glyph unicode="-" horiz-adv-x="788" d="M195 473v145h401v-145h-401z" />
<glyph unicode="." horiz-adv-x="675" d="M211 119q0 57 40 96t97 39t96 -39t39 -96t-38.5 -97t-96.5 -40q-57 0 -97 40t-40 97z" />
<glyph unicode="/" horiz-adv-x="782" d="M84 -354l530 1845l105 -31l-531 -1845z" />
<glyph unicode="0" horiz-adv-x="1363" d="M143 729q0 403 136 582q127 164 399 164t399 -164q133 -176 133 -582t-133 -582q-127 -166 -399 -165q-272 0 -399 165q-136 176 -136 582zM399 729q0 -293 60 -424q63 -141 219 -141q154 0 219 141q59 131 59 424q0 291 -59 422q-66 141 -219 141q-156 0 -219 -141 q-60 -129 -60 -422z" />
<glyph unicode="1" horiz-adv-x="839" d="M182 1165v183l201 108h182v-1456h-246v1237z" />
<glyph unicode="2" horiz-adv-x="1202" d="M168 0v182q453 545 518 635q106 147 107 266q0 209 -207 209q-160 0 -373 -121v181q154 123 410 123q432 0 432 -385q0 -125 -99 -271q-117 -174 -495 -581h606v-238h-899z" />
<glyph unicode="3" horiz-adv-x="1218" d="M158 82v186q195 -104 409 -104q109 0 181 82q66 74 65 164q0 94 -59 163q-72 82 -197 82h-115v183h125q102 0 160 69q49 61 49 158q0 227 -209 227q-201 0 -372 -92v180q174 94 372 95q236 0 346 -91q119 -94 119 -301q0 -262 -211 -338q246 -49 246 -354 q0 -195 -138 -302t-362 -107q-227 0 -409 100z" />
<glyph unicode="4" horiz-adv-x="1292" d="M98 346v178l666 951h213v-947h264v-182h-264v-346h-242v346h-637zM326 528h411v590z" />
<glyph unicode="5" horiz-adv-x="1216" d="M168 82v197q176 -115 401 -115q127 0 205 82q68 72 68 164q0 111 -74 188q-82 84 -217 84h-328v774h778v-235h-595v-328h182q510 0 510 -451q0 -229 -144 -348q-135 -113 -376 -112q-217 0 -410 100z" />
<glyph unicode="6" horiz-adv-x="1312" d="M139 729q0 408 148 586q131 160 411 160q182 0 316 -58v-186q-117 61 -334 61q-152 0 -213 -92q-68 -102 -76 -379q84 125 289 125q483 0 483 -481q0 -197 -131 -334q-141 -150 -370 -149q-258 0 -383 159q-140 180 -140 588zM408 461q0 -297 254 -297q250 0 249 301 q0 301 -249 301q-145 0 -207 -90q-47 -72 -47 -215z" />
<glyph unicode="7" horiz-adv-x="1087" d="M129 1221v235h879v-162l-564 -1294h-217l527 1221h-625z" />
<glyph unicode="8" horiz-adv-x="1269" d="M164 391q0 231 227 348q-195 115 -194 379q0 137 92 234q119 127 358 127q412 0 412 -351q0 -203 -195 -315q133 -51 197 -129q86 -102 86 -276q0 -172 -98 -285q-131 -147 -408 -148q-477 0 -477 416zM360 375q0 -80 50 -139q66 -80 198 -80q289 0 289 202 q0 137 -106 209q-49 33 -236 101q-195 -109 -195 -293zM440 1135q0 -113 74 -177q55 -47 178 -88q182 92 182 256q0 193 -217 193q-113 0 -172 -66q-45 -50 -45 -118z" />
<glyph unicode="9" horiz-adv-x="1312" d="M137 991q0 195 131 334q141 150 369 150q266 0 389 -160q135 -176 135 -586q0 -408 -151 -588q-135 -160 -418 -159q-182 0 -367 88v188q168 -94 385 -94q154 0 217 94q74 104 82 381q-117 -129 -291 -129q-227 0 -354 122.5t-127 358.5zM387 991q0 -301 250 -301 q147 0 209 90q49 72 49 215q0 297 -258 297q-250 0 -250 -301z" />
<glyph unicode=":" horiz-adv-x="673" d="M205 119q0 57 39 96t96 39t97 -39t40 -96t-40 -97t-97 -40t-96 40t-39 97zM205 975q0 55 39 95t96 40t97 -40t40 -95q0 -57 -40 -97t-97 -40t-96 40t-39 97z" />
<glyph unicode=";" horiz-adv-x="673" d="M197 119q0 57 38.5 96t96.5 39q70 0 112 -45q47 -51 48 -141q0 -215 -213 -324l-50 74q150 92 150 200q-25 -37 -68 -36q-53 0 -83.5 39t-30.5 98zM197 975q0 55 39.5 95t97.5 40q57 0 97 -40t40 -95q0 -57 -40 -97t-97 -40t-97 40t-40 97z" />
<glyph unicode="=" horiz-adv-x="1044" d="M178 483v109h674v-109h-674zM178 827v111h674v-111h-674z" />
<glyph unicode="?" horiz-adv-x="1091" d="M156 1206v172q147 96 338 97q242 0 342 -97.5t100 -353.5q0 -227 -121 -348q-106 -111 -276 -111v-133h-183v297h160q186 0 186 277q0 180 -39.5 238.5t-168.5 58.5q-170 -1 -338 -97zM315 119q0 57 40 96t98 39q57 0 97 -39t40 -96t-40 -97t-97 -40t-97.5 40t-40.5 97z " />
<glyph unicode="A" horiz-adv-x="1376" d="M100 0l447 1456h258l446 -1456h-258l-114 373h-473l-113 -373h-193zM459 547h368l-184 600z" />
<glyph unicode="B" horiz-adv-x="1286" d="M231 0v1456h461q412 0 412 -383q0 -285 -268 -328q125 -14 206 -88q106 -94 107 -256q0 -401 -520 -401h-398zM477 182h152q270 0 270 219q0 254 -244 254h-178v-473zM477 838h152q225 0 225 235q0 74 -35 129q-45 72 -137 72h-205v-436z" />
<glyph unicode="C" horiz-adv-x="1361" d="M190 729q0 408 166 586q147 160 455 160q188 0 350 -101v-227q-143 141 -350 141q-199 0 -283 -137q-82 -129 -82 -422t82 -424q84 -137 283 -137q184 0 369 137v-219q-193 -104 -369 -104q-307 0 -455 159q-166 180 -166 588z" />
<glyph unicode="D" horiz-adv-x="1404" d="M197 0v1456h483q291 0 432 -151q164 -174 164 -576q0 -406 -168 -577q-147 -152 -465 -152h-446zM442 182h201q213 0 299 129q82 123 82 418q0 291 -78 418t-266 127h-238v-1092z" />
<glyph unicode="E" horiz-adv-x="1146" d="M238 0v1456h751v-182h-506v-436h439v-183h-439v-473h516v-182h-761z" />
<glyph unicode="F" horiz-adv-x="1134" d="M248 0v1456h751v-182h-505v-436h438v-183h-438v-655h-246z" />
<glyph unicode="G" horiz-adv-x="1443" d="M168 729q0 408 162 586q145 160 452 160q225 0 402 -101v-221q-205 135 -402 135t-280.5 -134t-83.5 -425q0 -293 82 -424q86 -137 282 -137q150 0 250 65v340h-135v183h381v-652q-246 -123 -496 -122q-307 0 -452 159q-162 178 -162 588z" />
<glyph unicode="H" horiz-adv-x="1527" d="M217 0v1456h246v-618h596v618h246v-1456h-246v655h-596v-655h-246z" />
<glyph unicode="I" horiz-adv-x="819" d="M303 0v1456h246v-1456h-246z" />
<glyph unicode="J" horiz-adv-x="901" d="M158 -201q96 0 135 45q57 68 57 265v1347h246v-1292q0 -342 -127 -461q-92 -86 -311 -86v182z" />
<glyph unicode="K" horiz-adv-x="1384" d="M238 0h245v522l144 164l405 -686h285l-520 883l497 573h-241l-570 -655v655h-245v-1456z" />
<glyph unicode="L" horiz-adv-x="1095" d="M268 0v1456h246v-1274h477v-182h-723z" />
<glyph unicode="M" horiz-adv-x="1890" d="M231 0v1456h371l350 -1147l351 1147h368v-1456h-246v1229l-376 -1229h-258l-377 1229v-1229h-183z" />
<glyph unicode="N" horiz-adv-x="1454" d="M217 0v1456h299l543 -1114v1114h190v-1456h-295l-546 1114v-1114h-191z" />
<glyph unicode="O" horiz-adv-x="1513" d="M160 729q0 403 164 586q147 162 438 162t436 -162q164 -184 164 -586q0 -403 -164 -586q-145 -164 -436 -163q-291 0 -438 163q-164 183 -164 586zM416 729q0 -293 78 -424q80 -137 268 -137q186 0 268 137q76 131 76 424t-76 422q-82 137 -268 137q-188 0 -268 -137 q-78 -129 -78 -422z" />
<glyph unicode="P" horiz-adv-x="1218" d="M217 0v1456h432q473 0 473 -436q0 -438 -518 -438h-141v-582h-246zM463 764h141q156 0 215 67q49 55 49 189q0 129 -53 191.5t-184 62.5h-168v-510z" />
<glyph unicode="Q" horiz-adv-x="1429" d="M113 729q0 403 163 586q145 162 437 162q291 0 436 -162q164 -182 164 -586q0 -666 -461 -739q0 -78 41 -131q49 -63 145 -64v-178q-195 0 -317.5 99.5t-122.5 269.5q-485 63 -485 743zM367 729q0 -293 77 -424q82 -137 269 -137q186 0 268 137q78 131 78 424 q0 291 -80 425t-266 134t-266 -134t-80 -425z" />
<glyph unicode="R" horiz-adv-x="1294" d="M213 0v1456h479q412 0 412 -383q0 -147 -107 -244q-72 -63 -161 -86q104 -37 202 -305l162 -438h-264l-162 444q-76 211 -186 211h-129v-655h-246zM459 838h170q225 0 225 235q0 74 -35 129q-45 72 -137 72h-223v-436z" />
<glyph unicode="S" horiz-adv-x="1226" d="M158 1065q0 182 122.5 296t344.5 114q197 0 370 -109v-236q-201 158 -381 158q-221 0 -221 -174q0 -139 182 -217l343 -135q182 -106 182 -316q0 -231 -172 -358q-141 -106 -330 -106q-252 0 -434 129l-2 211q260 -154 424 -154q113 0 184 45q82 51 82 147 q0 139 -180 215l-334 138q-180 114 -180 352z" />
<glyph unicode="T" horiz-adv-x="1144" d="M57 1274v182h1002v-182h-377v-1274h-246v1274h-379z" />
<glyph unicode="U" horiz-adv-x="1366" d="M172 455v1001h246v-983q0 -305 305 -305t305 305v983h182v-1001q0 -229 -147 -357q-137 -117 -371 -116q-236 0 -373 116q-147 126 -147 357z" />
<glyph unicode="V" horiz-adv-x="1259" d="M66 1456h258l350 -1147l350 1147h193l-447 -1456h-258z" />
<glyph unicode="W" horiz-adv-x="2107" d="M80 1456h258l278 -1147l351 1147h227l350 -1147l283 1147h196l-368 -1456h-273l-335 1090l-334 -1090h-273z" />
<glyph unicode="X" horiz-adv-x="1230" d="M88 0l404 762l-369 694h278l269 -506l270 506h205l-375 -692l406 -764h-279l-303 569l-299 -569h-207z" />
<glyph unicode="Y" horiz-adv-x="1228" d="M86 1456h279l303 -569l299 569h207l-420 -792v-664h-246v666z" />
<glyph unicode="Z" horiz-adv-x="1259" d="M188 0v156l617 1118h-553v182h852v-153l-623 -1121h629v-182h-922z" />
<glyph unicode="[" horiz-adv-x="684" d="M190 -485v2064h365v-109h-256v-1847h256v-108h-365z" />
<glyph unicode="\" horiz-adv-x="800" d="M84 1460l104 31l531 -1845l-105 -31z" />
<glyph unicode="]" horiz-adv-x="684" d="M113 -377h256v1847h-256v109h364v-2064h-364v108z" />
<glyph unicode="^" horiz-adv-x="819" d="M74 1303l327 262l326 -262l-72 -84l-254 223l-256 -223z" />
<glyph unicode="_" horiz-adv-x="978" d="M70 -455h819v-145h-819v145z" />
<glyph unicode="`" horiz-adv-x="1099" d="M205 1343l61 132l322 -170l-47 -101z" />
<glyph unicode="a" d="M137 354q0 180 101 258q92 70 299 70q125 0 208 -8v172q-10 82 -163 82q-145 0 -363 -101v193q162 90 373 90q391 0 391 -324v-786h-219v131q-166 -150 -328 -149q-299 -1 -299 372zM377 354q0 -109 49 -143q29 -20 102 -21q80 0 217 82v246q-86 -8 -176 -8 q-98 0 -139 -25q-53 -35 -53 -131z" />
<glyph unicode="b" horiz-adv-x="1204" d="M172 78v1378h238v-473q139 127 301 127q354 0 354 -545q0 -289 -104 -428q-113 -156 -369 -155q-203 0 -420 96zM410 197q96 -51 190 -52q123 0 171 86t48 316q0 209 -44 293t-146 84q-92 0 -219 -86v-641z" />
<glyph unicode="c" horiz-adv-x="1116" d="M143 547q0 563 473 563q211 0 328 -70v-186q-125 74 -317 74q-141 0 -197 -121q-41 -88 -41 -260q0 -391 227 -391q143 0 342 86v-174q-186 -86 -387 -86q-428 0 -428 565z" />
<glyph unicode="d" horiz-adv-x="1243" d="M156 528q0 291 100 428q113 154 373 154q78 0 182 -31v377h236v-1456h-220v127q-158 -145 -317 -145q-354 -1 -354 546zM401 528q0 -203 43 -279.5t148 -76.5q94 0 219 92v651q-66 23 -193 23t-172 -88.5t-45 -321.5z" />
<glyph unicode="e" horiz-adv-x="1144" d="M123 547q0 283 100 416q109 145 350 147h7q419 0 419 -500v-151h-634q6 -147 51 -215q55 -88 184 -88q162 0 369 86v-168q-201 -92 -414 -92q-432 0 -432 565zM365 633h399q0 150 -25 207q-39 98 -166 98q-121 0 -165 -74q-39 -63 -43 -231z" />
<glyph unicode="f" horiz-adv-x="956" d="M160 920v172h164q0 201 47 274q70 109 288 109q49 0 142 -15v-164q-39 6 -60 7q-121 0 -151.5 -33t-30.5 -178h227v-172h-227v-920h-235v920h-164z" />
<glyph unicode="g" horiz-adv-x="1208" d="M156 565q0 264 100 396q113 150 373 149q78 0 418 -18v-947q0 -264 -115 -396t-318 -132q-266 0 -358 78v170q113 -74 324 -74q248 0 247 336v74q-158 -145 -317 -146q-170 0 -262 132t-92 378zM401 573q0 -213 52 -280q35 -47 139 -47q94 0 219 90v588q-66 23 -193 22 q-127 0 -172 -83t-45 -290z" />
<glyph unicode="h" horiz-adv-x="1161" d="M150 0v1456h237v-473q137 127 342 127q287 0 287 -381v-729h-238v682q0 166 -45 211q-31 31 -133 31q-109 0 -213 -86v-838h-237z" />
<glyph unicode="i" horiz-adv-x="630" d="M195 1411q0 57 39.5 97t97.5 40q57 0 96 -40t39 -97t-39 -96t-96 -39t-97 39t-40 96zM211 0v1092h238v-1092h-238z" />
<glyph unicode="j" horiz-adv-x="718" d="M74 -209q127 0 168 76q33 61 32 242v983h238v-983q0 -268 -103.5 -380t-334.5 -112v174zM260 1411q0 57 40 97t97 40t96 -40t39 -97t-38.5 -96t-96.5 -39q-57 0 -97 39t-40 96z" />
<glyph unicode="k" horiz-adv-x="1173" d="M178 0v1456h236v-758l393 394h244l-377 -377l416 -715h-275l-311 545l-90 -90v-455h-236z" />
<glyph unicode="l" horiz-adv-x="614" d="M199 0v1456h237v-1456h-237z" />
<glyph unicode="m" horiz-adv-x="1683" d="M162 0v1092h219v-123q127 141 340 141q176 0 233 -147q33 39 99 77q117 70 256 70q268 0 268 -381v-729h-236v682q0 166 -38 211q-27 31 -121 31q-96 0 -199 -86q8 -43 8 -109v-729h-237v682q0 166 -39 211q-27 31 -121 31q-98 0 -195 -86v-838h-237z" />
<glyph unicode="n" horiz-adv-x="1189" d="M160 0v1092h219v-123q137 141 358 141q287 0 287 -381v-729h-236v682q0 166 -45 211q-31 31 -133 31q-109 0 -213 -86v-838h-237z" />
<glyph unicode="o" horiz-adv-x="1220" d="M135 547q0 567 488 567q485 0 485 -567q0 -569 -485 -570q-488 1 -488 570zM371 547q0 -193 43 -281q59 -117 209 -116q150 0 206 116q43 88 43 281q0 190 -43 278q-57 117 -206 117q-150 0 -209 -117q-43 -88 -43 -278z" />
<glyph unicode="p" horiz-adv-x="1204" d="M190 -365v1457h220v-127q158 145 319 145q354 0 354 -545q0 -584 -473 -583q-80 0 -182 41v-388h-238zM428 197q66 -41 190 -41q129 0 177 94q43 88 43 315q0 201 -43 278t-148 77q-92 0 -219 -93v-630z" />
<glyph unicode="q" horiz-adv-x="1243" d="M156 528q0 291 100 428q113 154 373 154q78 0 418 -18v-1457h-220v492q-158 -145 -317 -145q-354 -1 -354 546zM401 537q0 -203 43 -284t148 -81q94 0 219 92v660q-66 23 -193 22q-129 0 -173 -88t-44 -321z" />
<glyph unicode="r" horiz-adv-x="786" d="M174 0v1092h219v-154q125 168 244 168q49 0 88 -8v-197q-59 23 -127 23q-100 0 -186 -142v-782h-238z" />
<glyph unicode="s" horiz-adv-x="1058" d="M147 786q0 127 68 211q92 113 295 113q176 0 319 -78l2 -182q-123 88 -292 88q-178 0 -179 -115q0 -80 142 -131q227 -78 264 -100q141 -88 141 -260q0 -158 -96 -250q-102 -100 -291 -100q-195 0 -364 92v182q186 -100 319 -100q205 0 205 104q0 113 -137 166l-258 96 q-138 82 -138 264z" />
<glyph unicode="t" horiz-adv-x="825" d="M121 920v172h127v227l235 92v-319h234v-172h-234v-547q0 -123 25 -162q37 -55 158 -55q29 0 59 10v-162q-86 -23 -141 -22q-215 0 -287 114q-49 78 -49 277v547h-127z" />
<glyph unicode="u" horiz-adv-x="1169" d="M164 365v727h237v-682q0 -166 45 -211q31 -31 134 -31q109 0 213 86v838h237v-1092h-219v123q-137 -141 -360 -141q-287 0 -287 383z" />
<glyph unicode="v" horiz-adv-x="1056" d="M43 1092h250l280 -865l281 865h182l-356 -1092h-283z" />
<glyph unicode="w" horiz-adv-x="1759" d="M53 1092h248l248 -867l248 867h247l246 -867l250 867h180l-313 -1092h-295l-225 778l-223 -778h-295z" />
<glyph unicode="x" horiz-adv-x="1110" d="M92 0l330 573l-299 519h270l201 -347l201 347h198l-299 -519l332 -573h-272l-232 401l-231 -401h-199z" />
<glyph unicode="y" horiz-adv-x="1062" d="M35 1092h250l280 -865l279 865h182l-328 -1002q-100 -309 -184 -393q-74 -76 -250 -76q-53 0 -84 6v168q39 -4 92 -4q125 0 125 119q0 61 -32 160z" />
<glyph unicode="z" horiz-adv-x="1050" d="M121 0v143l485 777h-442v172h737v-146l-483 -774h512v-172h-809z" />
<glyph unicode="{" horiz-adv-x="774" d="M195 547q0 395 110 651q119 276 322 277v-109q-190 0 -191 -819q0 -819 191 -819v-111q-203 0 -322 277q-110 258 -110 653z" />
<glyph unicode="|" horiz-adv-x="673" d="M297 -391v1874h111v-1874h-111z" />
<glyph unicode="}" horiz-adv-x="774" d="M147 -272q193 0 193 819t-193 819v109q203 0 324 -277q111 -258 111 -651q0 -395 -111 -653q-121 -276 -324 -277v111z" />
<glyph unicode="~" horiz-adv-x="909" d="M109 1309q43 166 219 166q63 0 154 -63.5t155 -63.5q86 0 100 86l74 -19q-43 -166 -219 -166q-63 0 -154.5 63.5t-154.5 63.5q-86 0 -101 -86z" />
<glyph unicode="&#xa1;" horiz-adv-x="720" d="M231 1356q0 57 40 97t98 40q57 0 97 -40t40 -97t-40 -96t-97 -39t-97.5 39t-40.5 96zM238 -18l45 1060h182l45 -1060h-272z" />
<glyph unicode="&#xa8;" horiz-adv-x="1130" d="M135 1411q0 57 40 97t95 40q57 0 97.5 -40t40.5 -97t-40 -96t-98 -39q-55 0 -95 39t-40 96zM694 1411q0 57 40 97t97 40t96.5 -40t39.5 -97t-39 -96t-97 -39q-57 0 -97 39t-40 96z" />
<glyph unicode="&#xaa;" d="M137 354q0 180 101 258q92 70 299 70q125 0 208 -8v172q-10 82 -163 82q-145 0 -363 -101v193q162 90 373 90q391 0 391 -324v-786h-219v131q-166 -150 -328 -149q-299 -1 -299 372zM377 354q0 -109 49 -143q29 -20 102 -21q80 0 217 82v246q-86 -8 -176 -8 q-98 0 -139 -25q-53 -35 -53 -131z" />
<glyph unicode="&#xad;" horiz-adv-x="856" d="M139 655v109h602v-109h-602z" />
<glyph unicode="&#x2212;" horiz-adv-x="856" d="M139 655v109h602v-109h-602z" />
<glyph unicode="&#xb1;" horiz-adv-x="960" d="M139 0v109h674v-109h-674zM139 655v109h283v283h110v-283h281v-109h-281v-282h-110v282h-283z" />
<glyph unicode="&#xb2;" horiz-adv-x="1202" d="M168 0v182q453 545 518 635q106 147 107 266q0 209 -207 209q-160 0 -373 -121v181q154 123 410 123q432 0 432 -385q0 -125 -99 -271q-117 -174 -495 -581h606v-238h-899z" />
<glyph unicode="&#xb3;" horiz-adv-x="1218" d="M158 82v186q195 -104 409 -104q109 0 181 82q66 74 65 164q0 94 -59 163q-72 82 -197 82h-115v183h125q102 0 160 69q49 61 49 158q0 227 -209 227q-201 0 -372 -92v180q174 94 372 95q236 0 346 -91q119 -94 119 -301q0 -262 -211 -338q246 -49 246 -354 q0 -195 -138 -302t-362 -107q-227 0 -409 100z" />
<glyph unicode="&#xb4;" horiz-adv-x="729" d="M129 1309l416 262l76 -129l-437 -230z" />
<glyph unicode="&#xb9;" horiz-adv-x="839" d="M182 1165v183l201 108h182v-1456h-246v1237z" />
<glyph unicode="&#xba;" horiz-adv-x="1220" d="M135 547q0 567 488 567q485 0 485 -567q0 -569 -485 -570q-488 1 -488 570zM371 547q0 -193 43 -281q59 -117 209 -116q150 0 206 116q43 88 43 281q0 190 -43 278q-57 117 -206 117q-150 0 -209 -117q-43 -88 -43 -278z" />
<glyph unicode="&#xbf;" horiz-adv-x="1091" d="M156 432q0 227 120 350q106 111 277 111v131h182v-295h-160q-186 0 -186 -278q0 -180 40 -237.5t169 -57.5q170 0 338 94v-172q-147 -96 -338 -96q-242 0 -342 97t-100 353zM504 1337q0 57 40 97.5t95 40.5q57 0 97 -40t40 -98q0 -57 -40 -96t-97 -39q-55 0 -95 39 t-40 96z" />
<glyph unicode="&#xc0;" horiz-adv-x="1376" d="M340 1738l61 132l322 -170l-47 -101zM100 0l447 1456h258l446 -1456h-258l-114 373h-473l-113 -373h-193zM459 547h368l-184 600z" />
<glyph unicode="&#xc1;" horiz-adv-x="1376" d="M621 1696l416 262l76 -129l-437 -230zM100 0l447 1456h258l446 -1456h-258l-114 373h-473l-113 -373h-193zM459 547h368l-184 600z" />
<glyph unicode="&#xc2;" horiz-adv-x="1376" d="M348 1684l327 262l326 -262l-72 -84l-254 223l-256 -223zM100 0l447 1456h258l446 -1456h-258l-114 373h-473l-113 -373h-193zM459 547h368l-184 600z" />
<glyph unicode="&#xc3;" horiz-adv-x="1376" d="M326 1659q43 166 219 166q63 0 154 -63.5t155 -63.5q86 0 100 86l74 -19q-43 -166 -219 -166q-63 0 -154.5 63.5t-154.5 63.5q-86 0 -101 -86zM100 0l447 1456h258l446 -1456h-258l-114 373h-473l-113 -373h-193zM459 547h368l-184 600z" />
<glyph unicode="&#xc4;" horiz-adv-x="1376" d="M260 1735q0 57 40 97t95 40q57 0 97.5 -40t40.5 -97t-40 -96t-98 -39q-55 0 -95 39t-40 96zM819 1735q0 57 40 97t97 40t96.5 -40t39.5 -97t-39 -96t-97 -39q-57 0 -97 39t-40 96zM100 0l447 1456h258l446 -1456h-258l-114 373h-473l-113 -373h-193zM459 547h368 l-184 600z" />
<glyph unicode="&#xc8;" horiz-adv-x="1146" d="M279 1738l61 132l322 -170l-47 -101zM238 0v1456h751v-182h-506v-436h439v-183h-439v-473h516v-182h-761z" />
<glyph unicode="&#xc9;" horiz-adv-x="1146" d="M559 1696l416 262l76 -129l-437 -230zM238 0v1456h751v-182h-506v-436h439v-183h-439v-473h516v-182h-761z" />
<glyph unicode="&#xca;" horiz-adv-x="1146" d="M287 1684l327 262l326 -262l-72 -84l-254 223l-256 -223zM238 0v1456h751v-182h-506v-436h439v-183h-439v-473h516v-182h-761z" />
<glyph unicode="&#xcb;" horiz-adv-x="1146" d="M196 1735q0 57 40 97t95 40q57 0 97.5 -40t40.5 -97t-40 -96t-98 -39q-55 0 -95 39t-40 96zM755 1735q0 57 40 97t97 40t96.5 -40t39.5 -97t-39 -96t-97 -39q-57 0 -97 39t-40 96zM238 0v1456h751v-182h-506v-436h439v-183h-439v-473h516v-182h-761z" />
<glyph unicode="&#xcc;" horiz-adv-x="819" d="M90 1738l61 132l322 -170l-47 -101zM303 0v1456h246v-1456h-246z" />
<glyph unicode="&#xcd;" horiz-adv-x="819" d="M371 1696l416 262l76 -129l-437 -230zM303 0v1456h246v-1456h-246z" />
<glyph unicode="&#xce;" horiz-adv-x="819" d="M99 1684l327 262l326 -262l-72 -84l-254 223l-256 -223zM303 0v1456h246v-1456h-246z" />
<glyph unicode="&#xcf;" horiz-adv-x="819" d="M10 1735q0 57 40 97t95 40q57 0 97.5 -40t40.5 -97t-40 -96t-98 -39q-55 0 -95 39t-40 96zM569 1735q0 57 40 97t97 40t96.5 -40t39.5 -97t-39 -96t-97 -39q-57 0 -97 39t-40 96zM303 0v1456h246v-1456h-246z" />
<glyph unicode="&#xd1;" horiz-adv-x="1454" d="M383 1659q43 166 219 166q63 0 154 -63.5t155 -63.5q86 0 100 86l74 -19q-43 -166 -219 -166q-63 0 -154.5 63.5t-154.5 63.5q-86 0 -101 -86zM217 0v1456h299l543 -1114v1114h190v-1456h-295l-546 1114v-1114h-191z" />
<glyph unicode="&#xd2;" horiz-adv-x="1513" d="M426 1738l61 132l322 -170l-47 -101zM160 729q0 403 164 586q147 162 438 162t436 -162q164 -184 164 -586q0 -403 -164 -586q-145 -164 -436 -163q-291 0 -438 163q-164 183 -164 586zM416 729q0 -293 78 -424q80 -137 268 -137q186 0 268 137q76 131 76 424t-76 422 q-82 137 -268 137q-188 0 -268 -137q-78 -129 -78 -422z" />
<glyph unicode="&#xd3;" horiz-adv-x="1513" d="M707 1696l416 262l76 -129l-437 -230zM160 729q0 403 164 586q147 162 438 162t436 -162q164 -184 164 -586q0 -403 -164 -586q-145 -164 -436 -163q-291 0 -438 163q-164 183 -164 586zM416 729q0 -293 78 -424q80 -137 268 -137q186 0 268 137q76 131 76 424t-76 422 q-82 137 -268 137q-188 0 -268 -137q-78 -129 -78 -422z" />
<glyph unicode="&#xd4;" horiz-adv-x="1513" d="M434 1684l327 262l326 -262l-72 -84l-254 223l-256 -223zM160 729q0 403 164 586q147 162 438 162t436 -162q164 -184 164 -586q0 -403 -164 -586q-145 -164 -436 -163q-291 0 -438 163q-164 183 -164 586zM416 729q0 -293 78 -424q80 -137 268 -137q186 0 268 137 q76 131 76 424t-76 422q-82 137 -268 137q-188 0 -268 -137q-78 -129 -78 -422z" />
<glyph unicode="&#xd5;" horiz-adv-x="1513" d="M412 1659q43 166 219 166q63 0 154 -63.5t155 -63.5q86 0 100 86l74 -19q-43 -166 -219 -166q-63 0 -154.5 63.5t-154.5 63.5q-86 0 -101 -86zM160 729q0 403 164 586q147 162 438 162t436 -162q164 -184 164 -586q0 -403 -164 -586q-145 -164 -436 -163q-291 0 -438 163 q-164 183 -164 586zM416 729q0 -293 78 -424q80 -137 268 -137q186 0 268 137q76 131 76 424t-76 422q-82 137 -268 137q-188 0 -268 -137q-78 -129 -78 -422z" />
<glyph unicode="&#xd6;" horiz-adv-x="1513" d="M346 1735q0 57 40 97t95 40q57 0 97.5 -40t40.5 -97t-40 -96t-98 -39q-55 0 -95 39t-40 96zM905 1735q0 57 40 97t97 40t96.5 -40t39.5 -97t-39 -96t-97 -39q-57 0 -97 39t-40 96zM160 729q0 403 164 586q147 162 438 162t436 -162q164 -184 164 -586q0 -403 -164 -586 q-145 -164 -436 -163q-291 0 -438 163q-164 183 -164 586zM416 729q0 -293 78 -424q80 -137 268 -137q186 0 268 137q76 131 76 424t-76 422q-82 137 -268 137q-188 0 -268 -137q-78 -129 -78 -422z" />
<glyph unicode="&#xd7;" horiz-adv-x="954" d="M201 510l198 201l-198 198l78 78l198 -201l199 201l78 -78l-199 -198l199 -201l-78 -76l-199 199l-198 -199z" />
<glyph unicode="&#xd9;" horiz-adv-x="1366" d="M357 1738l61 132l322 -170l-47 -101zM172 455v1001h246v-983q0 -305 305 -305t305 305v983h182v-1001q0 -229 -147 -357q-137 -117 -371 -116q-236 0 -373 116q-147 126 -147 357z" />
<glyph unicode="&#xda;" horiz-adv-x="1366" d="M637 1696l416 262l76 -129l-437 -230zM172 455v1001h246v-983q0 -305 305 -305t305 305v983h182v-1001q0 -229 -147 -357q-137 -117 -371 -116q-236 0 -373 116q-147 126 -147 357z" />
<glyph unicode="&#xdb;" horiz-adv-x="1366" d="M365 1684l327 262l326 -262l-72 -84l-254 223l-256 -223zM172 455v1001h246v-983q0 -305 305 -305t305 305v983h182v-1001q0 -229 -147 -357q-137 -117 -371 -116q-236 0 -373 116q-147 126 -147 357z" />
<glyph unicode="&#xdc;" horiz-adv-x="1366" d="M274 1735q0 57 40 97t95 40q57 0 97.5 -40t40.5 -97t-40 -96t-98 -39q-55 0 -95 39t-40 96zM833 1735q0 57 40 97t97 40t96.5 -40t39.5 -97t-39 -96t-97 -39q-57 0 -97 39t-40 96zM172 455v1001h246v-983q0 -305 305 -305t305 305v983h182v-1001q0 -229 -147 -357 q-137 -117 -371 -116q-236 0 -373 116q-147 126 -147 357z" />
<glyph unicode="&#xdd;" horiz-adv-x="1228" d="M575 1696l416 262l76 -129l-437 -230zM86 1456h279l303 -569l299 569h207l-420 -792v-664h-246v666z" />
<glyph unicode="&#xe0;" d="M137 354q0 180 101 258q92 70 299 70q125 0 208 -8v172q-10 82 -163 82q-145 0 -363 -101v193q162 90 373 90q391 0 391 -324v-786h-219v131q-166 -150 -328 -149q-299 -1 -299 372zM258 1442l76 129l416 -262l-56 -97zM377 354q0 -109 49 -143q29 -20 102 -21 q80 0 217 82v246q-86 -8 -176 -8q-98 0 -139 -25q-53 -35 -53 -131z" />
<glyph unicode="&#xe1;" d="M137 354q0 180 101 258q92 70 299 70q125 0 208 -8v172q-10 82 -163 82q-145 0 -363 -101v193q162 90 373 90q391 0 391 -324v-786h-219v131q-166 -150 -328 -149q-299 -1 -299 372zM377 354q0 -109 49 -143q29 -20 102 -21q80 0 217 82v246q-86 -8 -176 -8 q-98 0 -139 -25q-53 -35 -53 -131zM449 1309l415 262l74 -129l-436 -230z" />
<glyph unicode="&#xe2;" d="M137 354q0 180 101 258q92 70 299 70q125 0 208 -8v172q-10 82 -163 82q-145 0 -363 -101v193q162 90 373 90q391 0 391 -324v-786h-219v131q-166 -150 -328 -149q-299 -1 -299 372zM268 1303l326 262l326 -262l-72 -84l-254 223l-256 -223zM377 354q0 -109 49 -143 q29 -20 102 -21q80 0 217 82v246q-86 -8 -176 -8q-98 0 -139 -25q-53 -35 -53 -131z" />
<glyph unicode="&#xe3;" d="M137 354q0 180 101 258q92 70 299 70q125 0 208 -8v172q-10 82 -163 82q-145 0 -363 -101v193q162 90 373 90q391 0 391 -324v-786h-219v131q-166 -150 -328 -149q-299 -1 -299 372zM250 1415l72 19q16 -86 100 -86q63 0 154.5 63.5t154.5 63.5q178 0 219 -166l-73 -19 q-14 86 -99 86q-63 0 -154.5 -63.5t-156.5 -63.5q-176 0 -217 166zM377 354q0 -109 49 -143q29 -20 102 -21q80 0 217 82v246q-86 -8 -176 -8q-98 0 -139 -25q-53 -35 -53 -131z" />
<glyph unicode="&#xe4;" d="M137 354q0 180 101 258q92 70 299 70q125 0 208 -8v172q-10 82 -163 82q-145 0 -363 -101v193q162 90 373 90q391 0 391 -324v-786h-219v131q-166 -150 -328 -149q-299 -1 -299 372zM190 1411q0 57 40 97t98 40q55 0 95 -40t40 -97t-40 -96t-95 -39q-57 0 -97.5 39 t-40.5 96zM377 354q0 -109 49 -143q29 -20 102 -21q80 0 217 82v246q-86 -8 -176 -8q-98 0 -139 -25q-53 -35 -53 -131zM705 1411q0 57 38.5 97t96.5 40q57 0 97 -40t40 -97t-40 -96t-97 -39t-96 39t-39 96z" />
<glyph unicode="&#xe5;" d="M137 354q0 180 101 258q92 70 299 70q125 0 208 -8v172q-10 82 -163 82q-145 0 -363 -101v193q162 90 373 90q391 0 391 -324v-786h-219v131q-166 -150 -328 -149q-299 -1 -299 372zM377 354q0 -109 49 -143q29 -20 102 -21q80 0 217 82v246q-86 -8 -176 -8 q-98 0 -139 -25q-53 -35 -53 -131zM408 1376q0 72 51 122t121 50q72 0 122 -50t50 -122q0 -70 -50.5 -121t-121.5 -51q-70 0 -121 51t-51 121zM477 1376q0 -43 31 -72.5t72 -29.5q43 0 72.5 29.5t29.5 72.5t-29.5 73t-72.5 30q-41 0 -72 -30t-31 -73z" />
<glyph unicode="&#xe6;" horiz-adv-x="1533" d="M113 365q0 205 99 292.5t337 87.5q27 0 110 -18v119q-6 47 -43 90q-49 55 -120 55q-127 0 -183 -45v-108h-137v163q117 109 328 109q227 0 268 -100q27 43 98.5 71.5t149.5 28.5q197 0 287 -74.5t90 -255.5q0 -184 -137 -270q-96 -59 -228 -59q-74 0 -164 43v-2 q0 -162 50 -275q55 -127 151 -127q104 0 291 74l26 -90q-152 -92 -362 -92q-207 0 -319 188q-47 -68 -127 -121q-100 -68 -201 -67q-137 0 -200.5 89t-63.5 294zM340 365q0 -154 39 -199q23 -29 98 -29q33 0 87 43t100 109q-23 102 -23 258v43q-57 47 -92 47 q-125 0 -167 -52t-42 -220zM868 610q61 -41 154 -41q156 0 156 219q-2 217 -154 218q-156 -1 -156 -396z" />
<glyph unicode="&#xe7;" horiz-adv-x="1116" d="M143 547q0 563 473 563q211 0 328 -70v-186q-125 74 -317 74q-141 0 -197 -121q-41 -88 -41 -260q0 -391 227 -391q143 0 342 86v-174q-47 -23 -98 -39q-121 -39 -242 -45l-20 -84q219 0 219 -140q0 -162 -186 -161q-96 0 -213 41v90q117 -53 192 -54q82 0 82 72 q0 57 -55 72q-27 6 -166 6l43 158q-371 39 -371 563z" />
<glyph unicode="&#xe8;" horiz-adv-x="1144" d="M123 547q0 283 100 416q109 145 350 147q426 4 426 -500v-151h-634q6 -147 51 -215q55 -88 184 -88q162 0 369 86v-168q-201 -92 -414 -92q-432 0 -432 565zM236 1442l75 129l416 -262l-55 -97zM365 633h399q0 150 -25 207q-39 98 -166 98q-121 0 -165 -74 q-39 -63 -43 -231z" />
<glyph unicode="&#xe9;" horiz-adv-x="1144" d="M123 547q0 283 100 416q109 145 350 147q426 4 426 -500v-151h-634q6 -147 51 -215q55 -88 184 -88q162 0 369 86v-168q-201 -92 -414 -92q-432 0 -432 565zM365 633h399q0 150 -25 207q-39 98 -166 98q-121 0 -165 -74q-39 -63 -43 -231zM412 1309l415 260l76 -127 l-436 -230z" />
<glyph unicode="&#xea;" horiz-adv-x="1144" d="M123 547q0 283 100 416q109 145 350 147q426 4 426 -500v-151h-634q6 -147 51 -215q55 -88 184 -88q162 0 369 86v-168q-201 -92 -414 -92q-432 0 -432 565zM260 1303l326 262l325 -262l-69 -84l-256 223l-254 -223zM365 633h399q0 150 -25 207q-39 98 -166 98 q-121 0 -165 -74q-39 -63 -43 -231z" />
<glyph unicode="&#xeb;" horiz-adv-x="1144" d="M123 547q0 283 100 416q109 145 350 147q426 4 426 -500v-151h-634q6 -147 51 -215q55 -88 184 -88q162 0 369 86v-168q-201 -92 -414 -92q-432 0 -432 565zM162 1411q0 57 40 97t97 40t96 -40t39 -97t-39 -96t-96 -39t-97 39t-40 96zM365 633h399q0 150 -25 207 q-39 98 -166 98q-121 0 -165 -74q-39 -63 -43 -231zM717 1411q0 57 40 97t95 40q57 0 97 -40t40 -97t-40 -96t-97 -39q-55 0 -95 39t-40 96z" />
<glyph unicode="&#xec;" horiz-adv-x="634" d="M-14 1442l75 129l416 -262l-55 -97zM211 0v1092h238v-1092h-238z" />
<glyph unicode="&#xed;" horiz-adv-x="634" d="M188 1309l416 262l76 -129l-436 -230zM211 0v1092h238v-1092h-238z" />
<glyph unicode="&#xee;" horiz-adv-x="634" d="M4 1303l326 262l325 -262l-71 -84l-254 223l-256 -223zM211 0v1092h238v-1092h-238z" />
<glyph unicode="&#xef;" horiz-adv-x="630" d="M-16 1411q0 57 39.5 97t97.5 40q57 0 97 -40t40 -97q0 -55 -44 -95t-101 -40q-55 0 -92 39t-37 96zM211 0v1092h238v-1092h-238zM416 1411q0 57 39 97t96 40t97 -40t40 -97q0 -55 -44 -95t-101 -40q-55 0 -91 39t-36 96z" />
<glyph unicode="&#xf1;" horiz-adv-x="1193" d="M160 0v1092h219v-123q137 141 358 141q287 0 287 -381v-729h-236v682q0 166 -45 211q-31 31 -133 31q-109 0 -213 -86v-838h-237zM244 1309q41 166 219 166q63 0 154.5 -63.5t154.5 -63.5q84 0 100 86l72 -19q-41 -166 -217 -166q-66 0 -156 63.5t-153 63.5 q-86 0 -101 -86z" />
<glyph unicode="&#xf2;" horiz-adv-x="1220" d="M135 547q0 567 488 567q485 0 485 -567q0 -569 -485 -570q-488 1 -488 570zM262 1442l76 129l416 -262l-56 -97zM371 547q0 -193 43 -281q59 -117 209 -116q150 0 206 116q43 88 43 281q0 190 -43 278q-57 117 -206 117q-150 0 -209 -117q-43 -88 -43 -278z" />
<glyph unicode="&#xf3;" horiz-adv-x="1220" d="M135 547q0 567 488 567q485 0 485 -567q0 -569 -485 -570q-488 1 -488 570zM371 547q0 -193 43 -281q59 -117 209 -116q150 0 206 116q43 88 43 281q0 190 -43 278q-57 117 -206 117q-150 0 -209 -117q-43 -88 -43 -278zM492 1309l415 262l74 -129l-436 -230z" />
<glyph unicode="&#xf4;" horiz-adv-x="1220" d="M135 547q0 567 488 567q485 0 485 -567q0 -569 -485 -570q-488 1 -488 570zM295 1303l328 262l325 -262l-71 -84l-254 223l-256 -223zM371 547q0 -193 43 -281q59 -117 209 -116q150 0 206 116q43 88 43 281q0 190 -43 278q-57 117 -206 117q-150 0 -209 -117 q-43 -88 -43 -278z" />
<glyph unicode="&#xf5;" horiz-adv-x="1220" d="M135 547q0 567 488 567q485 0 485 -567q0 -569 -485 -570q-488 1 -488 570zM281 1309q41 166 219 166q63 0 153 -63.5t156 -63.5q84 0 100 86l72 -19q-41 -166 -219 -166q-63 0 -153.5 63.5t-155.5 63.5q-84 0 -101 -86zM371 547q0 -193 43 -281q59 -117 209 -116 q150 0 206 116q43 88 43 281q0 190 -43 278q-57 117 -206 117q-150 0 -209 -117q-43 -88 -43 -278z" />
<glyph unicode="&#xf6;" horiz-adv-x="1220" d="M135 547q0 567 488 567q485 0 485 -567q0 -569 -485 -570q-488 1 -488 570zM197 1411q0 57 38.5 97t96.5 40q57 0 97 -40t40 -97t-40 -96t-97 -39t-96 39t-39 96zM371 547q0 -193 43 -281q59 -117 209 -116q150 0 206 116q43 88 43 281q0 190 -43 278q-57 117 -206 117 q-150 0 -209 -117q-43 -88 -43 -278zM786 1411q0 57 40 97t98 40q57 0 97 -40t40 -97t-40 -96t-97 -39t-97.5 39t-40.5 96z" />
<glyph unicode="&#xf9;" horiz-adv-x="1169" d="M164 365v727h237v-682q0 -166 45 -211q31 -31 134 -31q109 0 213 86v838h237v-1092h-219v123q-137 -141 -360 -141q-287 0 -287 383zM217 1442l76 129l416 -262l-56 -97z" />
<glyph unicode="&#xfa;" horiz-adv-x="1169" d="M164 365v727h237v-682q0 -166 45 -211q31 -31 134 -31q109 0 213 86v838h237v-1092h-219v123q-137 -141 -360 -141q-287 0 -287 383zM475 1309l418 262l74 -129l-437 -230z" />
<glyph unicode="&#xfb;" horiz-adv-x="1169" d="M164 365v727h237v-682q0 -166 45 -211q31 -31 134 -31q109 0 213 86v838h237v-1092h-219v123q-137 -141 -360 -141q-287 0 -287 383zM274 1303l326 262l326 -262l-72 -84l-254 223l-256 -223z" />
<glyph unicode="&#xfc;" horiz-adv-x="1169" d="M164 365v727h237v-682q0 -166 45 -211q31 -31 134 -31q109 0 213 86v838h237v-1092h-219v123q-137 -141 -360 -141q-287 0 -287 383zM166 1411q0 57 40 97t97 40t97 -40t40 -97t-40 -96t-97 -39t-97 39t-40 96zM752 1411q0 57 38.5 97t96.5 40q57 0 97 -40t40 -97 t-40 -96t-97 -39t-96 39t-39 96z" />
<glyph unicode="&#xfd;" horiz-adv-x="1062" d="M475 1334l416 262l76 -129l-437 -230zM35 1092h250l280 -865l279 865h182l-328 -1002q-100 -309 -184 -393q-74 -76 -250 -76q-53 0 -84 6v168q39 -4 92 -4q125 0 125 119q0 61 -32 160z" />
<glyph unicode="&#xff;" horiz-adv-x="1062" d="M115 1372q0 57 40 97t95 40q57 0 97.5 -40t40.5 -97t-40 -96t-98 -39q-55 0 -95 39t-40 96zM674 1372q0 57 40 97t97 40t96.5 -40t39.5 -97t-39 -96t-97 -39q-57 0 -97 39t-40 96zM35 1092h250l280 -865l279 865h182l-328 -1002q-100 -309 -184 -393q-74 -76 -250 -76 q-53 0 -84 6v168q39 -4 92 -4q125 0 125 119q0 61 -32 160z" />
<glyph unicode="&#x152;" horiz-adv-x="2660" d="M1751 0v1456h751v-182h-506v-436h439v-183h-439v-473h516v-182h-761zM160 729q0 403 164 586q147 162 438 162t436 -162q164 -184 164 -586q0 -403 -164 -586q-145 -164 -436 -163q-291 0 -438 163q-164 183 -164 586zM416 729q0 -293 78 -424q80 -137 268 -137 q186 0 268 137q76 131 76 424t-76 422q-82 137 -268 137q-188 0 -268 -137q-78 -129 -78 -422z" />
<glyph unicode="&#x153;" horiz-adv-x="2365" d="M1344 547q0 283 100 416q109 145 350 147h7q419 0 419 -500v-151h-634q6 -147 51 -215q55 -88 184 -88q162 0 369 86v-168q-201 -92 -414 -92q-432 0 -432 565zM1586 633h399q0 150 -25 207q-39 98 -166 98q-121 0 -165 -74q-39 -63 -43 -231zM135 547q0 567 488 567 q485 0 485 -567q0 -569 -485 -570q-488 1 -488 570zM371 547q0 -193 43 -281q59 -117 209 -116q150 0 206 116q43 88 43 281q0 190 -43 278q-57 117 -206 117q-150 0 -209 -117q-43 -88 -43 -278z" />
<glyph unicode="&#x178;" horiz-adv-x="1228" d="M213 1735q0 57 40 97t95 40q57 0 97.5 -40t40.5 -97t-40 -96t-98 -39q-55 0 -95 39t-40 96zM772 1735q0 57 40 97t97 40t96.5 -40t39.5 -97t-39 -96t-97 -39q-57 0 -97 39t-40 96zM86 1456h279l303 -569l299 569h207l-420 -792v-664h-246v666z" />
<glyph unicode="&#x2c6;" horiz-adv-x="819" d="M74 1303l327 262l326 -262l-72 -84l-254 223l-256 -223z" />
<glyph unicode="&#x2dc;" horiz-adv-x="454" d="M-350 183q43 166 219 166q63 0 154 -63.5t155 -63.5q86 0 100 86l74 -19q-43 -166 -219 -166q-63 0 -154.5 63.5t-154.5 63.5q-86 0 -101 -86z" />
<glyph unicode="&#x2000;" horiz-adv-x="978" />
<glyph unicode="&#x2001;" horiz-adv-x="1957" />
<glyph unicode="&#x2002;" horiz-adv-x="978" />
<glyph unicode="&#x2003;" horiz-adv-x="1957" />
<glyph unicode="&#x2004;" horiz-adv-x="651" />
<glyph unicode="&#x2005;" horiz-adv-x="489" />
<glyph unicode="&#x2006;" horiz-adv-x="325" />
<glyph unicode="&#x2007;" horiz-adv-x="325" />
<glyph unicode="&#x2008;" horiz-adv-x="243" />
<glyph unicode="&#x2009;" horiz-adv-x="391" />
<glyph unicode="&#x200a;" horiz-adv-x="108" />
<glyph unicode="&#x2010;" horiz-adv-x="788" d="M195 473v145h401v-145h-401z" />
<glyph unicode="&#x2011;" horiz-adv-x="788" d="M195 473v145h401v-145h-401z" />
<glyph unicode="&#x2012;" horiz-adv-x="788" d="M195 473v145h401v-145h-401z" />
<glyph unicode="&#x2013;" horiz-adv-x="978" d="M150 473v145h681v-145h-681z" />
<glyph unicode="&#x2014;" horiz-adv-x="2048" d="M205 512v205h1638v-205h-1638z" />
<glyph unicode="&#x2018;" horiz-adv-x="681" d="M197 1264q0 215 215 325l49 -76q-150 -92 -150 -200q25 37 66 37q53 0 85 -39t32 -99q0 -55 -39 -95t-97 -40q-70 0 -115.5 48.5t-45.5 138.5z" />
<glyph unicode="&#x2019;" horiz-adv-x="681" d="M188 1411q0 57 39 97t97 40q70 0 114.5 -48t44.5 -140q0 -215 -213 -324l-49 74q150 92 150 201q-25 -37 -68 -37q-53 0 -84 39t-31 98z" />
<glyph unicode="&#x201c;" horiz-adv-x="1046" d="M160 1264q0 215 215 325l49 -76q-152 -92 -152 -200q27 37 68 37q53 0 85 -40t32 -98q0 -55 -40 -95t-98 -40q-70 0 -114.5 48.5t-44.5 138.5zM618 1264q0 215 216 325l49 -76q-152 -92 -152 -200q27 37 68 37q53 0 84.5 -40t31.5 -98q0 -55 -39.5 -95t-97.5 -40 q-70 0 -115 48.5t-45 138.5z" />
<glyph unicode="&#x201d;" horiz-adv-x="1046" d="M147 1411q0 57 40 97t98 40q70 0 114.5 -48t44.5 -140q0 -215 -215 -324l-49 74q152 92 152 201q-27 -37 -68 -37q-53 0 -85 40t-32 97zM606 1411q0 57 39 97t96 40q70 0 115 -48t45 -140q0 -215 -213 -324l-49 74q150 92 149 201q-25 -37 -67 -37q-53 0 -84 39t-31 98z " />
<glyph unicode="&#x2022;" horiz-adv-x="1040" d="M291 682q0 94 66.5 160.5t160.5 66.5q96 0 161.5 -65.5t65.5 -161.5q0 -94 -66.5 -160.5t-160.5 -66.5t-160.5 66.5t-66.5 160.5z" />
<glyph unicode="&#x2026;" horiz-adv-x="2027" d="M1563 119q0 57 40 96t97 39t96 -39t39 -96t-38.5 -97t-96.5 -40q-57 0 -97 40t-40 97zM887 119q0 57 40 96t97 39t96 -39t39 -96t-38.5 -97t-96.5 -40q-57 0 -97 40t-40 97zM211 119q0 57 40 96t97 39t96 -39t39 -96t-38.5 -97t-96.5 -40q-57 0 -97 40t-40 97z" />
<glyph unicode="&#x202f;" horiz-adv-x="391" />
<glyph unicode="&#x205f;" horiz-adv-x="489" />
<glyph unicode="&#x2122;" horiz-adv-x="3035" d="M1376 0v1456h371l350 -1147l351 1147h368v-1456h-246v1229l-376 -1229h-258l-377 1229v-1229h-183zM57 1274v182h1002v-182h-377v-1274h-246v1274h-379z" />
<glyph unicode="&#xe000;" horiz-adv-x="1090" d="M0 1090h1090v-1090h-1090v1090z" />
<glyph unicode="&#xfb01;" horiz-adv-x="1587" d="M1151 1411q0 57 39.5 97t97.5 40q57 0 96 -40t39 -97t-39 -96t-96 -39t-97 39t-40 96zM1167 0v1092h238v-1092h-238zM160 920v172h164q0 201 47 274q70 109 288 109q49 0 142 -15v-164q-39 6 -60 7q-121 0 -151.5 -33t-30.5 -178h227v-172h-227v-920h-235v920h-164z" />
<glyph unicode="&#xfb02;" horiz-adv-x="1570" d="M1155 0v1456h237v-1456h-237zM160 920v172h164q0 201 47 274q70 109 288 109q49 0 142 -15v-164q-39 6 -60 7q-121 0 -151.5 -33t-30.5 -178h227v-172h-227v-920h-235v920h-164z" />
<glyph unicode="&#xfb03;" horiz-adv-x="2543" d="M2108 1411q0 57 39.5 97t97.5 40q57 0 96 -40t39 -97t-39 -96t-96 -39t-97 39t-40 96zM2124 0v1092h238v-1092h-238zM1116 920v172h164q0 201 47 274q70 109 288 109q49 0 142 -15v-164q-39 6 -60 7q-121 0 -151.5 -33t-30.5 -178h227v-172h-227v-920h-235v920h-164z M160 920v172h164q0 201 47 274q70 109 288 109q49 0 142 -15v-164q-39 6 -60 7q-121 0 -151.5 -33t-30.5 -178h227v-172h-227v-920h-235v920h-164z" />
<glyph unicode="&#xfb04;" horiz-adv-x="2527" d="M2112 0v1456h237v-1456h-237zM1116 920v172h164q0 201 47 274q70 109 288 109q49 0 142 -15v-164q-39 6 -60 7q-121 0 -151.5 -33t-30.5 -178h227v-172h-227v-920h-235v920h-164zM160 920v172h164q0 201 47 274q70 109 288 109q49 0 142 -15v-164q-39 6 -60 7 q-121 0 -151.5 -33t-30.5 -178h227v-172h-227v-920h-235v920h-164z" />
</font>
</defs>
</svg>
