<?xml version="1.0" standalone="no"?>
<!DOCTYPE svg PUBLIC "-//W3C//DTD SVG 1.1//EN" "http://www.w3.org/Graphics/SVG/1.1/DTD/svg11.dtd" >
<svg xmlns="http://www.w3.org/2000/svg">
<metadata>
This is a custom SVG webfont generated by Font Squirrel.
Copyright   :  1993 Jeroen Klaver 2000 Shamrock Int
</metadata>
<defs>
<font id="webfontVJ68Wyz4" horiz-adv-x="1298" >
<font-face units-per-em="2048" ascent="1638" descent="-410" />
<missing-glyph horiz-adv-x="591" />
<glyph unicode=" "  horiz-adv-x="591" />
<glyph unicode="&#x09;" horiz-adv-x="591" />
<glyph unicode="&#xa0;" horiz-adv-x="591" />
<glyph unicode="!" horiz-adv-x="718" d="M188 137q0 154 183 154q182 0 182 -154q0 -156 -182 -155q-183 -1 -183 155zM188 1319q0 156 183 156q182 0 182 -156q0 -59 -70 -883h-223z" />
<glyph unicode="(" horiz-adv-x="684" d="M131 547q0 389 119 651q127 276 332 277v-109q-209 0 -209 -819t209 -819v-111q-205 0 -332 277q-119 262 -119 653z" />
<glyph unicode=")" horiz-adv-x="681" d="M119 -272q209 0 209 819t-209 819v109q205 0 332 -277q119 -262 118 -651q0 -391 -118 -653q-127 -276 -332 -277v111z" />
<glyph unicode="+" horiz-adv-x="909" d="M119 655v109h282v283h109v-283h283v-109h-283v-282h-109v282h-282z" />
<glyph unicode="," horiz-adv-x="649" d="M139 127q0 156 183 156q119 0 167 -66q41 -59 41 -190q0 -160 -180 -281h-178q217 174 217 258q-47 -31 -113 -31q-137 0 -137 154z" />
<glyph unicode="-" horiz-adv-x="757" d="M172 473v145h401v-145h-401z" />
<glyph unicode="." horiz-adv-x="698" d="M150 127q0 156 182 156t182 -156q0 -154 -182 -154t-182 154z" />
<glyph unicode="0" horiz-adv-x="1507" d="M137 729q0 412 170 594q147 160 449 160q301 0 448 -160q170 -182 170 -594t-170 -596q-147 -160 -448 -160t-449 160q-170 184 -170 596zM500 729q0 -295 58 -417t198 -122q139 0 196.5 122t57.5 417t-57.5 416t-196.5 121t-197.5 -122t-58.5 -415z" />
<glyph unicode="1" horiz-adv-x="968" d="M154 1110v219l272 127h291v-1456h-365v1184z" />
<glyph unicode="2" horiz-adv-x="1359" d="M158 0v248l383 407q242 256 237 418q18 180 -172 180q-225 0 -403 -123v226q201 127 459 127q332 0 456 -164q63 -84 64 -199q0 -213 -287 -479l-338 -313h641v-328h-1040z" />
<glyph unicode="3" horiz-adv-x="1286" d="M123 80v217q172 -100 416 -100q131 0 194 73q51 57 51 144q0 223 -256 223h-114v219h125q209 0 209 205q0 98 -31 139q-45 61 -178 62q-162 0 -379 -97v199q162 119 465 119q246 0 370 -109q117 -102 117 -287q0 -262 -256 -342q84 -16 145 -55q145 -98 146 -303 q0 -197 -143.5 -305.5t-397.5 -108.5q-290 1 -483 107z" />
<glyph unicode="4" horiz-adv-x="1538" d="M123 328v262l698 885h289v-928h272v-219h-272v-328h-365v328h-622zM356 547h389v493z" />
<glyph unicode="5" horiz-adv-x="1341" d="M174 88v223q211 -121 410 -121q133 0 202 82q53 66 54 164q0 90 -56 148q-74 80 -235 80h-305v792h846v-317h-629v-230h186q557 0 557 -467q0 -229 -155 -352q-147 -117 -402 -117q-254 0 -473 115z" />
<glyph unicode="6" horiz-adv-x="1456" d="M156 729q0 418 168 594q154 160 495 160q162 0 344 -47v-199q-162 29 -352 29q-287 0 -287 -406q92 123 281 123q502 0 502 -506q0 -504 -566 -504q-291 0 -430 160q-155 180 -155 596zM541 483q0 -293 204 -293q205 0 205 283t-205 283q-204 -1 -204 -273z" />
<glyph unicode="7" horiz-adv-x="1253" d="M135 1139v317h1012v-250l-715 -1261l-221 137l598 1057h-674z" />
<glyph unicode="8" horiz-adv-x="1415" d="M152 395q0 197 243 359q-123 74 -162 143q-43 78 -43 236q0 350 512 350q268 0 390 -113q92 -86 92 -223q0 -160 -189 -299q285 -160 285 -412q0 -463 -584 -463q-544 0 -544 422zM387 387q0 -94 55 -156q72 -80 222 -79q262 0 262 196q0 78 -95 152q-68 49 -258 145 q-78 -51 -131 -121q-55 -76 -55 -137zM528 1155q0 -66 68 -115q53 -39 209 -104q74 68 98 102q31 43 31 92q0 74 -47 125q-55 55 -154 56q-205 0 -205 -156z" />
<glyph unicode="9" horiz-adv-x="1478" d="M168 979q0 504 565 504q291 0 430 -160q156 -180 156 -594q0 -420 -170 -596q-156 -160 -510 -160q-152 0 -393 97v221q242 -100 409 -101q295 0 295 406q-92 -123 -280 -123q-502 0 -502 506zM524 983q0 -283 205 -283t205 275q0 291 -205 291t-205 -283z" />
<glyph unicode=":" horiz-adv-x="698" d="M164 127q0 156 182 156t182 -156q0 -154 -182 -154t-182 154zM164 1028q0 156 182 156t182 -156q0 -154 -182 -154t-182 154z" />
<glyph unicode=";" horiz-adv-x="698" d="M143 127q0 156 183 156q119 0 168 -66q41 -59 41 -190q0 -160 -181 -281h-178q217 174 217 258q-47 -31 -112 -31q-138 0 -138 154zM164 1028q0 156 182 156t182 -156q0 -154 -182 -154t-182 154z" />
<glyph unicode="=" horiz-adv-x="909" d="M119 483v109h674v-109h-674zM119 827v111h674v-111h-674z" />
<glyph unicode="?" horiz-adv-x="1124" d="M137 1198v238q178 47 328 47q274 0 433 -124t159 -339q0 -219 -115 -330q-129 -125 -424 -133v-111h-217v332q104 -4 164 -4q147 0 199 92q29 51 28 154q0 88 -43 154q-59 92 -184 92q-197 0 -328 -68zM221 135q0 154 193 154q190 0 190 -154q0 -156 -190 -155 q-193 -1 -193 155z" />
<glyph unicode="A" horiz-adv-x="1458" d="M55 0l420 1456h467l420 -1456h-379l-90 328h-463l-92 -328h-283zM492 547h342l-170 618z" />
<glyph unicode="B" horiz-adv-x="1411" d="M205 0v1456h543q510 0 509 -383q0 -248 -282 -328q121 -23 211 -90q125 -96 125 -254q0 -188 -111 -282q-139 -119 -479 -119h-516zM569 201h152q217 0 217 217q0 229 -227 229h-142v-446zM569 846h142q92 0 139 78q35 59 35 133q0 199 -183 198h-133v-409z" />
<glyph unicode="C" horiz-adv-x="1312" d="M147 733q0 416 172 590q158 160 512 160q170 0 320 -58v-237q-164 78 -320 78q-170 0 -244.5 -127t-74.5 -406t75 -405.5t244 -126.5q166 0 349 108v-241q-141 -86 -349 -86q-354 0 -512 161q-172 174 -172 590z" />
<glyph unicode="D" horiz-adv-x="1484" d="M205 0v1456h600q283 0 422 -151q158 -172 157 -576q0 -408 -161 -577q-145 -152 -453 -152h-565zM569 201h201q250 0 250 528q0 526 -250 526h-201v-1054z" />
<glyph unicode="E" horiz-adv-x="1146" d="M207 0v1456h846v-219h-482v-391h410v-217h-410v-410h492v-219h-856z" />
<glyph unicode="F" horiz-adv-x="1148" d="M201 0v1456h846v-219h-482v-391h410v-217h-410v-629h-364z" />
<glyph unicode="G" horiz-adv-x="1439" d="M121 729q0 420 170 594q158 160 512 160q264 0 403 -66v-235q-201 84 -403 84q-170 0 -244 -127t-74 -410t74 -411t244 -128q63 0 160 41v379h-138v183h502v-693q-307 -127 -524 -127q-354 0 -512 160q-170 176 -170 596z" />
<glyph unicode="H" horiz-adv-x="1638" d="M176 0v1456h365v-610h518v610h364v-1456h-364v629h-518v-629h-365z" />
<glyph unicode="I" horiz-adv-x="704" d="M172 0v1456h365v-1456h-365z" />
<glyph unicode="J" horiz-adv-x="790" d="M61 -182q190 0 191 291v1347h364v-1347q0 -293 -172 -408q-125 -84 -383 -84v201z" />
<glyph unicode="K" horiz-adv-x="1499" d="M193 0v1456h364v-555l459 555h348l-455 -543l545 -913h-422l-373 618l-102 -124v-494h-364z" />
<glyph unicode="L" horiz-adv-x="1093" d="M197 0v1456h364v-1237h473v-219h-837z" />
<glyph unicode="M" horiz-adv-x="2187" d="M238 0v1456h557l305 -1153l317 1153h549v-1456h-362v1133l-342 -1133h-414l-338 1133v-1133h-272z" />
<glyph unicode="N" horiz-adv-x="1583" d="M188 0v1456h525l420 -1096v1096h274v-1456h-524l-420 1098v-1098h-275z" />
<glyph unicode="O" horiz-adv-x="1527" d="M135 729q0 412 172 594q152 160 465 160t465 -160q172 -182 172 -594q0 -414 -172 -596q-152 -160 -465 -160t-465 160q-172 182 -172 596zM500 729q0 -285 62.5 -412t209.5 -127t209.5 127t62.5 412t-62 411t-210 126q-147 0 -209.5 -126t-62.5 -411z" />
<glyph unicode="P" horiz-adv-x="1368" d="M207 0v1456h551q299 0 428 -121q109 -102 108 -303q0 -422 -581 -422h-142v-610h-364zM571 811h142q121 0 176 78q41 57 41 143q0 223 -217 223h-142v-444z" />
<glyph unicode="Q" horiz-adv-x="1411" d="M90 729q0 412 172 594q152 160 467 160q313 0 465 -160q172 -182 172 -594q0 -352 -121 -532q-109 -162 -336 -207q12 -113 49 -161t113 -48v-164q-479 0 -516 371q-227 41 -340 207q-125 182 -125 534zM455 729q0 -285 62.5 -412t211.5 -127q147 0 209.5 127t62.5 412 q0 283 -62 410t-210 127q-150 0 -212 -127t-62 -410z" />
<glyph unicode="R" horiz-adv-x="1400" d="M197 0v1456h577q276 0 389 -117q84 -88 84 -266q0 -283 -295 -342q41 -16 78 -51q90 -84 152 -242l172 -438h-396l-127 336q-117 311 -194 311h-78v-647h-362zM559 846h141q182 0 183 227q0 92 -33 133q-41 49 -150 49h-141v-409z" />
<glyph unicode="S" horiz-adv-x="1261" d="M158 1073q0 156 84 260q121 150 389 150q244 0 399 -86v-250q-143 119 -393 119q-158 0 -158 -138q0 -82 168 -157q244 -111 316 -168q168 -139 167 -375q0 -199 -108 -313q-135 -143 -420 -144q-186 0 -428 127v260q225 -168 408 -168q213 0 213 138q0 92 -166 166 q-236 106 -305 168q-166 145 -166 411z" />
<glyph unicode="T" horiz-adv-x="1204" d="M78 1237v219h1055v-219h-347v-1237h-362v1237h-346z" />
<glyph unicode="U" horiz-adv-x="1441" d="M156 492v964h362v-1001q0 -272 238 -273q236 0 235 273v1001h275v-964q0 -227 -115 -359q-141 -160 -440 -160t-441 160q-114 132 -114 359z" />
<glyph unicode="V" horiz-adv-x="1458" d="M78 1456h381l303 -1157l317 1157h283l-430 -1456h-430z" />
<glyph unicode="W" horiz-adv-x="2383" d="M72 1456h403l268 -1137l289 1137h451l295 -1137l268 1137h281l-365 -1456h-481l-291 1087l-287 -1087h-467z" />
<glyph unicode="X" horiz-adv-x="1339" d="M72 0l399 756l-373 700h412l219 -412l217 412h309l-372 -700l401 -756h-412l-249 469l-244 -469h-307z" />
<glyph unicode="Y" horiz-adv-x="1325" d="M55 1456h412l250 -469l244 469h307l-422 -799v-657h-365v655z" />
<glyph unicode="Z" horiz-adv-x="1368" d="M145 0v201l650 1036h-607v219h1035v-217l-635 -1020h645v-219h-1088z" />
<glyph unicode="_" horiz-adv-x="978" d="M70 -455h819v-145h-819v145z" />
<glyph unicode="`" horiz-adv-x="1099" d="M205 1343l61 132l322 -170l-47 -101z" />
<glyph unicode="a" horiz-adv-x="1198" d="M111 319q0 195 104 273q133 100 520 100v101q0 117 -178 116q-147 0 -364 -110v211q162 111 372 110q233 0 353 -61q150 -78 149 -266v-793h-313v119q-168 -145 -342 -146q-301 0 -301 346zM461 346q0 -137 110 -137q55 0 164 78v223q-162 0 -218 -38t-56 -126z" />
<glyph unicode="b" horiz-adv-x="1282" d="M170 74v1382h332v-473q147 137 274 137q207 0 297 -151q80 -135 80 -422t-121 -424q-133 -150 -438 -150q-225 1 -424 101zM502 182q35 -10 119 -10q117 0 153 84q29 72 29 291q0 150 -8 198q-25 129 -111 129q-94 0 -182 -73v-619z" />
<glyph unicode="c" horiz-adv-x="1077" d="M100 547q0 244 107 389q133 184 426 184q176 0 295 -92v-209q-166 100 -295 101q-127 0 -172 -119q-29 -76 -29 -254t29 -256q45 -119 172 -119q158 0 313 111v-209q-133 -100 -313 -101q-293 0 -426 185q-107 143 -107 389z" />
<glyph unicode="d" horiz-adv-x="1292" d="M137 547q0 295 94 422q111 152 392 151q68 0 163 -37v373h334v-1456h-315v127q-164 -154 -309 -154q-195 0 -281 150q-78 137 -78 424zM487 547q0 -152 13 -203q29 -117 133 -117q59 0 153 64v602q-57 27 -135 27q-113 0 -147 -140q-17 -67 -17 -233z" />
<glyph unicode="e" horiz-adv-x="1173" d="M104 547q0 289 113 426q121 147 383 147q301 0 401 -166q82 -133 82 -499h-628q0 -162 49 -217.5t170 -55.5q195 0 368 101v-209q-199 -100 -413 -101q-525 1 -525 574zM455 637h301q0 150 -11 182q-27 90 -139 90q-94 0 -129 -90q-22 -59 -22 -182z" />
<glyph unicode="f" horiz-adv-x="915" d="M113 893v199h153q0 174 72 258q111 133 420 133q37 0 100 -8v-197q-57 6 -104 6q-98 0 -133 -57q-23 -39 -23 -135h201v-199h-201v-893h-332v893h-153z" />
<glyph unicode="g" horiz-adv-x="1277" d="M137 592q0 262 94 383q113 145 392 145q37 0 145.5 -14t173.5 -14h178v-910q0 -573 -528 -573q-186 0 -373 90v211q164 -92 359 -92q104 0 151 53q57 63 57 219v129q-145 -156 -290 -156q-359 1 -359 529zM487 592q0 -129 17 -182q31 -100 129 -101q59 0 153 82v496 q-35 37 -153 37q-146 0 -146 -332z" />
<glyph unicode="h" horiz-adv-x="1345" d="M186 0v1456h314v-477q141 131 301 131q166 0 267 -78t101 -213v-819h-331v745q0 137 -138 138q-84 0 -182 -68v-815h-332z" />
<glyph unicode="i" horiz-adv-x="727" d="M190 1393q0 156 183 155q182 0 182 -155q0 -156 -182 -156q-183 0 -183 156zM201 0v1092h331v-1092h-331z" />
<glyph unicode="j" horiz-adv-x="778" d="M49 -182q123 0 162 53t39 238v983h332v-891q0 -324 -84 -437q-109 -147 -449 -147v201zM231 1393q0 156 191 155q193 0 192 -155q0 -156 -192 -156q-191 0 -191 156z" />
<glyph unicode="k" horiz-adv-x="1327" d="M172 0v1456h332v-737l375 373h354l-381 -381l410 -711h-383l-271 467l-104 -105v-362h-332z" />
<glyph unicode="l" horiz-adv-x="743" d="M225 0v1456h332v-1456h-332z" />
<glyph unicode="m" horiz-adv-x="1986" d="M186 0v1092h314v-113q141 131 301 131q240 0 329 -147q147 147 322 147q166 0 267.5 -78t101.5 -213v-819h-332v745q0 137 -137 138q-70 0 -183 -68v-815h-331v745q0 137 -138 138q-84 0 -182 -68v-815h-332z" />
<glyph unicode="n" horiz-adv-x="1316" d="M186 0v1092h314v-113q141 131 301 131q166 0 267 -78t101 -213v-819h-331v745q0 137 -138 138q-84 0 -182 -68v-815h-332z" />
<glyph unicode="o" d="M96 547q0 573 551 573q549 0 549 -573t-549 -574q-551 1 -551 574zM428 547q0 -178 31 -250q47 -115 188 -115q139 0 187 115q31 72 30 250q0 176 -30 250q-47 113 -187 112q-141 0 -188 -112q-31 -74 -31 -250z" />
<glyph unicode="p" horiz-adv-x="1253" d="M166 -365v1457h313v-127q166 156 309 155q195 0 281 -151q80 -137 80 -422q0 -295 -96 -424q-111 -150 -391 -150q-66 0 -164 35v-373h-332zM498 201q59 -29 137 -29q113 0 147 139q16 70 17 236q0 152 -13 201q-29 117 -133 116q-59 0 -155 -63v-600z" />
<glyph unicode="q" horiz-adv-x="1286" d="M131 547q0 295 94 422q111 152 391 151q29 0 153 -14t194 -14h151v-1457h-334v492q-145 -154 -291 -154q-195 0 -280 150q-78 137 -78 424zM481 547q0 -152 13 -203q29 -117 133 -117q59 0 153 64v596q-57 37 -135 37q-113 0 -147 -142q-17 -69 -17 -235z" />
<glyph unicode="r" horiz-adv-x="845" d="M166 0v1092h313v-146q113 164 260 164q49 0 60 -8v-232q-29 16 -111 17q-88 0 -190 -123v-764h-332z" />
<glyph unicode="s" horiz-adv-x="1032" d="M123 770q0 131 80 223q111 127 348 127q178 0 315 -69v-224q-98 92 -325 93q-131 0 -131 -109q0 -55 135 -96q184 -59 250 -107q135 -96 135 -284q0 -350 -451 -351q-184 0 -336 101v235q133 -131 308 -131q109 0 153 39q25 23 25 47q0 84 -131 133q-209 80 -244 103 q-131 90 -131 270z" />
<glyph unicode="t" horiz-adv-x="905" d="M72 893v199h155v227l332 92v-319h254v-199h-254v-528q0 -100 27.5 -143.5t103.5 -43.5q27 0 96 12v-208q-135 -8 -176 -9q-238 0 -315 90q-68 78 -68 302v528h-155z" />
<glyph unicode="u" d="M156 272v820h331v-746q0 -137 136 -137q86 0 182 70v813h334v-1092h-316v115q-139 -133 -299 -133q-166 0 -267 77.5t-101 212.5z" />
<glyph unicode="v" horiz-adv-x="1161" d="M57 1092h344l215 -803l215 803h261l-293 -1092h-449z" />
<glyph unicode="w" horiz-adv-x="1929" d="M76 1092h344l211 -826l229 826h324l233 -826l211 826h260l-293 -1092h-407l-207 711l-207 -711h-405z" />
<glyph unicode="x" horiz-adv-x="1169" d="M61 0l332 573l-301 519h387l152 -265l151 265h291l-299 -514l334 -578h-383l-186 324l-187 -324h-291z" />
<glyph unicode="y" horiz-adv-x="1239" d="M80 1092l344 -1002q20 -61 20 -110q0 -162 -221 -162v-201q295 0 406 80q92 68 172 303l373 1092h-265l-239 -695l-240 695h-350z" />
<glyph unicode="z" horiz-adv-x="1157" d="M127 0v180l479 703h-434v209h852v-183l-477 -700h493v-209h-913z" />
<glyph unicode="&#xa1;" horiz-adv-x="718" d="M188 137q0 59 72 883h223l70 -883q0 -156 -182 -155q-183 -1 -183 155zM188 1319q0 156 183 156q182 0 182 -156q0 -154 -182 -154q-183 0 -183 154z" />
<glyph unicode="&#xaa;" horiz-adv-x="1198" d="M111 319q0 195 104 273q133 100 520 100v101q0 117 -178 116q-147 0 -364 -110v211q162 111 372 110q233 0 353 -61q150 -78 149 -266v-793h-313v119q-168 -145 -342 -146q-301 0 -301 346zM461 346q0 -137 110 -137q55 0 164 78v223q-162 0 -218 -38t-56 -126z" />
<glyph unicode="&#xad;" horiz-adv-x="757" d="M172 473v145h401v-145h-401z" />
<glyph unicode="&#xb1;" horiz-adv-x="909" d="M119 0v109h674v-109h-674zM119 655v109h282v283h109v-283h283v-109h-283v-282h-109v282h-282z" />
<glyph unicode="&#xb2;" horiz-adv-x="1359" d="M158 0v248l383 407q242 256 237 418q18 180 -172 180q-225 0 -403 -123v226q201 127 459 127q332 0 456 -164q63 -84 64 -199q0 -213 -287 -479l-338 -313h641v-328h-1040z" />
<glyph unicode="&#xb3;" horiz-adv-x="1286" d="M123 80v217q172 -100 416 -100q131 0 194 73q51 57 51 144q0 223 -256 223h-114v219h125q209 0 209 205q0 98 -31 139q-45 61 -178 62q-162 0 -379 -97v199q162 119 465 119q246 0 370 -109q117 -102 117 -287q0 -262 -256 -342q84 -16 145 -55q145 -98 146 -303 q0 -197 -143.5 -305.5t-397.5 -108.5q-290 1 -483 107z" />
<glyph unicode="&#xb4;" horiz-adv-x="956" d="M92 1411q0 57 40 97t97 40t97.5 -40t40.5 -97t-40 -96t-98 -39q-57 0 -97 39t-40 96zM598 1409q0 57 40 97t97 40t96 -40t39 -97q0 -55 -38.5 -95t-96.5 -40q-57 0 -97 40t-40 95z" />
<glyph unicode="&#xb9;" horiz-adv-x="968" d="M154 1110v219l272 127h291v-1456h-365v1184z" />
<glyph unicode="&#xba;" d="M96 547q0 573 551 573q549 0 549 -573t-549 -574q-551 1 -551 574zM428 547q0 -178 31 -250q47 -115 188 -115q139 0 187 115q31 72 30 250q0 176 -30 250q-47 113 -187 112q-141 0 -188 -112q-31 -74 -31 -250z" />
<glyph unicode="&#xbf;" horiz-adv-x="1124" d="M100 446q0 219 115 330q129 123 424 133v111h219v-332q-104 4 -166 4q-147 0 -198 -92q-29 -51 -29 -154q0 -86 43 -153q61 -92 184 -92q199 0 328 65v-237q-178 -47 -328 -47q-274 0 -433 124.5t-159 339.5zM553 1331q0 154 192 154q190 0 191 -154q0 -156 -191 -155 q-192 -1 -192 155z" />
<glyph unicode="&#xc0;" horiz-adv-x="1458" d="M373 1744l61 132l322 -170l-47 -101zM55 0l420 1456h467l420 -1456h-379l-90 328h-463l-92 -328h-283zM492 547h342l-170 618z" />
<glyph unicode="&#xc1;" horiz-adv-x="1458" d="M317 1743q0 57 40 97t97 40t97.5 -40t40.5 -97t-40 -96t-98 -39q-57 0 -97 39t-40 96zM823 1741q0 57 40 97t97 40t96 -40t39 -97q0 -55 -38.5 -95t-96.5 -40q-57 0 -97 40t-40 95zM55 0l420 1456h467l420 -1456h-379l-90 328h-463l-92 -328h-283zM492 547h342l-170 618z " />
<glyph unicode="&#xc8;" horiz-adv-x="1146" d="M295 1744l61 132l322 -170l-47 -101zM207 0v1456h846v-219h-482v-391h410v-217h-410v-410h492v-219h-856z" />
<glyph unicode="&#xc9;" horiz-adv-x="1146" d="M239 1743q0 57 40 97t97 40t97.5 -40t40.5 -97t-40 -96t-98 -39q-57 0 -97 39t-40 96zM745 1741q0 57 40 97t97 40t96 -40t39 -97q0 -55 -38.5 -95t-96.5 -40q-57 0 -97 40t-40 95zM207 0v1456h846v-219h-482v-391h410v-217h-410v-410h492v-219h-856z" />
<glyph unicode="&#xcc;" horiz-adv-x="704" d="M19 1744l61 132l322 -170l-47 -101zM172 0v1456h365v-1456h-365z" />
<glyph unicode="&#xcd;" horiz-adv-x="704" d="M-35 1743q0 57 40 97t97 40t97.5 -40t40.5 -97t-40 -96t-98 -39q-57 0 -97 39t-40 96zM471 1741q0 57 40 97t97 40t96 -40t39 -97q0 -55 -38.5 -95t-96.5 -40q-57 0 -97 40t-40 95zM172 0v1456h365v-1456h-365z" />
<glyph unicode="&#xd2;" horiz-adv-x="1527" d="M436 1744l61 132l322 -170l-47 -101zM135 729q0 412 172 594q152 160 465 160t465 -160q172 -182 172 -594q0 -414 -172 -596q-152 -160 -465 -160t-465 160q-172 182 -172 596zM500 729q0 -285 62.5 -412t209.5 -127t209.5 127t62.5 412t-62 411t-210 126 q-147 0 -209.5 -126t-62.5 -411z" />
<glyph unicode="&#xd3;" horiz-adv-x="1527" d="M383 1743q0 57 40 97t97 40t97.5 -40t40.5 -97t-40 -96t-98 -39q-57 0 -97 39t-40 96zM889 1741q0 57 40 97t97 40t96 -40t39 -97q0 -55 -38.5 -95t-96.5 -40q-57 0 -97 40t-40 95zM135 729q0 412 172 594q152 160 465 160t465 -160q172 -182 172 -594q0 -414 -172 -596 q-152 -160 -465 -160t-465 160q-172 182 -172 596zM500 729q0 -285 62.5 -412t209.5 -127t209.5 127t62.5 412t-62 411t-210 126q-147 0 -209.5 -126t-62.5 -411z" />
<glyph unicode="&#xd9;" horiz-adv-x="1441" d="M375 1744l61 132l322 -170l-47 -101zM156 492v964h362v-1001q0 -272 238 -273q236 0 235 273v1001h275v-964q0 -227 -115 -359q-141 -160 -440 -160t-441 160q-114 132 -114 359z" />
<glyph unicode="&#xda;" horiz-adv-x="1441" d="M321 1743q0 57 40 97t97 40t97.5 -40t40.5 -97t-40 -96t-98 -39q-57 0 -97 39t-40 96zM827 1741q0 57 40 97t97 40t96 -40t39 -97q0 -55 -38.5 -95t-96.5 -40q-57 0 -97 40t-40 95zM156 492v964h362v-1001q0 -272 238 -273q236 0 235 273v1001h275v-964q0 -227 -115 -359 q-141 -160 -440 -160t-441 160q-114 132 -114 359z" />
<glyph unicode="&#xdd;" horiz-adv-x="1325" d="M272 1743q0 57 40 97t97 40t97.5 -40t40.5 -97t-40 -96t-98 -39q-57 0 -97 39t-40 96zM778 1741q0 57 40 97t97 40t96 -40t39 -97q0 -55 -38.5 -95t-96.5 -40q-57 0 -97 40t-40 95zM55 1456h412l250 -469l244 469h307l-422 -799v-657h-365v655z" />
<glyph unicode="&#xe0;" horiz-adv-x="1198" d="M111 319q0 195 104 273q133 100 520 100v101q0 117 -178 116q-147 0 -364 -110v211q162 111 372 110q233 0 353 -61q150 -78 149 -266v-793h-313v119q-168 -145 -342 -146q-301 0 -301 346zM461 346q0 -137 110 -137q55 0 164 78v223q-162 0 -218 -38t-56 -126z" />
<glyph unicode="&#xe1;" horiz-adv-x="1198" d="M111 319q0 195 104 273q133 100 520 100v101q0 117 -178 116q-147 0 -364 -110v211q162 111 372 110q233 0 353 -61q150 -78 149 -266v-793h-313v119q-168 -145 -342 -146q-301 0 -301 346zM461 346q0 -137 110 -137q55 0 164 78v223q-162 0 -218 -38t-56 -126z" />
<glyph unicode="&#xe2;" horiz-adv-x="1198" d="M111 319q0 195 104 273q133 100 520 100v101q0 117 -178 116q-147 0 -364 -110v211q162 111 372 110q233 0 353 -61q150 -78 149 -266v-793h-313v119q-168 -145 -342 -146q-301 0 -301 346zM461 346q0 -137 110 -137q55 0 164 78v223q-162 0 -218 -38t-56 -126z" />
<glyph unicode="&#xe3;" horiz-adv-x="1198" d="M111 319q0 195 104 273q133 100 520 100v101q0 117 -178 116q-147 0 -364 -110v211q162 111 372 110q233 0 353 -61q150 -78 149 -266v-793h-313v119q-168 -145 -342 -146q-301 0 -301 346zM461 346q0 -137 110 -137q55 0 164 78v223q-162 0 -218 -38t-56 -126z" />
<glyph unicode="&#xe4;" horiz-adv-x="1198" d="M111 319q0 195 104 273q133 100 520 100v101q0 117 -178 116q-147 0 -364 -110v211q162 111 372 110q233 0 353 -61q150 -78 149 -266v-793h-313v119q-168 -145 -342 -146q-301 0 -301 346zM141 1393q0 156 183 155q182 0 182 -155q0 -156 -182 -156q-183 0 -183 156z M461 346q0 -137 110 -137q55 0 164 78v223q-162 0 -218 -38t-56 -126zM723 1393q0 156 182 155q182 0 182 -155q0 -156 -182 -156t-182 156z" />
<glyph unicode="&#xe5;" horiz-adv-x="1198" d="M111 319q0 195 104 273q133 100 520 100v101q0 117 -178 116q-147 0 -364 -110v211q162 111 372 110q233 0 353 -61q150 -78 149 -266v-793h-313v119q-168 -145 -342 -146q-301 0 -301 346zM461 346q0 -137 110 -137q55 0 164 78v223q-162 0 -218 -38t-56 -126z" />
<glyph unicode="&#xe7;" horiz-adv-x="1077" d="M100 547q0 244 107 389q133 184 426 184q176 0 295 -92v-209q-166 100 -295 101q-127 0 -172 -119q-29 -76 -29 -254t29 -256q45 -119 172 -119q158 0 313 111v-209q-133 -100 -313 -101q-293 0 -426 185q-107 143 -107 389z" />
<glyph unicode="&#xe8;" horiz-adv-x="1173" d="M104 547q0 289 113 426q121 147 383 147q301 0 401 -166q82 -133 82 -499h-628q0 -162 49 -217.5t170 -55.5q195 0 368 101v-209q-199 -100 -413 -101q-525 1 -525 574zM455 637h301q0 150 -11 182q-27 90 -139 90q-94 0 -129 -90q-22 -59 -22 -182z" />
<glyph unicode="&#xe9;" horiz-adv-x="1173" d="M104 547q0 289 113 426q121 147 383 147q301 0 401 -166q82 -133 82 -499h-628q0 -162 49 -217.5t170 -55.5q195 0 368 101v-209q-199 -100 -413 -101q-525 1 -525 574zM455 637h301q0 150 -11 182q-27 90 -139 90q-94 0 -129 -90q-22 -59 -22 -182z" />
<glyph unicode="&#xea;" horiz-adv-x="1173" d="M104 547q0 289 113 426q121 147 383 147q301 0 401 -166q82 -133 82 -499h-628q0 -162 49 -217.5t170 -55.5q195 0 368 101v-209q-199 -100 -413 -101q-525 1 -525 574zM455 637h301q0 150 -11 182q-27 90 -139 90q-94 0 -129 -90q-22 -59 -22 -182z" />
<glyph unicode="&#xeb;" horiz-adv-x="1173" d="M104 547q0 289 113 426q121 147 383 147q301 0 401 -166q82 -133 82 -499h-628q0 -162 49 -217.5t170 -55.5q195 0 368 101v-209q-199 -100 -413 -101q-525 1 -525 574zM141 1393q0 156 183 155q182 0 182 -155q0 -156 -182 -156q-183 0 -183 156zM455 637h301 q0 150 -11 182q-27 90 -139 90q-94 0 -129 -90q-22 -59 -22 -182zM723 1393q0 156 182 155q182 0 182 -155q0 -156 -182 -156t-182 156z" />
<glyph unicode="&#xec;" horiz-adv-x="727" d="M190 1393q0 156 183 155q182 0 182 -155q0 -156 -182 -156q-183 0 -183 156zM201 0v1092h331v-1092h-331z" />
<glyph unicode="&#xed;" horiz-adv-x="727" d="M190 1393q0 156 183 155q182 0 182 -155q0 -156 -182 -156q-183 0 -183 156zM201 0v1092h331v-1092h-331z" />
<glyph unicode="&#xee;" horiz-adv-x="727" d="M190 1393q0 156 183 155q182 0 182 -155q0 -156 -182 -156q-183 0 -183 156zM201 0v1092h331v-1092h-331z" />
<glyph unicode="&#xef;" horiz-adv-x="727" d="M-47 1393q0 156 182 155q182 0 182 -155q0 -156 -182 -156t-182 156zM201 0v1092h331v-1092h-331zM426 1393q0 156 182 155q182 0 183 -155q0 -156 -183 -156q-182 0 -182 156z" />
<glyph unicode="&#xf1;" horiz-adv-x="1316" d="M186 0v1092h314v-113q141 131 301 131q166 0 267 -78t101 -213v-819h-331v745q0 137 -138 138q-84 0 -182 -68v-815h-332z" />
<glyph unicode="&#xf2;" d="M96 547q0 573 551 573q549 0 549 -573t-549 -574q-551 1 -551 574zM428 547q0 -178 31 -250q47 -115 188 -115q139 0 187 115q31 72 30 250q0 176 -30 250q-47 113 -187 112q-141 0 -188 -112q-31 -74 -31 -250z" />
<glyph unicode="&#xf3;" d="M96 547q0 573 551 573q549 0 549 -573t-549 -574q-551 1 -551 574zM428 547q0 -178 31 -250q47 -115 188 -115q139 0 187 115q31 72 30 250q0 176 -30 250q-47 113 -187 112q-141 0 -188 -112q-31 -74 -31 -250z" />
<glyph unicode="&#xf4;" d="M96 547q0 573 551 573q549 0 549 -573t-549 -574q-551 1 -551 574zM428 547q0 -178 31 -250q47 -115 188 -115q139 0 187 115q31 72 30 250q0 176 -30 250q-47 113 -187 112q-141 0 -188 -112q-31 -74 -31 -250z" />
<glyph unicode="&#xf5;" d="M96 547q0 573 551 573q549 0 549 -573t-549 -574q-551 1 -551 574zM428 547q0 -178 31 -250q47 -115 188 -115q139 0 187 115q31 72 30 250q0 176 -30 250q-47 113 -187 112q-141 0 -188 -112q-31 -74 -31 -250z" />
<glyph unicode="&#xf6;" d="M96 547q0 573 551 573q549 0 549 -573t-549 -574q-551 1 -551 574zM168 1393q0 156 182 155q182 0 182 -155q0 -156 -182 -156t-182 156zM428 547q0 -178 31 -250q47 -115 188 -115q139 0 187 115q31 72 30 250q0 176 -30 250q-47 113 -187 112q-141 0 -188 -112 q-31 -74 -31 -250zM750 1393q0 156 182 155q182 0 182 -155q0 -156 -182 -156t-182 156z" />
<glyph unicode="&#xf9;" d="M156 272v820h331v-746q0 -137 136 -137q86 0 182 70v813h334v-1092h-316v115q-139 -133 -299 -133q-166 0 -267 77.5t-101 212.5z" />
<glyph unicode="&#xfa;" d="M156 272v820h331v-746q0 -137 136 -137q86 0 182 70v813h334v-1092h-316v115q-139 -133 -299 -133q-166 0 -267 77.5t-101 212.5z" />
<glyph unicode="&#xfb;" d="M156 272v820h331v-746q0 -137 136 -137q86 0 182 70v813h334v-1092h-316v115q-139 -133 -299 -133q-166 0 -267 77.5t-101 212.5z" />
<glyph unicode="&#xfc;" d="M156 272v820h331v-746q0 -137 136 -137q86 0 182 70v813h334v-1092h-316v115q-139 -133 -299 -133q-166 0 -267 77.5t-101 212.5zM174 1393q0 156 182 155q182 0 183 -155q0 -156 -183 -156q-182 0 -182 156zM756 1393q0 156 182 155q182 0 182 -155q0 -156 -182 -156 t-182 156z" />
<glyph unicode="&#xfd;" horiz-adv-x="1239" d="M235 1380q0 57 40 97t97 40t97.5 -40t40.5 -97t-40 -96t-98 -39q-57 0 -97 39t-40 96zM741 1378q0 57 40 97t97 40t96 -40t39 -97q0 -55 -38.5 -95t-96.5 -40q-57 0 -97 40t-40 95zM80 1092l344 -1002q20 -61 20 -110q0 -162 -221 -162v-201q295 0 406 80q92 68 172 303 l373 1092h-265l-239 -695l-240 695h-350z" />
<glyph unicode="&#x152;" horiz-adv-x="2674" d="M1735 0v1456h846v-219h-482v-391h410v-217h-410v-410h492v-219h-856zM135 729q0 412 172 594q152 160 465 160t465 -160q172 -182 172 -594q0 -414 -172 -596q-152 -160 -465 -160t-465 160q-172 182 -172 596zM500 729q0 -285 62.5 -412t209.5 -127t209.5 127t62.5 412 t-62 411t-210 126q-147 0 -209.5 -126t-62.5 -411z" />
<glyph unicode="&#x153;" horiz-adv-x="2471" d="M1402 547q0 289 113 426q121 147 383 147q301 0 401 -166q82 -133 82 -499h-628q0 -162 49 -217.5t170 -55.5q195 0 368 101v-209q-199 -100 -413 -101q-525 1 -525 574zM1753 637h301q0 150 -11 182q-27 90 -139 90q-94 0 -129 -90q-22 -59 -22 -182zM96 547 q0 573 551 573q549 0 549 -573t-549 -574q-551 1 -551 574zM428 547q0 -178 31 -250q47 -115 188 -115q139 0 187 115q31 72 30 250q0 176 -30 250q-47 113 -187 112q-141 0 -188 -112q-31 -74 -31 -250z" />
<glyph unicode="&#x2000;" horiz-adv-x="940" />
<glyph unicode="&#x2001;" horiz-adv-x="1880" />
<glyph unicode="&#x2002;" horiz-adv-x="940" />
<glyph unicode="&#x2003;" horiz-adv-x="1880" />
<glyph unicode="&#x2004;" horiz-adv-x="626" />
<glyph unicode="&#x2005;" horiz-adv-x="468" />
<glyph unicode="&#x2006;" horiz-adv-x="313" />
<glyph unicode="&#x2007;" horiz-adv-x="313" />
<glyph unicode="&#x2008;" horiz-adv-x="233" />
<glyph unicode="&#x2009;" horiz-adv-x="374" />
<glyph unicode="&#x200a;" horiz-adv-x="104" />
<glyph unicode="&#x2010;" horiz-adv-x="757" d="M172 473v145h401v-145h-401z" />
<glyph unicode="&#x2011;" horiz-adv-x="757" d="M172 473v145h401v-145h-401z" />
<glyph unicode="&#x2012;" horiz-adv-x="757" d="M172 473v145h401v-145h-401z" />
<glyph unicode="&#x2013;" horiz-adv-x="978" d="M150 473v145h681v-145h-681z" />
<glyph unicode="&#x2014;" horiz-adv-x="2048" d="M205 512v205h1638v-205h-1638z" />
<glyph unicode="&#x2018;" horiz-adv-x="477" d="M96 1292q0 152 160 256l78 -78q-100 -63 -101 -196l23 37q57 0 97 -40t40 -97t-40 -96.5t-97 -39.5q-160 0 -160 254z" />
<glyph unicode="&#x2019;" horiz-adv-x="477" d="M66 1337q0 57 39.5 97.5t97.5 40.5q66 0 108 -56q51 -66 51 -198q0 -152 -159 -256l-78 75q100 63 100 197l-22 -35q-57 0 -97 39t-40 96z" />
<glyph unicode="&#x201c;" horiz-adv-x="909" d="M96 1292q0 152 160 256l78 -78q-100 -63 -101 -196l23 37q57 0 97 -40t40 -97t-40 -96.5t-97 -39.5q-160 0 -160 254zM530 1292q0 152 160 256l76 -78q-100 -63 -100 -196l24 37q57 0 97 -40t40 -97t-39.5 -96.5t-97.5 -39.5q-160 0 -160 254z" />
<glyph unicode="&#x201d;" horiz-adv-x="886" d="M66 1337q0 57 39.5 97.5t97.5 40.5q66 0 108 -56q51 -66 51 -198q0 -152 -159 -256l-76 75q100 63 100 197l-24 -35q-57 0 -97 39t-40 96zM500 1337q0 57 40 97.5t97 40.5q66 0 108 -56q51 -66 52 -198q0 -152 -160 -256l-78 75q100 63 100 197l-22 -35q-57 0 -97 39 t-40 96z" />
<glyph unicode="&#x2026;" horiz-adv-x="2095" d="M1547 127q0 156 182 156t182 -156q0 -154 -182 -154t-182 154zM848 127q0 156 182 156t182 -156q0 -154 -182 -154t-182 154zM150 127q0 156 182 156t182 -156q0 -154 -182 -154t-182 154z" />
<glyph unicode="&#x202f;" horiz-adv-x="374" />
<glyph unicode="&#x205f;" horiz-adv-x="468" />
<glyph unicode="&#x2122;" horiz-adv-x="3391" d="M1442 0v1456h557l305 -1153l317 1153h549v-1456h-362v1133l-342 -1133h-414l-338 1133v-1133h-272zM78 1237v219h1055v-219h-347v-1237h-362v1237h-346z" />
<glyph unicode="&#xe000;" horiz-adv-x="1090" d="M0 1090h1090v-1090h-1090v1090z" />
<glyph unicode="&#xfb01;" horiz-adv-x="1642" d="M1105 1393q0 156 183 155q182 0 182 -155q0 -156 -182 -156q-183 0 -183 156zM1116 0v1092h331v-1092h-331zM113 893v199h153q0 174 72 258q111 133 420 133q37 0 100 -8v-197q-57 6 -104 6q-98 0 -133 -57q-23 -39 -23 -135h201v-199h-201v-893h-332v893h-153z" />
<glyph unicode="&#xfb02;" horiz-adv-x="1658" d="M1140 0v1456h332v-1456h-332zM113 893v199h153q0 174 72 258q111 133 420 133q37 0 100 -8v-197q-57 6 -104 6q-98 0 -133 -57q-23 -39 -23 -135h201v-199h-201v-893h-332v893h-153z" />
<glyph unicode="&#xfb03;" horiz-adv-x="2557" d="M2021 1393q0 156 183 155q182 0 182 -155q0 -156 -182 -156q-183 0 -183 156zM2032 0v1092h331v-1092h-331zM1028 893v199h153q0 174 72 258q111 133 420 133q37 0 100 -8v-197q-57 6 -104 6q-98 0 -133 -57q-23 -39 -23 -135h201v-199h-201v-893h-332v893h-153zM113 893 v199h153q0 174 72 258q111 133 420 133q37 0 100 -8v-197q-57 6 -104 6q-98 0 -133 -57q-23 -39 -23 -135h201v-199h-201v-893h-332v893h-153z" />
<glyph unicode="&#xfb04;" horiz-adv-x="2574" d="M2056 0v1456h332v-1456h-332zM1028 893v199h153q0 174 72 258q111 133 420 133q37 0 100 -8v-197q-57 6 -104 6q-98 0 -133 -57q-23 -39 -23 -135h201v-199h-201v-893h-332v893h-153zM113 893v199h153q0 174 72 258q111 133 420 133q37 0 100 -8v-197q-57 6 -104 6 q-98 0 -133 -57q-23 -39 -23 -135h201v-199h-201v-893h-332v893h-153z" />
</font>
</defs>
</svg>
