<?xml version="1.0" standalone="no"?>
<!DOCTYPE svg PUBLIC "-//W3C//DTD SVG 1.1//EN" "http://www.w3.org/Graphics/SVG/1.1/DTD/svg11.dtd" >
<svg xmlns="http://www.w3.org/2000/svg">
<metadata>
This is a custom SVG webfont generated by Font Squirrel.
Copyright   :  1993 Jeroen Klaver 2000 Shamrock Int
</metadata>
<defs>
<font id="webfontCr4yd9jC" horiz-adv-x="1384" >
<font-face units-per-em="2048" ascent="1638" descent="-410" />
<missing-glyph horiz-adv-x="681" />
<glyph unicode=" "  horiz-adv-x="681" />
<glyph unicode="&#x09;" horiz-adv-x="681" />
<glyph unicode="&#xa0;" horiz-adv-x="681" />
<glyph unicode="!" horiz-adv-x="741" d="M252 119q4 57 46 96t99 39t94 -39t33 -96t-46 -97t-99 -40t-94 40t-33 97zM338 1348q4 57 46 96t99 39t94 -39t33 -96q-6 -70 -153 -883h-88q-35 813 -31 883z" />
<glyph unicode="&#x22;" horiz-adv-x="894" d="M317 1128l27 402h145l-10 -152l-63 -250h-99zM616 1128l27 402h148l-13 -152l-61 -250h-101z" />
<glyph unicode="$" horiz-adv-x="1167" d="M184 102l15 217h137l-8 -120q29 -23 61 -39q80 -41 164 -49l35 501q-176 74 -244 144q-113 115 -98 317q12 170 113.5 275.5t287.5 124.5l8 102h109l-8 -100q221 -12 321 -109l-12 -182h-137l6 90q-16 23 -39 39q-57 43 -145 51l-35 -490q193 -84 256 -141 q121 -109 108 -297q-14 -211 -147 -332q-113 -100 -279 -118l-8 -105h-108l6 103q-224 12 -359 118zM469 1147q-8 -139 139 -221l31 432q-160 -39 -170 -211zM662 119q76 23 126 84t56 143q10 139 -152 219z" />
<glyph unicode="%" horiz-adv-x="1705" d="M266 1067q0 29 2 66q10 137 76 223q86 119 258 119q170 0 242 -119q51 -86 43 -223q-10 -147 -60 -224q-80 -117 -272 -116q-289 0 -289 274zM428 1059q0 -166 133 -166q96 0 133 80q20 47 29 160q4 53 4 77q0 164 -133 164q-96 0 -133 -82q-20 -47 -29 -159 q-4 -49 -4 -74zM436 8l797 1485l96 -45l-797 -1485zM874 262q0 27 3 62q8 135 75 223q88 117 258 117q172 0 244 -117q51 -88 43 -223q-10 -147 -61 -224q-80 -119 -273 -118q-289 -1 -289 280zM1036 250q0 -168 133 -168q96 0 134 82q23 49 30 160q4 49 4 73 q0 168 -133 168q-96 0 -133 -82q-23 -49 -31 -159q-4 -49 -4 -74z" />
<glyph unicode="'" horiz-adv-x="583" d="M317 1128l27 402h145l-10 -152l-63 -250h-99z" />
<glyph unicode="(" horiz-adv-x="774" d="M227 381q0 80 6 166q27 395 156 651q139 276 342 277l-8 -109q-117 0 -180 -274q-43 -184 -68 -545q-16 -221 -16 -365q0 -455 149 -454l-8 -111q-180 0 -281 221q-92 205 -92 543z" />
<glyph unicode=")" horiz-adv-x="774" d="M121 -383l8 111q117 0 180 272q43 184 68 547q16 221 16 364q0 455 -149 455l8 109q180 0 280 -222q92 -205 93 -540q0 -82 -7 -166q-27 -395 -155 -653q-139 -277 -342 -277z" />
<glyph unicode="*" horiz-adv-x="1036" d="M276 1237l9 115l227 -6l-104 196l102 55l96 -200l127 200l90 -55l-131 -196l230 4l-9 -113l-227 4l102 -199l-98 -53l-98 203l-125 -201l-92 56l129 194z" />
<glyph unicode="+" horiz-adv-x="954" d="M186 655l9 109h280l21 283h108l-18 -283h280l-6 -109h-282l-21 -282h-108l20 282h-283z" />
<glyph unicode="," horiz-adv-x="681" d="M205 119q4 57 46 96t99 39q70 0 111 -45q43 -51 37 -141q-14 -215 -238 -324l-45 74q47 27 80 57q82 70 86 143q-29 -37 -70 -36q-53 0 -81.5 39t-24.5 98z" />
<glyph unicode="-" horiz-adv-x="788" d="M227 473l11 145h401l-10 -145h-402z" />
<glyph unicode="." horiz-adv-x="675" d="M219 119q4 57 47 96t99 39q57 0 94 -39t33 -96t-46.5 -97t-99.5 -40t-94 40t-33 97z" />
<glyph unicode="/" horiz-adv-x="782" d="M59 -354l658 1845l104 -31l-659 -1845z" />
<glyph unicode="0" horiz-adv-x="1363" d="M193 578q0 72 6 151q29 406 174 582q135 164 407 164q246 0 361 -134q123 -141 123 -462q0 -70 -7 -150q-29 -408 -174 -582q-135 -166 -407 -165q-246 0 -361 133q-122 141 -122 463zM442 514q0 -223 55.5 -323.5t186.5 -100.5q156 0 229 152q70 143 95 487q8 119 8 211 q0 223 -56.5 324.5t-187.5 101.5q-156 0 -229 -152q-68 -143 -92 -485q-9 -123 -9 -215z" />
<glyph unicode="1" horiz-adv-x="839" d="M133 0l8 109h174l86 1239h-174l9 108h413l-94 -1347h164l-6 -109h-580z" />
<glyph unicode="2" horiz-adv-x="1183" d="M123 0l8 119l277 289q190 207 290 362q135 211 136 369q0 227 -191 227q-162 0 -244 -109l-10 -118h-135l14 215q127 121 418 121q231 0 334 -113q76 -84 67 -199q-16 -236 -200 -436l-520 -518h518l8 110h135l-20 -319h-885z" />
<glyph unicode="3" horiz-adv-x="1200" d="M135 102l17 217h135l-8 -120q104 -109 266 -109q111 0 186 90q70 84 80 211q10 125 -55.5 213t-177.5 88h-115l8 109h123q209 0 229 282q20 283 -190 283q-160 0 -244 -109l-8 -118h-137l16 215q123 121 381 121q233 0 339.5 -92.5t92.5 -299.5q-18 -262 -227 -338 q236 -49 215 -354q-14 -195 -157.5 -302t-366.5 -107q-259 -1 -402 120z" />
<glyph unicode="4" horiz-adv-x="1292" d="M78 401l6 109l799 965h110l-67 -965h272l-8 -109h-272l-21 -292h137l-8 -109h-514l8 109h135l21 292h-598zM225 510h459l43 606z" />
<glyph unicode="5" horiz-adv-x="1253" d="M193 102l16 217h135l-8 -120q104 -109 256 -109q119 0 194 90q72 82 82 211q10 147 -59.5 237.5t-208.5 90.5h-305l51 737h756l-23 -317h-135l6 108h-481l-29 -391h170q541 0 512 -414q-16 -229 -164 -348q-137 -113 -364 -112q-258 -1 -401 120z" />
<glyph unicode="6" horiz-adv-x="1312" d="M182 588q0 68 6 141q29 408 189 586q143 160 424 160q225 0 387 -99l-17 -237h-135l8 133q-98 94 -268 94q-156 0 -230.5 -133t-101.5 -445q106 121 281 121q248 0 362 -106q123 -113 107 -357q-14 -225 -153.5 -344.5t-381.5 -119.5q-231 0 -346 131q-131 147 -131 475z M430 446q6 -190 60.5 -273t177.5 -83q281 0 280 434q0 276 -231 277q-260 -1 -287 -355z" />
<glyph unicode="7" horiz-adv-x="1087" d="M209 1139l20 317h879l-6 -108l-713 -1385l-121 55l619 1229h-535l-8 -108h-135z" />
<glyph unicode="8" horiz-adv-x="1228" d="M160 377q14 199 270 358q-186 139 -168 398q8 123 98 215q125 127 361 127q223 0 317 -109q74 -84 64 -219q-12 -174 -244 -328q139 -76 203 -153q86 -104 76 -248q-12 -170 -119 -287q-139 -150 -408 -149q-477 0 -450 395zM313 369q-6 -92 35 -160q66 -100 230 -100 q307 0 323 229q8 113 -98 190q-23 16 -234 123q-246 -143 -256 -282zM494 1165q-6 -88 59 -157q47 -51 162 -113q223 131 231 254q16 217 -207 217q-231 0 -245 -201z" />
<glyph unicode="9" horiz-adv-x="1312" d="M207 950q0 29 2 60q16 225 154.5 345t377.5 120q231 0 346 -132q129 -150 130 -477q0 -66 -5 -137q-29 -410 -188 -588q-143 -160 -424 -159q-225 0 -387 98l16 239h138l-11 -135q100 -94 271 -94q156 0 229.5 133t99.5 445q-104 -121 -280 -121q-469 0 -469 403z M457 932q0 -276 227 -277q260 0 287 355q-4 188 -59.5 272t-178.5 84q-276 0 -276 -434z" />
<glyph unicode=":" horiz-adv-x="673" d="M213 119q4 57 46 96t99 39t94 -39t33 -96t-47 -97t-98 -40q-57 0 -94 40t-33 97zM272 975q4 55 46 95t100 40q57 0 94 -40t33 -95q-4 -57 -46 -97t-100 -40q-57 0 -94 40t-33 97z" />
<glyph unicode=";" horiz-adv-x="673" d="M205 119q4 57 46 96t99 39q70 0 111 -45q43 -51 37 -141q-14 -215 -238 -324l-45 74q47 27 80 57q82 70 86 143q-29 -37 -70 -36q-53 0 -81.5 39t-24.5 98zM266 975q4 55 46 95t100 40q57 0 94 -40t33 -95q-4 -57 -46 -97t-100 -40q-57 0 -94 40t-33 97z" />
<glyph unicode="&#x3c;" horiz-adv-x="954" d="M287 295l241 254l-204 256l90 72l239 -328l-284 -326z" />
<glyph unicode="=" horiz-adv-x="1044" d="M213 483l6 109h674l-8 -109h-672zM236 827l8 111h674l-9 -111h-673z" />
<glyph unicode="?" horiz-adv-x="1062" d="M248 1184h137l8 135q49 37 176 37l9 119q-211 0 -318 -107zM305 119q4 57 46 96t100 39q57 0 94 -39t33 -96t-46.5 -97t-99.5 -40t-94 40t-33 97zM397 473l17 219h131q188 0 211 328q4 61 4 104q0 129 -41 180.5t-150 51.5l9 119q221 0 315 -82t94 -287q0 -41 -4 -86 q-16 -219 -160 -338q-121 -100 -280 -100l-8 -109h-138z" />
<glyph unicode="A" d="M59 0l9 109h135l446 1239h-137l8 108h371l291 -1347h137l-8 -109h-525l7 109h137l-70 327h-414l-114 -327h135l-8 -109h-400zM485 547h351l-134 620z" />
<glyph unicode="B" horiz-adv-x="1259" d="M137 0l6 109h138l88 1239h-138l9 108h551q209 0 301 -84q88 -79 87 -241q0 -23 -1 -48q-20 -270 -246 -338q80 -12 135 -51q118 -83 118 -262q0 -20 -1 -41q-14 -186 -157.5 -288.5t-367.5 -102.5h-522zM522 109h146q113 0 188 84q70 78 78 198q1 13 1 26q0 108 -62 187 q-69 88 -183 88h-127zM571 801h136q201 0 221 282q2 22 1 43q0 222 -184 222h-135z" />
<glyph unicode="C" horiz-adv-x="1261" d="M170 598q0 61 4 131q29 403 199 586q150 160 424 160q256 0 411 -121l-14 -215h-137l8 118q-117 109 -277 109q-170 0 -254.5 -148.5t-109.5 -488.5q-6 -96 -6 -176q0 -246 66.5 -354.5t213.5 -108.5q160 0 293 109l8 120h138l-17 -217q-174 -121 -430 -120 q-252 0 -379 133q-141 149 -141 483z" />
<glyph unicode="D" d="M137 0l6 109h138l88 1239h-138l9 108h559q254 0 379 -125q143 -145 143 -475q0 -59 -4 -127q-29 -403 -197 -577q-145 -152 -424 -152h-559zM522 109h183q172 0 254.5 140t107.5 480q6 96 6 174q0 240 -66.5 342.5t-215.5 102.5h-181z" />
<glyph unicode="E" horiz-adv-x="1163" d="M137 0l6 109h138l88 1239h-138l9 108h845l-18 -272h-137l12 164h-332l-39 -547h254l9 108h137l-25 -327h-135l6 110h-254l-41 -583h342l10 163h138l-21 -272h-854z" />
<glyph unicode="F" horiz-adv-x="1089" d="M137 0l6 109h138l88 1239h-138l9 108h868l-18 -272h-138l13 164h-355l-39 -547h254l9 108h137l-25 -327h-135l6 110h-254l-41 -583h183l-9 -109h-559z" />
<glyph unicode="G" horiz-adv-x="1320" d="M170 598q0 61 4 131q29 403 199 586q150 160 424 160q256 0 411 -121l-14 -215h-137l8 118q-117 109 -277 109q-170 0 -254.5 -148.5t-109.5 -488.5q-6 -96 -6 -176q0 -246 66.5 -354.5t213.5 -108.5q145 0 232 82l28 420h-135l6 108h379l-43 -598q-219 -121 -475 -120 q-252 0 -379 133q-141 149 -141 483z" />
<glyph unicode="H" horiz-adv-x="1597" d="M137 0l6 109h138l88 1239h-138l9 108h514l-9 -108h-135l-39 -547h570l37 547h-136l7 108h516l-9 -108h-137l-88 -1239h137l-8 -109h-514l8 109h138l41 583h-570l-41 -583h137l-8 -109h-514z" />
<glyph unicode="I" horiz-adv-x="815" d="M150 0l8 109h137l86 1239h-135l8 108h514l-8 -108h-137l-86 -1239h135l-8 -109h-514z" />
<glyph unicode="J" horiz-adv-x="815" d="M68 -383l8 111q193 0 219 381l86 1239h-135l8 108h514l-8 -108h-137l-86 -1239q-14 -203 -136 -342q-130 -150 -333 -150z" />
<glyph unicode="K" horiz-adv-x="1423" d="M137 0l6 109h138l88 1239h-138l9 108h514l-9 -108h-135l-43 -603l555 603h-135l8 108h418l-8 -108h-139l-426 -463l391 -776h137l-8 -109h-352l-349 688l-104 -110l-33 -469h137l-8 -109h-514z" />
<glyph unicode="L" horiz-adv-x="1064" d="M137 0l6 109h138l88 1239h-138l9 108h581l-6 -108h-205l-88 -1239h342l10 163h138l-21 -272h-854z" />
<glyph unicode="M" horiz-adv-x="1837" d="M137 -2l6 108h138l88 1242h-138l9 108h442l258 -1165l416 1165h446l-6 -108h-137l-88 -1239h137l-8 -109h-512l8 109h135l82 1167l-461 -1276h-200l-279 1284l-84 -1178h137l-8 -108h-381z" />
<glyph unicode="N" horiz-adv-x="1443" d="M137 0l6 109h138l88 1239h-138l9 108h391l485 -1167l76 1059h-137l8 108h381l-6 -108h-138l-96 -1348h-235l-502 1204l-78 -1095h137l-8 -109h-381z" />
<glyph unicode="O" d="M170 598q0 61 4 131q29 403 199 586q150 160 424 160q520 0 520 -617q0 -61 -4 -129q-29 -406 -199 -588q-150 -160 -424 -159q-252 0 -379 133q-141 149 -141 483zM418 553q0 -246 66.5 -354.5t213.5 -108.5q170 0 254 148.5t109 490.5q6 98 6 178q0 242 -65.5 350.5 t-213.5 108.5q-170 0 -254.5 -148.5t-109.5 -488.5q-6 -96 -6 -176z" />
<glyph unicode="P" horiz-adv-x="1212" d="M137 0l6 109h138l88 1239h-138l9 108h514q246 0 347 -85q89 -74 89 -239q0 -23 -2 -49q-14 -213 -149.5 -302t-438.5 -89h-37l-41 -583h219l-8 -109h-596zM571 801h45q168 0 244 76q66 66 76 206q1 21 1 41q0 223 -192 224h-135z" />
<glyph unicode="Q" d="M170 598q0 63 4 131q29 403 199 586q150 160 424 160q252 0 377 -134q143 -152 143 -485q0 -59 -4 -127q-47 -664 -490 -737q4 -264 168 -264l-8 -111q-170 0 -278 109q-102 102 -125 264q-410 55 -410 608zM418 553q0 -246 66.5 -354.5t213.5 -108.5q170 0 254 148.5 t109 490.5q6 98 6 178q0 242 -65.5 350.5t-213.5 108.5q-170 0 -254.5 -148.5t-109.5 -488.5q-6 -96 -6 -176z" />
<glyph unicode="R" d="M137 0l6 109h138l88 1239h-138l9 108h514q246 0 347 -85q89 -74 89 -239q0 -23 -2 -49q-10 -137 -103 -239q-86 -92 -196 -115q137 -55 203 -291l92 -329h135l-8 -109h-371l-98 442q-16 76 -54 136q-68 115 -178 114h-47l-41 -583h219l-8 -109h-596zM571 801h45 q168 0 244 76q66 66 76 206q1 21 1 41q0 223 -192 224h-135z" />
<glyph unicode="S" horiz-adv-x="1099" d="M127 102l14 217h138l-9 -120q117 -90 260 -90q102 0 170 66.5t76 170.5q0 7 1 13q0 122 -148 198q-279 141 -293 154q-139 113 -139 317q0 22 2 45q12 186 123 289q119 113 335 113q281 0 365 -109l-14 -182h-136l7 90q-66 92 -232 92q-92 0 -151 -55q-66 -59 -74 -164 q-1 -8 -1 -17q0 -128 150 -210l299 -154q145 -107 145 -295q0 -17 -1 -35q-16 -231 -170 -354q-127 -100 -307 -100q-254 -1 -410 120z" />
<glyph unicode="T" horiz-adv-x="1288" d="M147 1184l19 272h1180l-21 -272h-135l10 164h-332l-86 -1239h205l-8 -109h-651l8 109h205l86 1239l-332 -5l-10 -159h-138z" />
<glyph unicode="U" horiz-adv-x="1437" d="M201 1348l8 108h514l-6 -108h-137l-64 -893q-2 -28 -2 -54q0 -311 295 -311q317 0 344 365l64 893h-138l8 108h383l-8 -108h-137l-61 -893q-33 -473 -529 -473q-248 0 -366 129q-96 105 -97 288q0 27 2 56l64 893h-137z" />
<glyph unicode="V" horiz-adv-x="1343" d="M141 1348l6 108h527l-8 -108h-138l230 -1057l370 1057h-137l8 108h402l-8 -108h-138l-485 -1348h-201l-293 1348h-135z" />
<glyph unicode="W" horiz-adv-x="2113" d="M141 1348l6 108h527l-8 -108h-138l230 -1057l370 1057h-137l8 108h447l-8 -108h-138l230 -1057l371 1057h-138l9 108h399l-6 -108h-137l-486 -1348h-201l-211 1008l-360 -1008h-201l-293 1348h-135zM1300 1348l230 -1057z" />
<glyph unicode="X" horiz-adv-x="1388" d="M127 0l8 109h135l353 628l-254 611h-156l8 108h533l-9 -108h-108l162 -387l215 387h-109l6 108h457l-8 -108h-225l-285 -512l303 -727h129l-8 -109h-535l9 109h137l-211 505l-283 -505h137l-8 -109h-393z" />
<glyph unicode="Y" horiz-adv-x="1323" d="M197 1348l8 108h534l-8 -108h-137l211 -504l282 504h-137l8 108h394l-6 -108h-138l-364 -652l-41 -587h139l-8 -109h-508l6 109h129l41 577l-276 662h-129z" />
<glyph unicode="Z" horiz-adv-x="1155" d="M129 0l6 109l666 1239h-395l-13 -164h-135l18 272h803l-8 -108l-665 -1239h460l13 163h137l-21 -272h-866z" />
<glyph unicode="[" horiz-adv-x="684" d="M156 -485l145 2064h365l-9 -109h-256l-129 -1847h256l-8 -108h-364z" />
<glyph unicode="\" horiz-adv-x="800" d="M186 1460l107 31l401 -1845l-108 -31z" />
<glyph unicode="]" horiz-adv-x="684" d="M80 -485l6 108h256l129 1847h-256l8 109h365l-146 -2064h-362z" />
<glyph unicode="^" horiz-adv-x="819" d="M166 1303l344 262l307 -262l-76 -84l-239 223l-271 -223z" />
<glyph unicode="_" horiz-adv-x="978" d="M29 -600l10 145h819l-10 -145h-819z" />
<glyph unicode="`" horiz-adv-x="729" d="M219 1442l82 129l399 -262l-61 -97z" />
<glyph unicode="a" horiz-adv-x="1183" d="M156 326q0 84 8 192q18 262 102 389q139 203 488 203q109 0 221 -53l-51 -748q-2 -31 -2 -57q0 -143 47 -143q43 0 102 28l23 -92q-178 -63 -293 -63q-100 0 -101 180q0 51 11 110l24 138h-14q-131 -428 -385 -428q-92 0 -131 59q-49 76 -49 285zM369 336q0 -180 43 -180 q29 0 84 49q88 74 149 217q86 193 111 487l4 47q-57 45 -125 45q-225 0 -258 -454q-8 -125 -8 -211z" />
<glyph unicode="b" horiz-adv-x="1183" d="M125 1411q160 63 274 64q96 0 97 -158q0 -51 -9 -133l-49 -502h15q133 428 385 428q92 0 131 -59q49 -76 49 -285q0 -84 -8 -193q-18 -262 -103 -387q-137 -205 -485 -204q-111 0 -225 55l79 1110q4 50 4 88q0 113 -32 113q-43 0 -101 -29zM414 137q57 -47 125 -47 q229 0 260 457q8 119 8 203q0 188 -45 188q-27 0 -84 -49q-86 -76 -148 -217q-86 -195 -112 -490z" />
<glyph unicode="c" horiz-adv-x="974" d="M145 406q0 66 7 141q18 272 171.5 417.5t428.5 145.5q78 0 149 -41l-65 -170q-102 92 -230 92q-119 0 -172 -129q-41 -96 -55 -315q-4 -53 -4 -101q0 -342 166 -342q139 0 266 109l37 -94q-162 -137 -473 -137q-226 0 -226 424z" />
<glyph unicode="d" horiz-adv-x="1183" d="M158 326q0 84 8 192q18 262 96 387q129 205 449 205q41 0 59 -8l4 45q5 58 5 100q0 101 -31 101q-43 0 -101 -29l-22 92q156 63 272 64q53 0 73.5 -38t20.5 -126q0 -47 -6 -127l-59 -875q-2 -33 -2 -61q0 -139 47 -139q43 0 102 28l21 -92q-176 -63 -293 -63 q-98 0 -99 178q0 51 11 112l24 138h-14q-133 -428 -387 -428q-90 0 -129 59q-49 76 -49 285zM369 344q0 -188 45 -188q29 0 84 49q88 74 149 217q84 193 111 487l4 47q-59 45 -127 45q-227 0 -258 -454q-8 -119 -8 -203z" />
<glyph unicode="e" horiz-adv-x="1009" d="M137 375q0 735 570 735q173 0 173 -199q0 -17 -1 -37q-18 -252 -269 -374q-104 -51 -248 -72q-2 -27 -2 -53q0 -88 27 -158q43 -113 139 -113q139 0 293 99l25 -78q-225 -143 -445 -143q-135 0 -198.5 87t-63.5 306zM371 537q82 6 141 30q143 59 154 197q8 111 8 115 q0 123 -111 122q-119 0 -157 -151q-19 -67 -35 -313z" />
<glyph unicode="f" horiz-adv-x="892" d="M147 975v117h144q10 162 63 241q92 141 332 142q47 0 150 -15l-72 -157q-115 63 -146 63q-74 0 -96 -82q-12 -37 -22 -192h225v-117h-233l-54 -793q-23 -328 -104 -547l-144 19l91 1321h-134z" />
<glyph unicode="g" horiz-adv-x="1183" d="M281 -57l28 -54q-37 -31 -37 -65q0 -111 220 -111q90 0 131 78q59 109 127 481l24 138h-12q-133 -428 -387 -428q-92 0 -129 59q-49 76 -49 281q0 86 8 196q18 262 102 387q137 205 486 205q109 0 221 -53l-43 -647q-35 -514 -232 -691q-113 -102 -338 -102 q-111 0 -200 47q-93 48 -93 116q1 126 173 163zM408 342q0 -186 43 -186q29 0 84 49q88 74 149 217q86 193 111 487l4 47q-57 45 -125 45q-225 0 -258 -454q-8 -121 -8 -205z" />
<glyph unicode="h" horiz-adv-x="1202" d="M104 1411q158 63 275 64q96 0 96 -158q0 -51 -8 -133l-49 -502h14q131 428 385 428q94 0 137 -51q51 -61 52 -207q0 -37 -2 -78l-33 -465q-2 -33 -2 -61q0 -139 47 -139q43 0 102 28l21 -92q-176 -63 -293 -63q-94 0 -94 165q0 49 6 125l30 428q4 51 5 91q0 147 -52 147 q-29 0 -88 -49q-88 -76 -151 -217q-84 -195 -105 -490l-12 -182h-211l80 1147q4 52 4 90q0 110 -31 111q-43 0 -102 -29z" />
<glyph unicode="i" horiz-adv-x="774" d="M133 1049q168 61 285 61q92 0 92 -160q0 -49 -6 -131l-43 -510q-2 -35 -2 -65q0 -135 47 -135q43 0 102 28l23 -92q-188 -63 -303 -63q-98 0 -99 161q0 51 9 129l47 510q5 56 5 97q0 104 -34 104q-43 0 -100 -29zM287 1411q0 57 40 97t97 40t96 -40t39 -97t-39 -96 t-96 -39t-97 39t-40 96z" />
<glyph unicode="j" horiz-adv-x="774" d="M45 -383l8 111q98 0 148 65q61 86 78 316l49 673q4 50 3 88q0 113 -32 113q-43 0 -102 -29l-21 95q168 61 283 61q94 0 94 -160q0 -49 -6 -131l-58 -710q-38 -492 -444 -492zM336 1411q0 57 40 97t97 40t97 -40t40 -97t-40 -96t-97 -39t-97 39t-40 96z" />
<glyph unicode="k" horiz-adv-x="1173" d="M104 1411q160 63 275 64q53 0 73.5 -38t20.5 -126q0 -47 -6 -127l-35 -510l379 424h186l-383 -426q16 4 31 4q102 0 162 -201l61 -205q49 -164 111 -164q35 0 86 29l22 -90q-176 -63 -280 -63q-39 0 -59 18q-43 39 -78 164l-64 225q-47 164 -114 164q-12 0 -25 -4 q-25 -10 -49 -43l-33 -506h-209l80 1147q4 52 4 90q0 110 -31 111q-45 0 -102 -29z" />
<glyph unicode="l" horiz-adv-x="782" d="M147 1411q168 63 283 64q94 0 94 -162q0 -49 -6 -129l-69 -875q-2 -33 -3 -61q0 -139 48 -139q43 0 102 28l22 -92q-186 -63 -303 -63q-94 0 -94 159q0 49 6 131l70 875q5 55 4 95q0 105 -31 106q-43 0 -102 -29z" />
<glyph unicode="m" horiz-adv-x="1783" d="M88 1049q160 61 274 61q102 0 103 -145q0 -57 -14 -146l-23 -137h14q131 428 385 428q205 0 205 -201q0 -59 -18 -135l-23 -92h15q133 428 387 428q92 0 137 -51q49 -61 49 -207q0 -37 -2 -78l-33 -465q-2 -31 -2 -59q0 -141 47 -141q45 0 103 28l22 -92 q-178 -63 -293 -63q-96 0 -96 168q0 47 6 122l31 428q4 51 4 91q0 147 -51 147q-29 0 -88 -49q-88 -76 -152 -217q-84 -195 -104 -490l-13 -182h-208l49 700q4 51 4 91q0 147 -51 147q-29 0 -86 -49q-88 -76 -150 -217q-86 -195 -108 -490l-15 -182h-209l56 782q4 52 3 91 q0 110 -30 110q-45 0 -102 -29z" />
<glyph unicode="n" horiz-adv-x="1202" d="M80 1049q158 61 274 61q104 0 105 -145q0 -59 -17 -146l-24 -137h14q133 428 387 428q92 0 137 -51q49 -61 50 -207q0 -37 -2 -78l-33 -465q-2 -31 -2 -59q0 -141 47 -141q45 0 102 28l23 -92q-178 -63 -293 -63q-96 0 -96 168q0 47 6 122l30 428q4 51 5 91 q0 147 -52 147q-29 0 -88 -49q-88 -76 -151 -217q-84 -195 -105 -490l-12 -182h-209l53 782q4 52 4 91q0 110 -30 110q-43 0 -103 -29z" />
<glyph unicode="o" horiz-adv-x="1128" d="M123 442q0 47 4 99q20 291 152 422q147 147 477 147q123 0 194 -121q74 -127 74 -350q0 -47 -4 -98q-20 -289 -152 -420q-147 -147 -477 -148q-123 0 -195.5 124t-72.5 345zM354 487q-1 -36 -1 -67q0 -153 32 -227q47 -111 180 -111q123 0 176 135q43 115 54 389 q1 27 0 52q0 157 -33 235q-49 109 -182 108q-121 0 -172 -133q-44 -115 -54 -381z" />
<glyph unicode="p" horiz-adv-x="1183" d="M115 1049q160 61 276 61q100 0 101 -145q0 -57 -15 -146l-22 -137h14q133 428 385 428q92 0 131 -59q49 -76 49 -285q0 -84 -8 -193q-18 -262 -96 -387q-129 -205 -449 -204q-39 0 -59 8l-27 -355h-209l80 1147q4 52 4 91q0 110 -30 110q-43 0 -103 -29zM430 137 q57 -47 125 -47q229 0 260 457q8 119 8 203q0 188 -45 188q-27 0 -84 -49q-86 -76 -147 -217q-86 -195 -113 -490z" />
<glyph unicode="q" horiz-adv-x="1183" d="M184 326q0 84 9 192q18 262 102 387q137 205 485 205q111 0 224 -53l-76 -1094q-2 -35 -2 -63q0 -123 49 -123q47 0 94 33l29 -93q-31 -16 -262 -61q-39 -6 -152 -39l31 293l49 500h-14q-131 -428 -385 -428q-92 0 -132 59q-49 76 -49 285zM395 342q0 -186 45 -186 q29 0 84 49q88 74 150 217q84 193 110 487l4 47q-57 45 -124 45q-227 0 -261 -454q-8 -121 -8 -205z" />
<glyph unicode="r" horiz-adv-x="919" d="M111 1049q176 61 274 61q106 0 107 -186q0 -43 -9 -84l-10 -54h14q129 324 301 324q88 0 138 -45l-86 -188q-68 61 -92 61q-78 0 -154 -113q-115 -174 -141 -553l-19 -272h-209l54 782q2 33 2 62q0 139 -48 139q-43 0 -102 -29z" />
<glyph unicode="s" horiz-adv-x="958" d="M78 74l88 180q168 -154 313 -154q68 0 111 58q37 51 37 102q0 98 -119 154q-225 104 -234 110q-112 84 -111 247q0 16 1 34q8 117 104 205q109 100 269 100q213 0 292 -47l-84 -193q-141 121 -260 121q-57 0 -95 -48q-42 -54 -42 -109q0 -77 125 -132q205 -90 240 -116 q116 -90 115 -249q0 -15 -1 -32q-8 -117 -110 -205q-135 -119 -393 -118q-92 0 -246 92z" />
<glyph unicode="t" horiz-adv-x="800" d="M109 983v109h139l16 237l213 45l-20 -282h254v-109h-260l-52 -711q-2 -29 -2 -53q0 -106 72 -106q63 0 137 45l39 -88q-152 -88 -321 -88q-68 0 -101 41q-37 49 -37 172q0 35 2 77l52 711h-131z" />
<glyph unicode="u" horiz-adv-x="1202" d="M82 1049q158 61 274 61q94 0 95 -162q0 -49 -7 -129l-30 -428q-4 -49 -4 -90q0 -145 51 -145q29 0 86 49q88 74 149 217q86 193 109 487l14 183h209l-55 -783q-2 -31 -2 -59q0 -141 47 -141q43 0 102 28l23 -92q-178 -63 -293 -63q-98 0 -98 176q0 51 10 114l22 138h-14 q-131 -428 -385 -428q-94 0 -137 51q-51 61 -51 209q0 35 2 77l32 463q4 52 4 91q0 110 -30 110q-43 0 -103 -29z" />
<glyph unicode="v" horiz-adv-x="1122" d="M86 1049q156 61 272 61q66 0 86 -68q14 -45 14 -147q0 -34 -1 -76l-15 -428q-1 -27 -1 -51q0 -185 57 -184q29 0 86 49q86 74 143 215q78 195 88 489q0 16 -12 183l213 47q1 -69 1 -116t-1 -73q-10 -336 -197 -649q-188 -319 -391 -319q-199 0 -199 301v36l17 463 q1 27 1 51q0 150 -34 150q-45 0 -102 -29z" />
<glyph unicode="w" horiz-adv-x="1683" d="M76 1049q156 61 272 61q57 0 79 -45t22 -154q0 -37 -3 -92l-18 -428q-1 -26 -1 -49q0 -186 73 -186q27 0 90 82q78 94 127 219q63 158 63 321q0 72 -4 314h223q-4 -82 -8 -269v-38q0 -172 17 -336q27 -293 90 -293q76 0 159 145q102 174 111 428q1 23 1 47q0 184 -44 344 l213 54q28 -110 28 -258q0 -28 -1 -56q-12 -317 -193 -596q-186 -283 -393 -282q-129 0 -152 258l-14 170h-14q-25 -86 -137 -238q-139 -190 -248 -190q-66 0 -125 61q-74 78 -74 225v23l21 491q1 32 1 59q0 142 -36 142q-43 0 -101 -29z" />
<glyph unicode="x" horiz-adv-x="1112" d="M74 -4l348 545l-141 319q-68 152 -105 152q-31 0 -47 -8l-14 69q41 16 184 37h7q50 0 85 -27q51 -41 96 -151l88 -219l160 241q61 94 117 127q49 29 134 29h22q23 0 67 -23l-45 -92q-12 14 -23.5 14.5t-27.5 4.5t-25 4q-39 0 -80 -64l-227 -350l172 -350 q61 -127 111 -127q20 0 69 29l33 -82q-172 -88 -274 -88q-31 0 -59.5 37.5t-90.5 162.5l-114 236l-275 -422z" />
<glyph unicode="y" horiz-adv-x="1202" d="M106 1049q160 61 275 61q53 0 73.5 -38t20.5 -126q0 -47 -6 -127l-29 -428q-4 -49 -4 -86q0 -150 51 -149q29 0 88 49q88 74 152 215q84 195 104 489l13 183h209l-47 -682q-35 -514 -232 -691q-115 -102 -338 -102q-109 0 -198 47q-93 48 -93 116q0 126 170 163l29 -54 q-37 -31 -37 -65q0 -111 219 -111q90 0 133 78q59 109 127 481l25 138h-14q-133 -428 -387 -428q-92 0 -138 51q-49 61 -49 209q0 35 2 77l33 463q4 50 4 88q0 113 -33 113q-43 0 -100 -29z" />
<glyph unicode="z" horiz-adv-x="1091" d="M80 18l106 -36q31 55 105 55q55 0 197.5 -109.5t218.5 -109.5q227 0 297 284l-80 29q-76 -123 -93 -123q-72 0 -210 117t-213 117q-14 0 -43 -4l583 833l-108 43q-43 -68 -103 -67q-39 0 -157.5 35.5t-165.5 35.5q-215 0 -215 -203q0 -47 12 -92l98 13q-12 31 -12 55 q0 39 35 39q31 0 141.5 -36t149.5 -36q18 0 45 10z" />
<glyph unicode="{" horiz-adv-x="774" d="M227 381q0 80 6 166q27 395 156 651q139 276 342 277l-8 -109q-117 0 -180 -274q-43 -184 -68 -545q-16 -221 -16 -365q0 -455 149 -454l-8 -111q-180 0 -281 221q-92 205 -92 543z" />
<glyph unicode="|" horiz-adv-x="673" d="M270 -391l131 1874h109l-131 -1874h-109z" />
<glyph unicode="}" horiz-adv-x="774" d="M121 -383l8 111q117 0 180 272q43 184 68 547q16 221 16 364q0 455 -149 455l8 109q180 0 280 -222q92 -205 93 -540q0 -82 -7 -166q-27 -395 -155 -653q-139 -277 -342 -277z" />
<glyph unicode="~" horiz-adv-x="909" d="M201 1309q53 166 229 166q66 0 152 -63.5t149 -63.5q92 0 107 86l71 -19q-53 -166 -229 -166q-66 0 -152 63.5t-149 63.5q-92 0 -107 -86z" />
<glyph unicode="&#xa1;" horiz-adv-x="741" d="M252 119q4 70 154 882h86q39 -813 32 -882q-4 -57 -46 -97t-99 -40t-94 40t-33 97zM338 1348q4 57 46 96t99 39t94 -39t33 -96t-46 -97.5t-99 -40.5t-94 40.5t-33 97.5z" />
<glyph unicode="&#xa8;" horiz-adv-x="1130" d="M233 1411q4 57 46.5 97t99.5 40t94 -40t33 -97t-46 -96t-100 -39q-57 0 -94 39t-33 96zM793 1411q4 57 47 97t100 40t94 -40t33 -97t-47 -96t-100 -39t-94 39t-33 96z" />
<glyph unicode="&#xa9;" horiz-adv-x="1157" d="M178 469q0 47 4 113q16 244 88 356q106 172 377 172q16 0 92 -9t144 -9h254l-9 -109h-135l-63 -909q-14 -199 -128 -319t-265 -120q-211 0 -340 93l10 135h137l-4 -64q70 -53 197 -53q174 0 194 291l14 205q-131 -133 -305 -133q-262 0 -262 360zM397 494 q0 -233 127 -234q106 0 213 68l45 628q-59 45 -151 45q-201 0 -230 -391q-4 -67 -4 -116z" />
<glyph unicode="&#xaa;" horiz-adv-x="1183" d="M156 326q0 84 8 192q18 262 102 389q139 203 488 203q109 0 221 -53l-51 -748q-2 -31 -2 -57q0 -143 47 -143q43 0 102 28l23 -92q-178 -63 -293 -63q-100 0 -101 180q0 51 11 110l24 138h-14q-131 -428 -385 -428q-92 0 -131 59q-49 76 -49 285zM369 336q0 -180 43 -180 q29 0 84 49q88 74 149 217q86 193 111 487l4 47q-57 45 -125 45q-225 0 -258 -454q-8 -125 -8 -211z" />
<glyph unicode="&#xad;" horiz-adv-x="856" d="M186 655l9 109h600l-9 -109h-600z" />
<glyph unicode="&#x2212;" horiz-adv-x="856" d="M186 655l9 109h600l-9 -109h-600z" />
<glyph unicode="&#xb0;" horiz-adv-x="636" d="M266 1376q4 70 58.5 121t126.5 51q70 0 116.5 -50t42.5 -122q-4 -70 -58 -121t-126 -51q-70 0 -117 50t-43 122zM336 1376q-2 -43 25.5 -72.5t70.5 -29.5q41 0 74 29.5t35 72.5t-26 73t-69 30q-43 0 -75.5 -30t-34.5 -73z" />
<glyph unicode="&#xb1;" horiz-adv-x="960" d="M139 0l8 109h674l-8 -109h-674zM186 655l9 109h280l21 283h108l-18 -283h280l-6 -109h-282l-21 -282h-108l20 282h-283z" />
<glyph unicode="&#xb2;" horiz-adv-x="1183" d="M123 0l8 119l277 289q190 207 290 362q135 211 136 369q0 227 -191 227q-162 0 -244 -109l-10 -118h-135l14 215q127 121 418 121q231 0 334 -113q76 -84 67 -199q-16 -236 -200 -436l-520 -518h518l8 110h135l-20 -319h-885z" />
<glyph unicode="&#xb3;" horiz-adv-x="1200" d="M135 102l17 217h135l-8 -120q104 -109 266 -109q111 0 186 90q70 84 80 211q10 125 -55.5 213t-177.5 88h-115l8 109h123q209 0 229 282q20 283 -190 283q-160 0 -244 -109l-8 -118h-137l16 215q123 121 381 121q233 0 339.5 -92.5t92.5 -299.5q-18 -262 -227 -338 q236 -49 215 -354q-14 -195 -157.5 -302t-366.5 -107q-259 -1 -402 120z" />
<glyph unicode="&#xb4;" horiz-adv-x="729" d="M221 1309l434 262l66 -129l-453 -230z" />
<glyph unicode="&#xb9;" horiz-adv-x="839" d="M133 0l8 109h174l86 1239h-174l9 108h413l-94 -1347h164l-6 -109h-580z" />
<glyph unicode="&#xba;" horiz-adv-x="1128" d="M123 442q0 47 4 99q20 291 152 422q147 147 477 147q123 0 194 -121q74 -127 74 -350q0 -47 -4 -98q-20 -289 -152 -420q-147 -147 -477 -148q-123 0 -195.5 124t-72.5 345zM354 487q-1 -36 -1 -67q0 -153 32 -227q47 -111 180 -111q123 0 176 135q43 115 54 389 q1 27 0 52q0 157 -33 235q-49 109 -182 108q-121 0 -172 -133q-44 -115 -54 -381z" />
<glyph unicode="&#xbf;" horiz-adv-x="1091" d="M188 348q0 41 5 86q16 219 159 338q121 100 281 100l8 109h135l-14 -219h-133q-186 0 -209 -328q-4 -61 -4 -104q0 -129 41 -180.5t149 -51.5q125 0 174 37l11 135h137l-15 -184q-104 -106 -315 -106q-221 0 -315.5 81.5t-94.5 286.5zM596 1335q4 57 47 97.5t100 40.5 t94 -40t33 -98q-4 -55 -47 -95t-100 -40q-55 0 -93 40t-34 95z" />
<glyph unicode="&#xc0;" d="M313 1827l82 129l399 -262l-61 -97zM59 0l9 109h135l446 1239h-137l8 108h371l291 -1347h137l-8 -109h-525l7 109h137l-70 327h-414l-114 -327h135l-8 -109h-400zM485 547h351l-134 620z" />
<glyph unicode="&#xc1;" d="M686 1694l434 262l66 -129l-453 -230zM59 0l9 109h135l446 1239h-137l8 108h371l291 -1347h137l-8 -109h-525l7 109h137l-70 327h-414l-114 -327h135l-8 -109h-400zM485 547h351l-134 620z" />
<glyph unicode="&#xc2;" d="M424 1682l344 262l307 -262l-76 -84l-239 223l-271 -223zM59 0l9 109h135l446 1239h-137l8 108h371l291 -1347h137l-8 -109h-525l7 109h137l-70 327h-414l-114 -327h135l-8 -109h-400zM485 547h351l-134 620z" />
<glyph unicode="&#xc3;" d="M402 1657q53 166 229 166q66 0 152 -63.5t149 -63.5q92 0 107 86l71 -19q-53 -166 -229 -166q-66 0 -152 63.5t-149 63.5q-92 0 -107 -86zM59 0l9 109h135l446 1239h-137l8 108h371l291 -1347h137l-8 -109h-525l7 109h137l-70 327h-414l-114 -327h135l-8 -109h-400z M485 547h351l-134 620z" />
<glyph unicode="&#xc4;" d="M342 1733q4 57 46.5 97t99.5 40t94 -40t33 -97t-46 -96t-100 -39q-57 0 -94 39t-33 96zM902 1733q4 57 47 97t100 40t94 -40t33 -97t-47 -96t-100 -39t-94 39t-33 96zM59 0l9 109h135l446 1239h-137l8 108h371l291 -1347h137l-8 -109h-525l7 109h137l-70 327h-414 l-114 -327h135l-8 -109h-400zM485 547h351l-134 620z" />
<glyph unicode="&#xc5;" d="M571 1634q4 70 58.5 121t126.5 51q70 0 116.5 -50t42.5 -122q-4 -70 -58 -121t-126 -51q-70 0 -117 50t-43 122zM641 1634q-2 -43 25.5 -72.5t70.5 -29.5q41 0 74 29.5t35 72.5t-26 73t-69 30q-43 0 -75.5 -30t-34.5 -73zM59 0l9 109h135l446 1239h-137l8 108h371 l291 -1347h137l-8 -109h-525l7 109h137l-70 327h-414l-114 -327h135l-8 -109h-400zM485 547h351l-134 620z" />
<glyph unicode="&#xc8;" horiz-adv-x="1163" d="M270 1827l82 129l399 -262l-61 -97zM137 0l6 109h138l88 1239h-138l9 108h845l-18 -272h-137l12 164h-332l-39 -547h254l9 108h137l-25 -327h-135l6 110h-254l-41 -583h342l10 163h138l-21 -272h-854z" />
<glyph unicode="&#xc9;" horiz-adv-x="1163" d="M643 1694l434 262l66 -129l-453 -230zM137 0l6 109h138l88 1239h-138l9 108h845l-18 -272h-137l12 164h-332l-39 -547h254l9 108h137l-25 -327h-135l6 110h-254l-41 -583h342l10 163h138l-21 -272h-854z" />
<glyph unicode="&#xca;" horiz-adv-x="1163" d="M381 1682l344 262l307 -262l-76 -84l-239 223l-271 -223zM137 0l6 109h138l88 1239h-138l9 108h845l-18 -272h-137l12 164h-332l-39 -547h254l9 108h137l-25 -327h-135l6 110h-254l-41 -583h342l10 163h138l-21 -272h-854z" />
<glyph unicode="&#xcb;" horiz-adv-x="1163" d="M299 1733q4 57 46.5 97t99.5 40t94 -40t33 -97t-46 -96t-100 -39q-57 0 -94 39t-33 96zM859 1733q4 57 47 97t100 40t94 -40t33 -97t-47 -96t-100 -39t-94 39t-33 96zM137 0l6 109h138l88 1239h-138l9 108h845l-18 -272h-137l12 164h-332l-39 -547h254l9 108h137 l-25 -327h-135l6 110h-254l-41 -583h342l10 163h138l-21 -272h-854z" />
<glyph unicode="&#xcc;" horiz-adv-x="815" d="M119 1827l82 129l399 -262l-61 -97zM150 0l8 109h137l86 1239h-135l8 108h514l-8 -108h-137l-86 -1239h135l-8 -109h-514z" />
<glyph unicode="&#xcd;" horiz-adv-x="815" d="M491 1694l434 262l66 -129l-453 -230zM150 0l8 109h137l86 1239h-135l8 108h514l-8 -108h-137l-86 -1239h135l-8 -109h-514z" />
<glyph unicode="&#xce;" horiz-adv-x="815" d="M229 1682l344 262l307 -262l-76 -84l-239 223l-271 -223zM150 0l8 109h137l86 1239h-135l8 108h514l-8 -108h-137l-86 -1239h135l-8 -109h-514z" />
<glyph unicode="&#xcf;" horiz-adv-x="815" d="M147 1733q4 57 46.5 97t99.5 40t94 -40t33 -97t-46 -96t-100 -39q-57 0 -94 39t-33 96zM707 1733q4 57 47 97t100 40t94 -40t33 -97t-47 -96t-100 -39t-94 39t-33 96zM150 0l8 109h137l86 1239h-135l8 108h514l-8 -108h-137l-86 -1239h135l-8 -109h-514z" />
<glyph unicode="&#xd1;" horiz-adv-x="1443" d="M537 1657q53 166 229 166q66 0 152 -63.5t149 -63.5q92 0 107 86l71 -19q-53 -166 -229 -166q-66 0 -152 63.5t-149 63.5q-92 0 -107 -86zM137 0l6 109h138l88 1239h-138l9 108h391l485 -1167l76 1059h-137l8 108h381l-6 -108h-138l-96 -1348h-235l-502 1204l-78 -1095 h137l-8 -109h-381z" />
<glyph unicode="&#xd2;" d="M401 1827l82 129l399 -262l-61 -97zM170 598q0 61 4 131q29 403 199 586q150 160 424 160q520 0 520 -617q0 -61 -4 -129q-29 -406 -199 -588q-150 -160 -424 -159q-252 0 -379 133q-141 149 -141 483zM418 553q0 -246 66.5 -354.5t213.5 -108.5q170 0 254 148.5 t109 490.5q6 98 6 178q0 242 -65.5 350.5t-213.5 108.5q-170 0 -254.5 -148.5t-109.5 -488.5q-6 -96 -6 -176z" />
<glyph unicode="&#xd3;" d="M774 1694l434 262l66 -129l-453 -230zM170 598q0 61 4 131q29 403 199 586q150 160 424 160q520 0 520 -617q0 -61 -4 -129q-29 -406 -199 -588q-150 -160 -424 -159q-252 0 -379 133q-141 149 -141 483zM418 553q0 -246 66.5 -354.5t213.5 -108.5q170 0 254 148.5 t109 490.5q6 98 6 178q0 242 -65.5 350.5t-213.5 108.5q-170 0 -254.5 -148.5t-109.5 -488.5q-6 -96 -6 -176z" />
<glyph unicode="&#xd4;" d="M512 1682l344 262l307 -262l-76 -84l-239 223l-271 -223zM170 598q0 61 4 131q29 403 199 586q150 160 424 160q520 0 520 -617q0 -61 -4 -129q-29 -406 -199 -588q-150 -160 -424 -159q-252 0 -379 133q-141 149 -141 483zM418 553q0 -246 66.5 -354.5t213.5 -108.5 q170 0 254 148.5t109 490.5q6 98 6 178q0 242 -65.5 350.5t-213.5 108.5q-170 0 -254.5 -148.5t-109.5 -488.5q-6 -96 -6 -176z" />
<glyph unicode="&#xd5;" d="M490 1657q53 166 229 166q66 0 152 -63.5t149 -63.5q92 0 107 86l71 -19q-53 -166 -229 -166q-66 0 -152 63.5t-149 63.5q-92 0 -107 -86zM170 598q0 61 4 131q29 403 199 586q150 160 424 160q520 0 520 -617q0 -61 -4 -129q-29 -406 -199 -588q-150 -160 -424 -159 q-252 0 -379 133q-141 149 -141 483zM418 553q0 -246 66.5 -354.5t213.5 -108.5q170 0 254 148.5t109 490.5q6 98 6 178q0 242 -65.5 350.5t-213.5 108.5q-170 0 -254.5 -148.5t-109.5 -488.5q-6 -96 -6 -176z" />
<glyph unicode="&#xd6;" d="M430 1733q4 57 46.5 97t99.5 40t94 -40t33 -97t-46 -96t-100 -39q-57 0 -94 39t-33 96zM990 1733q4 57 47 97t100 40t94 -40t33 -97t-47 -96t-100 -39t-94 39t-33 96zM170 598q0 61 4 131q29 403 199 586q150 160 424 160q520 0 520 -617q0 -61 -4 -129 q-29 -406 -199 -588q-150 -160 -424 -159q-252 0 -379 133q-141 149 -141 483zM418 553q0 -246 66.5 -354.5t213.5 -108.5q170 0 254 148.5t109 490.5q6 98 6 178q0 242 -65.5 350.5t-213.5 108.5q-170 0 -254.5 -148.5t-109.5 -488.5q-6 -96 -6 -176z" />
<glyph unicode="&#xd7;" horiz-adv-x="954" d="M236 510l213 201l-185 198l82 78l186 -201l213 201l72 -78l-213 -198l184 -201l-81 -76l-187 199l-213 -199z" />
<glyph unicode="&#xd9;" horiz-adv-x="1437" d="M448 1827l82 129l399 -262l-61 -97zM201 1348l8 108h514l-6 -108h-137l-64 -893q-2 -28 -2 -54q0 -311 295 -311q317 0 344 365l64 893h-138l8 108h383l-8 -108h-137l-61 -893q-33 -473 -529 -473q-248 0 -366 129q-96 105 -97 288q0 27 2 56l64 893h-137z" />
<glyph unicode="&#xda;" horiz-adv-x="1437" d="M821 1694l434 262l66 -129l-453 -230zM201 1348l8 108h514l-6 -108h-137l-64 -893q-2 -28 -2 -54q0 -311 295 -311q317 0 344 365l64 893h-138l8 108h383l-8 -108h-137l-61 -893q-33 -473 -529 -473q-248 0 -366 129q-96 105 -97 288q0 27 2 56l64 893h-137z" />
<glyph unicode="&#xdb;" horiz-adv-x="1437" d="M559 1682l344 262l307 -262l-76 -84l-239 223l-271 -223zM201 1348l8 108h514l-6 -108h-137l-64 -893q-2 -28 -2 -54q0 -311 295 -311q317 0 344 365l64 893h-138l8 108h383l-8 -108h-137l-61 -893q-33 -473 -529 -473q-248 0 -366 129q-96 105 -97 288q0 27 2 56l64 893 h-137z" />
<glyph unicode="&#xdc;" horiz-adv-x="1437" d="M477 1733q4 57 46.5 97t99.5 40t94 -40t33 -97t-46 -96t-100 -39q-57 0 -94 39t-33 96zM1037 1733q4 57 47 97t100 40t94 -40t33 -97t-47 -96t-100 -39t-94 39t-33 96zM201 1348l8 108h514l-6 -108h-137l-64 -893q-2 -28 -2 -54q0 -311 295 -311q317 0 344 365l64 893 h-138l8 108h383l-8 -108h-137l-61 -893q-33 -473 -529 -473q-248 0 -366 129q-96 105 -97 288q0 27 2 56l64 893h-137z" />
<glyph unicode="&#xdd;" horiz-adv-x="1323" d="M197 1348l8 108h532l-6 -108h-137l211 -504l280 504h-135l8 108h394l-9 -108h-135l-364 -652l-41 -587h139l-8 -109h-508l6 109h129l41 577l-278 662h-127z" />
<glyph unicode="&#xe0;" horiz-adv-x="1142" d="M156 326q0 84 8 192q18 262 102 389q139 203 488 203q109 0 221 -53l-51 -748q-2 -31 -2 -57q0 -143 47 -143q43 0 102 28l23 -92q-178 -63 -293 -63q-100 0 -101 180q0 51 11 110l24 138h-14q-131 -428 -385 -428q-92 0 -131 59q-49 76 -49 285zM246 1442l73 129 l416 -262l-55 -97zM369 336q0 -180 43 -180q29 0 84 49q88 74 149 217q86 193 111 487l4 47q-57 45 -125 45q-225 0 -258 -454q-8 -125 -8 -211z" />
<glyph unicode="&#xe1;" horiz-adv-x="1142" d="M156 326q0 84 8 192q18 262 102 389q139 203 488 203q109 0 221 -53l-51 -748q-2 -31 -2 -57q0 -143 47 -143q43 0 102 28l23 -92q-178 -63 -293 -63q-100 0 -101 180q0 51 11 110l24 138h-14q-131 -428 -385 -428q-92 0 -131 59q-49 76 -49 285zM369 336q0 -180 43 -180 q29 0 84 49q88 74 149 217q86 193 111 487l4 47q-57 45 -125 45q-225 0 -258 -454q-8 -125 -8 -211zM373 1309l415 262l76 -129l-436 -230z" />
<glyph unicode="&#xe2;" horiz-adv-x="1142" d="M156 326q0 84 8 192q18 262 102 389q139 203 488 203q109 0 221 -53l-51 -748q-2 -31 -2 -57q0 -143 47 -143q43 0 102 28l23 -92q-178 -63 -293 -63q-100 0 -101 180q0 51 11 110l24 138h-14q-131 -428 -385 -428q-92 0 -131 59q-49 76 -49 285zM229 1303l326 262 l326 -262l-70 -84l-256 223l-254 -223zM369 336q0 -180 43 -180q29 0 84 49q88 74 149 217q86 193 111 487l4 47q-57 45 -125 45q-225 0 -258 -454q-8 -125 -8 -211z" />
<glyph unicode="&#xe3;" horiz-adv-x="1142" d="M156 326q0 84 8 192q18 262 102 389q139 203 488 203q109 0 221 -53l-51 -748q-2 -31 -2 -57q0 -143 47 -143q43 0 102 28l23 -92q-178 -63 -293 -63q-100 0 -101 180q0 51 11 110l24 138h-14q-131 -428 -385 -428q-92 0 -131 59q-49 76 -49 285zM180 1415l74 19 q14 -86 98 -86q66 0 157 63.5t155 63.5q176 0 217 -166l-72 -19q-16 86 -100 86q-63 0 -154.5 -63.5t-155.5 -63.5q-178 0 -219 166zM369 336q0 -180 43 -180q29 0 84 49q88 74 149 217q86 193 111 487l4 47q-57 45 -125 45q-225 0 -258 -454q-8 -125 -8 -211z" />
<glyph unicode="&#xe4;" horiz-adv-x="1142" d="M156 326q0 84 8 192q18 262 102 389q139 203 488 203q109 0 221 -53l-51 -748q-2 -31 -2 -57q0 -143 47 -143q43 0 102 28l23 -92q-178 -63 -293 -63q-100 0 -101 180q0 51 11 110l24 138h-14q-131 -428 -385 -428q-92 0 -131 59q-49 76 -49 285zM172 1411q0 57 39 97 t96 40t97 -40t40 -97t-39.5 -96t-97.5 -39q-57 0 -96 39t-39 96zM369 336q0 -180 43 -180q29 0 84 49q88 74 149 217q86 193 111 487l4 47q-57 45 -125 45q-225 0 -258 -454q-8 -125 -8 -211zM655 1411q0 57 40 97t98 40q57 0 97 -40t40 -97t-40 -96t-97 -39t-97.5 39 t-40.5 96z" />
<glyph unicode="&#xe5;" horiz-adv-x="1142" d="M156 326q0 84 8 192q18 262 102 389q139 203 488 203q109 0 221 -53l-51 -748q-2 -31 -2 -57q0 -143 47 -143q43 0 102 28l23 -92q-178 -63 -293 -63q-100 0 -101 180q0 51 11 110l24 138h-14q-131 -428 -385 -428q-92 0 -131 59q-49 76 -49 285zM356 1376q0 72 51.5 122 t120.5 50q72 0 122 -50t50 -122q0 -70 -50 -121t-122 -51q-70 0 -121 51t-51 121zM369 336q0 -180 43 -180q29 0 84 49q88 74 149 217q86 193 111 487l4 47q-57 45 -125 45q-225 0 -258 -454q-8 -125 -8 -211zM426 1376q0 -43 30.5 -72.5t71.5 -29.5q43 0 73 29.5t30 72.5 t-30 73t-73 30q-41 0 -71.5 -30t-30.5 -73z" />
<glyph unicode="&#xe6;" horiz-adv-x="1046" d="M135 285q0 37 4 80q14 205 120 292.5t343 87.5q27 0 109 -18l8 119q-4 49 -37 90q-45 55 -117 55q-127 0 -186 -45l-8 -108h-135l10 163q125 109 336 109q225 0 262 -100q31 43 103.5 71.5t150.5 28.5q197 0 281.5 -76t72.5 -254q-10 -164 -121 -239q-84 -61 -213 -62 q-104 0 -213 41l-2 -28q-2 -33 -2 -64q0 -143 41 -235q47 -102 133 -103q104 0 297 74l21 -90q-160 -92 -371 -92q-207 0 -305 188q-53 -68 -135 -121q-106 -68 -207 -67q-123 0 -181.5 71.5t-58.5 231.5zM365 295q0 -106 34 -137q20 -20 88 -21q33 0 90.5 43t106.5 109 q-12 76 -4 258l2 43q-53 47 -88 47q-125 0 -170 -52.5t-57 -219.5q-2 -39 -2 -70zM911 614q74 -25 176 -24q131 0 146 198q12 217 -139 218q-160 -1 -183 -392z" />
<glyph unicode="&#xe7;" horiz-adv-x="991" d="M145 406q0 66 7 141q18 272 171.5 417.5t428.5 145.5q78 0 149 -41l-65 -170q-102 92 -230 92q-119 0 -172 -129q-41 -96 -55 -315q-4 -53 -4 -101q0 -342 166 -342q139 0 266 109l37 -94q-27 -25 -64 -45q-86 -49 -202 -72l-25 -102q219 0 219 -140q0 -162 -186 -161 q-96 0 -213 41l2 90q117 -53 190 -54q82 0 82 72q0 57 -55 72q-27 6 -166 6l45 160q-61 -4 -100 -4q-226 0 -226 424z" />
<glyph unicode="&#xe8;" horiz-adv-x="1069" d="M137 375q0 735 570 735q188 0 172 -236q-18 -252 -269 -374q-104 -51 -248 -72q-10 -121 25 -211q43 -113 139 -113q139 0 293 99l25 -78q-225 -143 -445 -143q-135 0 -198.5 87t-63.5 306zM254 1442l74 129l417 -262l-55 -97zM371 537q82 6 141 30q143 59 154 197 q8 111 8 115q0 123 -111 122q-119 0 -157 -151q-19 -67 -35 -313z" />
<glyph unicode="&#xe9;" horiz-adv-x="1069" d="M137 375q0 735 570 735q188 0 172 -236q-18 -252 -269 -374q-104 -51 -248 -72q-10 -121 25 -211q43 -113 139 -113q139 0 293 99l25 -78q-225 -143 -445 -143q-135 0 -198.5 87t-63.5 306zM371 537q82 6 141 30q143 59 154 197q8 111 8 115q0 123 -111 122 q-119 0 -157 -151q-19 -67 -35 -313zM379 1309l416 262l75 -129l-436 -230z" />
<glyph unicode="&#xea;" horiz-adv-x="1032" d="M137 375q0 735 570 735q188 0 172 -236q-18 -252 -269 -374q-104 -51 -248 -72q-10 -121 25 -211q43 -113 139 -113q139 0 293 99l25 -78q-225 -143 -445 -143q-135 0 -198.5 87t-63.5 306zM229 1303l326 262l326 -262l-70 -84l-256 223l-254 -223zM371 537q82 6 141 30 q143 59 154 197q8 111 8 115q0 123 -111 122q-119 0 -157 -151q-19 -67 -35 -313z" />
<glyph unicode="&#xeb;" horiz-adv-x="1032" d="M137 375q0 735 570 735q188 0 172 -236q-18 -252 -269 -374q-104 -51 -248 -72q-10 -121 25 -211q43 -113 139 -113q139 0 293 99l25 -78q-225 -143 -445 -143q-135 0 -198.5 87t-63.5 306zM162 1411q0 57 40 97t97 40t96 -40t39 -97t-39 -96t-96 -39t-97 39t-40 96z M371 537q82 6 141 30q143 59 154 197q8 111 8 115q0 123 -111 122q-119 0 -157 -151q-19 -67 -35 -313zM670 1411q0 57 40 97t97 40t96 -40t39 -97t-39 -96t-96 -39t-97 39t-40 96z" />
<glyph unicode="&#xec;" horiz-adv-x="784" d="M18 1442l76 129l416 -262l-55 -97zM133 1049q168 61 285 61q92 0 92 -160q0 -49 -6 -131l-43 -510q-2 -35 -2 -65q0 -135 47 -135q43 0 102 28l23 -92q-188 -63 -303 -63q-98 0 -99 161q0 51 9 129l47 510q18 201 -29 201q-43 0 -100 -29z" />
<glyph unicode="&#xed;" horiz-adv-x="784" d="M133 1049q168 61 285 61q92 0 92 -160q0 -49 -6 -131l-43 -510q-2 -35 -2 -65q0 -135 47 -135q43 0 102 28l23 -92q-188 -63 -303 -63q-98 0 -99 161q0 51 9 129l47 510q18 201 -29 201q-43 0 -100 -29zM236 1309l415 262l74 -129l-436 -230z" />
<glyph unicode="&#xee;" horiz-adv-x="784" d="M35 1303l325 262l326 -262l-72 -84l-254 223l-254 -223zM133 1049q168 61 285 61q92 0 92 -160q0 -49 -6 -131l-43 -510q-2 -35 -2 -65q0 -135 47 -135q43 0 102 28l23 -92q-188 -63 -303 -63q-98 0 -99 161q0 51 9 129l47 510q18 201 -29 201q-43 0 -100 -29z" />
<glyph unicode="&#xef;" horiz-adv-x="784" d="M16 1411q0 57 40 97t98 40q57 0 96 -40t39 -97q0 -55 -44 -95t-102 -40q-55 0 -91 39t-36 96zM133 1049q168 61 285 61q92 0 92 -160q0 -49 -6 -131l-43 -510q-2 -35 -2 -65q0 -135 47 -135q43 0 102 28l23 -92q-188 -63 -303 -63q-98 0 -99 161q0 51 9 129l47 510 q18 201 -29 201q-43 0 -100 -29zM457 1411q0 57 39 97t96 40t97 -40t40 -97q0 -55 -44 -95t-101 -40q-55 0 -91 39t-36 96z" />
<glyph unicode="&#xf1;" horiz-adv-x="1318" d="M80 1049q158 61 274 61q104 0 105 -145q0 -59 -17 -146l-24 -137h14q133 428 387 428q92 0 137 -51q49 -61 50 -207q0 -37 -2 -78l-33 -465q-2 -31 -2 -59q0 -141 47 -141q45 0 102 28l23 -92q-178 -63 -293 -63q-96 0 -96 168q0 47 6 122l30 428q4 51 5 91 q0 147 -52 147q-29 0 -88 -49q-88 -76 -151 -217q-84 -195 -105 -490l-12 -182h-209l53 782q14 201 -26 201q-43 0 -103 -29zM283 1309q41 166 217 166q66 0 157 -63.5t154 -63.5q84 0 98 86l74 -19q-41 -166 -219 -166q-63 0 -154.5 63.5t-154.5 63.5q-84 0 -101 -86z" />
<glyph unicode="&#xf2;" horiz-adv-x="1146" d="M123 442q0 47 4 99q20 291 152 422q147 147 477 147q123 0 194 -121q74 -127 74 -350q0 -47 -4 -98q-20 -289 -152 -420q-147 -147 -477 -148q-123 0 -195.5 124t-72.5 345zM270 1442l74 129l416 -262l-55 -97zM354 487q-8 -205 31 -294q47 -111 180 -111q123 0 176 135 q43 115 54 389q6 197 -33 287q-49 109 -182 108q-121 0 -172 -133q-44 -115 -54 -381z" />
<glyph unicode="&#xf3;" horiz-adv-x="1146" d="M123 442q0 47 4 99q20 291 152 422q147 147 477 147q123 0 194 -121q74 -127 74 -350q0 -47 -4 -98q-20 -289 -152 -420q-147 -147 -477 -148q-123 0 -195.5 124t-72.5 345zM354 487q-8 -205 31 -294q47 -111 180 -111q123 0 176 135q43 115 54 389q6 197 -33 287 q-49 109 -182 108q-121 0 -172 -133q-44 -115 -54 -381zM395 1309l416 262l74 -129l-434 -230z" />
<glyph unicode="&#xf4;" horiz-adv-x="1146" d="M123 442q0 47 4 99q20 291 152 422q147 147 477 147q123 0 194 -121q74 -127 74 -350q0 -47 -4 -98q-20 -289 -152 -420q-147 -147 -477 -148q-123 0 -195.5 124t-72.5 345zM248 1303l325 262l326 -262l-72 -84l-254 223l-254 -223zM354 487q-8 -205 31 -294 q47 -111 180 -111q123 0 176 135q43 115 54 389q6 197 -33 287q-49 109 -182 108q-121 0 -172 -133q-44 -115 -54 -381z" />
<glyph unicode="&#xf5;" horiz-adv-x="1146" d="M123 442q0 47 4 99q20 291 152 422q147 147 477 147q123 0 194 -121q74 -127 74 -350q0 -47 -4 -98q-20 -289 -152 -420q-147 -147 -477 -148q-123 0 -195.5 124t-72.5 345zM227 1309q41 166 219 166q63 0 154.5 -63.5t155.5 -63.5q84 0 100 86l72 -19 q-41 -166 -217 -166q-66 0 -156 63.5t-154 63.5q-86 0 -100 -86zM354 487q-8 -205 31 -294q47 -111 180 -111q123 0 176 135q43 115 54 389q6 197 -33 287q-49 109 -182 108q-121 0 -172 -133q-44 -115 -54 -381z" />
<glyph unicode="&#xf6;" horiz-adv-x="1146" d="M123 442q0 47 4 99q20 291 152 422q147 147 477 147q123 0 194 -121q74 -127 74 -350q0 -47 -4 -98q-20 -289 -152 -420q-147 -147 -477 -148q-123 0 -195.5 124t-72.5 345zM172 1411q0 57 40 97t97 40t97 -40t40 -97t-39.5 -96t-97.5 -39q-57 0 -97 39t-40 96zM354 487 q-8 -205 31 -294q47 -111 180 -111q123 0 176 135q43 115 54 389q6 197 -33 287q-49 109 -182 108q-121 0 -172 -133q-44 -115 -54 -381zM700 1411q0 57 40 97t98 40q57 0 97 -40t40 -97t-40 -96t-97 -39t-97.5 39t-40.5 96z" />
<glyph unicode="&#xf9;" horiz-adv-x="1306" d="M82 1049q158 61 274 61q94 0 95 -162q0 -49 -7 -129l-30 -428q-4 -49 -4 -90q0 -145 51 -145q29 0 86 49q88 74 149 217q86 193 109 487l14 183h209l-55 -783q-2 -31 -2 -59q0 -141 47 -141q43 0 102 28l23 -92q-178 -63 -293 -63q-98 0 -98 176q0 51 10 114l22 138h-14 q-131 -428 -385 -428q-94 0 -137 51q-51 61 -51 209q0 35 2 77l32 463q14 201 -26 201q-43 0 -103 -29zM281 1442l75 129l416 -262l-55 -97z" />
<glyph unicode="&#xfa;" horiz-adv-x="1306" d="M82 1049q158 61 274 61q94 0 95 -162q0 -49 -7 -129l-30 -428q-4 -49 -4 -90q0 -145 51 -145q29 0 86 49q88 74 149 217q86 193 109 487l14 183h209l-55 -783q-2 -31 -2 -59q0 -141 47 -141q43 0 102 28l23 -92q-178 -63 -293 -63q-98 0 -98 176q0 51 10 114l22 138h-14 q-131 -428 -385 -428q-94 0 -137 51q-51 61 -51 209q0 35 2 77l32 463q14 201 -26 201q-43 0 -103 -29zM508 1309l416 262l75 -129l-436 -230z" />
<glyph unicode="&#xfb;" horiz-adv-x="1306" d="M82 1049q158 61 274 61q94 0 95 -162q0 -49 -7 -129l-30 -428q-4 -49 -4 -90q0 -145 51 -145q29 0 86 49q88 74 149 217q86 193 109 487l14 183h209l-55 -783q-2 -31 -2 -59q0 -141 47 -141q43 0 102 28l23 -92q-178 -63 -293 -63q-98 0 -98 176q0 51 10 114l22 138h-14 q-131 -428 -385 -428q-94 0 -137 51q-51 61 -51 209q0 35 2 77l32 463q14 201 -26 201q-43 0 -103 -29zM305 1303l326 262l327 -262l-71 -84l-256 223l-254 -223z" />
<glyph unicode="&#xfc;" horiz-adv-x="1306" d="M82 1049q158 61 274 61q94 0 95 -162q0 -49 -7 -129l-30 -428q-4 -49 -4 -90q0 -145 51 -145q29 0 86 49q88 74 149 217q86 193 109 487l14 183h209l-55 -783q-2 -31 -2 -59q0 -141 47 -141q43 0 102 28l23 -92q-178 -63 -293 -63q-98 0 -98 176q0 51 10 114l22 138h-14 q-131 -428 -385 -428q-94 0 -137 51q-51 61 -51 209q0 35 2 77l32 463q14 201 -26 201q-43 0 -103 -29zM225 1411q0 57 40 97t97 40t97.5 -40t40.5 -97t-40 -96t-98 -39q-57 0 -97 39t-40 96zM786 1411q0 57 39 97t97 40q57 0 97 -40t40 -97t-40 -96t-97 -39t-96.5 39 t-39.5 96z" />
<glyph unicode="&#xfd;" horiz-adv-x="1103" d="M106 1049q160 61 275 61q53 0 73.5 -38t20.5 -126q0 -47 -6 -127l-29 -428q-4 -49 -4 -86q0 -150 51 -149q29 0 88 49q88 74 152 215q84 195 104 489l13 183h209l-47 -682q-35 -514 -232 -691q-115 -102 -338 -102q-109 0 -198 47q-98 51 -93 125q8 119 170 154l29 -54 q-37 -31 -37 -65q0 -111 219 -111q90 0 133 78q59 109 127 481l25 138h-14q-133 -428 -387 -428q-92 0 -138 51q-49 61 -49 209q0 35 2 77l33 463q14 201 -29 201t-100 -29zM365 1309l415 262l76 -129l-436 -230z" />
<glyph unicode="&#xff;" horiz-adv-x="1103" d="M68 983v109h399v-109h-82l221 -774l223 774h-112v109h319v-109h-92l-282 -997q-63 -223 -136 -301q-61 -68 -174 -68q-59 0 -96 6v105q102 -12 158 57q45 55 45 145q0 37 -8 70l-283 983h-100zM172 1411q0 57 40 97t97 40t97 -40t40 -97t-39.5 -96t-97.5 -39 q-57 0 -97 39t-40 96zM700 1411q0 57 40 97t98 40q57 0 97 -40t40 -97t-40 -96t-97 -39t-97.5 39t-40.5 96z" />
<glyph unicode="&#x152;" horiz-adv-x="2547" d="M1521 0l6 109h138l88 1239h-138l9 108h845l-18 -272h-137l12 164h-332l-39 -547h254l9 108h137l-25 -327h-135l6 110h-254l-41 -583h342l10 163h138l-21 -272h-854zM170 598q0 61 4 131q29 403 199 586q150 160 424 160q520 0 520 -617q0 -61 -4 -129q-29 -406 -199 -588 q-150 -160 -424 -159q-252 0 -379 133q-141 149 -141 483zM418 553q0 -246 66.5 -354.5t213.5 -108.5q170 0 254 148.5t109 490.5q6 98 6 178q0 242 -65.5 350.5t-213.5 108.5q-170 0 -254.5 -148.5t-109.5 -488.5q-6 -96 -6 -176z" />
<glyph unicode="&#x153;" horiz-adv-x="2138" d="M1265 375q0 735 570 735q173 0 173 -199q0 -17 -1 -37q-18 -252 -269 -374q-104 -51 -248 -72q-2 -27 -2 -53q0 -88 27 -158q43 -113 139 -113q139 0 293 99l25 -78q-225 -143 -445 -143q-135 0 -198.5 87t-63.5 306zM1499 537q82 6 141 30q143 59 154 197q8 111 8 115 q0 123 -111 122q-119 0 -157 -151q-19 -67 -35 -313zM123 442q0 47 4 99q20 291 152 422q147 147 477 147q123 0 194 -121q74 -127 74 -350q0 -47 -4 -98q-20 -289 -152 -420q-147 -147 -477 -148q-123 0 -195.5 124t-72.5 345zM354 487q-1 -36 -1 -67q0 -153 32 -227 q47 -111 180 -111q123 0 176 135q43 115 54 389q1 27 0 52q0 157 -33 235q-49 109 -182 108q-121 0 -172 -133q-44 -115 -54 -381z" />
<glyph unicode="&#x178;" horiz-adv-x="1323" d="M415 1733q4 57 46.5 97t99.5 40t94 -40t33 -97t-46 -96t-100 -39q-57 0 -94 39t-33 96zM975 1733q4 57 47 97t100 40t94 -40t33 -97t-47 -96t-100 -39t-94 39t-33 96zM197 1348l8 108h534l-8 -108h-137l211 -504l282 504h-137l8 108h394l-6 -108h-138l-364 -652l-41 -587 h139l-8 -109h-508l6 109h129l41 577l-276 662h-129z" />
<glyph unicode="&#x2c6;" horiz-adv-x="819" d="M166 1303l344 262l307 -262l-76 -84l-239 223l-271 -223z" />
<glyph unicode="&#x2dc;" horiz-adv-x="681" d="M-307 183q53 166 229 166q66 0 152 -63.5t149 -63.5q92 0 107 86l71 -19q-53 -166 -229 -166q-66 0 -152 63.5t-149 63.5q-92 0 -107 -86z" />
<glyph unicode="&#x2000;" horiz-adv-x="976" />
<glyph unicode="&#x2001;" horiz-adv-x="1955" />
<glyph unicode="&#x2002;" horiz-adv-x="976" />
<glyph unicode="&#x2003;" horiz-adv-x="1955" />
<glyph unicode="&#x2004;" horiz-adv-x="651" />
<glyph unicode="&#x2005;" horiz-adv-x="487" />
<glyph unicode="&#x2006;" horiz-adv-x="325" />
<glyph unicode="&#x2007;" horiz-adv-x="325" />
<glyph unicode="&#x2008;" horiz-adv-x="243" />
<glyph unicode="&#x2009;" horiz-adv-x="391" />
<glyph unicode="&#x200a;" horiz-adv-x="108" />
<glyph unicode="&#x2010;" horiz-adv-x="788" d="M227 473l11 145h401l-10 -145h-402z" />
<glyph unicode="&#x2011;" horiz-adv-x="788" d="M227 473l11 145h401l-10 -145h-402z" />
<glyph unicode="&#x2012;" horiz-adv-x="788" d="M227 473l11 145h401l-10 -145h-402z" />
<glyph unicode="&#x2013;" horiz-adv-x="987" d="M172 473v145h682v-145h-682z" />
<glyph unicode="&#x2014;" horiz-adv-x="1269" d="M172 473v145h936v-145h-936z" />
<glyph unicode="&#x2018;" horiz-adv-x="681" d="M197 1264q0 215 215 325l49 -76q-150 -92 -150 -200q25 37 66 37q53 0 85 -39t32 -99q0 -55 -39 -95t-97 -40q-70 0 -115.5 48.5t-45.5 138.5z" />
<glyph unicode="&#x2019;" horiz-adv-x="681" d="M188 1411q0 57 39 97t97 40q70 0 114.5 -48t44.5 -140q0 -215 -213 -324l-49 74q150 92 150 201q-25 -37 -68 -37q-53 0 -84 39t-31 98z" />
<glyph unicode="&#x201c;" horiz-adv-x="1046" d="M160 1264q0 215 215 325l49 -76q-152 -92 -152 -200q27 37 68 37q53 0 85 -40t32 -98q0 -55 -40 -95t-98 -40q-70 0 -114.5 48.5t-44.5 138.5zM618 1264q0 215 216 325l49 -76q-152 -92 -152 -200q27 37 68 37q53 0 84.5 -40t31.5 -98q0 -55 -39.5 -95t-97.5 -40 q-70 0 -115 48.5t-45 138.5z" />
<glyph unicode="&#x201d;" horiz-adv-x="1046" d="M147 1411q0 57 40 97t98 40q70 0 114.5 -48t44.5 -140q0 -215 -215 -324l-49 74q152 92 152 201q-27 -37 -68 -37q-53 0 -85 40t-32 97zM606 1411q0 57 39 97t96 40q70 0 115 -48t45 -140q0 -215 -213 -324l-49 74q150 92 149 201q-25 -37 -67 -37q-53 0 -84 39t-31 98z " />
<glyph unicode="&#x2022;" horiz-adv-x="1040" d="M291 682q0 94 66.5 160.5t160.5 66.5q96 0 161.5 -65.5t65.5 -161.5q0 -94 -66.5 -160.5t-160.5 -66.5t-160.5 66.5t-66.5 160.5z" />
<glyph unicode="&#x2026;" horiz-adv-x="2027" d="M1571 119q4 57 47 96t99 39q57 0 94 -39t33 -96t-46.5 -97t-99.5 -40t-94 40t-33 97zM895 119q4 57 47 96t99 39q57 0 94 -39t33 -96t-46.5 -97t-99.5 -40t-94 40t-33 97zM219 119q4 57 47 96t99 39q57 0 94 -39t33 -96t-46.5 -97t-99.5 -40t-94 40t-33 97z" />
<glyph unicode="&#x202f;" horiz-adv-x="391" />
<glyph unicode="&#x2039;" horiz-adv-x="954" d="M287 295l241 254l-204 256l90 72l239 -328l-284 -326z" />
<glyph unicode="&#x205f;" horiz-adv-x="487" />
<glyph unicode="&#x2122;" horiz-adv-x="3125" d="M1425 -2l6 108h138l88 1242h-138l9 108h442l258 -1165l416 1165h446l-6 -108h-137l-88 -1239h137l-8 -109h-512l8 109h135l82 1167l-461 -1276h-200l-279 1284l-84 -1178h137l-8 -108h-381zM147 1184l19 272h1180l-21 -272h-135l10 164h-332l-86 -1239h205l-8 -109h-651 l8 109h205l86 1239l-332 -5l-10 -159h-138z" />
<glyph unicode="&#xe000;" horiz-adv-x="1110" d="M0 1110h1110v-1110h-1110v1110z" />
<glyph unicode="&#xfb01;" horiz-adv-x="1667" d="M1026 1049q168 61 285 61q92 0 92 -160q0 -49 -6 -131l-43 -510q-2 -35 -2 -65q0 -135 47 -135q43 0 102 28l23 -92q-188 -63 -303 -63q-98 0 -99 161q0 51 9 129l47 510q5 56 5 97q0 104 -34 104q-43 0 -100 -29zM1180 1411q0 57 40 97t97 40t96 -40t39 -97t-39 -96 t-96 -39t-97 39t-40 96zM147 975v117h144q10 162 63 241q92 141 332 142q47 0 150 -15l-72 -157q-115 63 -146 63q-74 0 -96 -82q-12 -37 -22 -192h225v-117h-233l-54 -793q-23 -328 -104 -547l-144 19l91 1321h-134z" />
<glyph unicode="&#xfb02;" horiz-adv-x="1675" d="M1040 1411q168 63 283 64q94 0 94 -162q0 -49 -6 -129l-69 -875q-2 -33 -3 -61q0 -139 48 -139q43 0 102 28l22 -92q-186 -63 -303 -63q-94 0 -94 159q0 49 6 131l70 875q5 55 4 95q0 105 -31 106q-43 0 -102 -29zM147 975v117h144q10 162 63 241q92 141 332 142 q47 0 150 -15l-72 -157q-115 63 -146 63q-74 0 -96 -82q-12 -37 -22 -192h225v-117h-233l-54 -793q-23 -328 -104 -547l-144 19l91 1321h-134z" />
<glyph unicode="&#xfb03;" horiz-adv-x="2560" d="M1919 1049q168 61 285 61q92 0 92 -160q0 -49 -6 -131l-43 -510q-2 -35 -2 -65q0 -135 47 -135q43 0 102 28l23 -92q-188 -63 -303 -63q-98 0 -99 161q0 51 9 129l47 510q5 56 5 97q0 104 -34 104q-43 0 -100 -29zM2073 1411q0 57 40 97t97 40t96 -40t39 -97t-39 -96 t-96 -39t-97 39t-40 96zM1040 975v117h144q10 162 63 241q92 141 332 142q47 0 150 -15l-72 -157q-115 63 -146 63q-74 0 -96 -82q-12 -37 -22 -192h225v-117h-233l-54 -793q-23 -328 -104 -547l-144 19l91 1321h-134zM147 975v117h144q10 162 63 241q92 141 332 142 q47 0 150 -15l-72 -157q-115 63 -146 63q-74 0 -96 -82q-12 -37 -22 -192h225v-117h-233l-54 -793q-23 -328 -104 -547l-144 19l91 1321h-134z" />
<glyph unicode="&#xfb04;" horiz-adv-x="2568" d="M1933 1411q168 63 283 64q94 0 94 -162q0 -49 -6 -129l-69 -875q-2 -33 -3 -61q0 -139 48 -139q43 0 102 28l22 -92q-186 -63 -303 -63q-94 0 -94 159q0 49 6 131l70 875q5 55 4 95q0 105 -31 106q-43 0 -102 -29zM1040 975v117h144q10 162 63 241q92 141 332 142 q47 0 150 -15l-72 -157q-115 63 -146 63q-74 0 -96 -82q-12 -37 -22 -192h225v-117h-233l-54 -793q-23 -328 -104 -547l-144 19l91 1321h-134zM147 975v117h144q10 162 63 241q92 141 332 142q47 0 150 -15l-72 -157q-115 63 -146 63q-74 0 -96 -82q-12 -37 -22 -192h225 v-117h-233l-54 -793q-23 -328 -104 -547l-144 19l91 1321h-134z" />
</font>
</defs>
</svg>
